  0
SECTION
  2
HEADER
  9
$ACADVER
  1
AC1009
  9
$INSBASE
 10
0.0
 20
0.0
 30
0.0
  9
$EXTMIN
 10
-0.3847366726913606
 20
-0.2718480002768047
 30
-0.0000000000000058
  9
$EXTMAX
 10
7809.3659904181358797
 20
5446.6541720044879185
 30
0.0000000000000104
  9
$LIMMIN
 10
0.0
 20
0.0
  9
$LIMMAX
 10
8400.0
 20
5940.0
  9
$ORTHOMODE
 70
     0
  9
$REGENMODE
 70
     1
  9
$FILLMODE
 70
     1
  9
$QTEXTMODE
 70
     0
  9
$MIRRTEXT
 70
     0
  9
$DRAGMODE
 70
     2
  9
$LTSCALE
 40
200.0
  9
$OSMODE
 70
    47
  9
$ATTMODE
 70
     1
  9
$TEXTSIZE
 40
0.2
  9
$TRACEWID
 40
0.05
  9
$TEXTSTYLE
  7
STANDARD
  9
$CLAYER
  8
0
  9
$CELTYPE
  6
BYLAYER
  9
$CECOLOR
 62
     7
  9
$DIMSCALE
 40
20.0
  9
$DIMASZ
 40
2.0
  9
$DIMEXO
 40
1.0
  9
$DIMDLI
 40
0.0
  9
$DIMRND
 40
0.0
  9
$DIMDLE
 40
0.0
  9
$DIMEXE
 40
1.0
  9
$DIMTP
 40
0.0
  9
$DIMTM
 40
0.0
  9
$DIMTXT
 40
2.5
  9
$DIMCEN
 40
-1.0
  9
$DIMTSZ
 40
0.0
  9
$DIMTOL
 70
     0
  9
$DIMLIM
 70
     0
  9
$DIMTIH
 70
     0
  9
$DIMTOH
 70
     0
  9
$DIMSE1
 70
     0
  9
$DIMSE2
 70
     0
  9
$DIMTAD
 70
     1
  9
$DIMZIN
 70
     8
  9
$DIMBLK
  1

  9
$DIMASO
 70
     1
  9
$DIMSHO
 70
     1
  9
$DIMPOST
  1

  9
$DIMAPOST
  1

  9
$DIMALT
 70
     0
  9
$DIMALTD
 70
     2
  9
$DIMALTF
 40
25.3999999999999986
  9
$DIMLFAC
 40
0.9999999999999998
  9
$DIMTOFL
 70
     1
  9
$DIMTVP
 40
0.8333333333333333
  9
$DIMTIX
 70
     1
  9
$DIMSOXD
 70
     0
  9
$DIMSAH
 70
     1
  9
$DIMBLK1
  1
YA
  9
$DIMBLK2
  1
YA
  9
$DIMSTYLE
  2
YA
  9
$DIMCLRD
 70
     2
  9
$DIMCLRE
 70
     2
  9
$DIMCLRT
 70
     2
  9
$DIMTFAC
 40
0.5
  9
$DIMGAP
 40
1.0
  9
$LUNITS
 70
     2
  9
$LUPREC
 70
     3
  9
$SKETCHINC
 40
0.1
  9
$FILLETRAD
 40
0.0
  9
$AUNITS
 70
     0
  9
$AUPREC
 70
     3
  9
$MENU
  1
acad
  9
$ELEVATION
 40
0.0
  9
$PELEVATION
 40
0.0
  9
$THICKNESS
 40
0.0
  9
$LIMCHECK
 70
     0
  9
$BLIPMODE
 70
     0
  9
$CHAMFERA
 40
0.0
  9
$CHAMFERB
 40
0.0
  9
$SKPOLY
 70
     0
  9
$TDCREATE
 40
2449171.7656481480225921
  9
$TDUPDATE
 40
2459788.6253240741789341
  9
$TDINDWG
 40
0.057382963
  9
$TDUSRTIMER
 40
0.057382963
  9
$USRTIMER
 70
     1
  9
$ANGBASE
 50
0.0
  9
$ANGDIR
 70
     0
  9
$PDMODE
 70
     0
  9
$PDSIZE
 40
0.0
  9
$PLINEWID
 40
0.0
  9
$COORDS
 70
     1
  9
$SPLFRAME
 70
     0
  9
$SPLINETYPE
 70
     6
  9
$SPLINESEGS
 70
     8
  9
$ATTDIA
 70
     1
  9
$ATTREQ
 70
     1
  9
$HANDLING
 70
     1
  9
$HANDSEED
  5
2752
  9
$SURFTAB1
 70
     6
  9
$SURFTAB2
 70
     6
  9
$SURFTYPE
 70
     6
  9
$SURFU
 70
     6
  9
$SURFV
 70
     6
  9
$UCSNAME
  2

  9
$UCSORG
 10
0.0
 20
0.0
 30
0.0
  9
$UCSXDIR
 10
1.0
 20
0.0
 30
0.0
  9
$UCSYDIR
 10
0.0
 20
1.0
 30
0.0
  9
$PUCSNAME
  2

  9
$PUCSORG
 10
0.0
 20
0.0
 30
0.0
  9
$PUCSXDIR
 10
1.0
 20
0.0
 30
0.0
  9
$PUCSYDIR
 10
0.0
 20
1.0
 30
0.0
  9
$USERI1
 70
     0
  9
$USERI2
 70
     0
  9
$USERI3
 70
     0
  9
$USERI4
 70
     0
  9
$USERI5
 70
     0
  9
$USERR1
 40
0.0
  9
$USERR2
 40
0.0
  9
$USERR3
 40
0.0
  9
$USERR4
 40
0.0
  9
$USERR5
 40
0.0
  9
$WORLDVIEW
 70
     1
  9
$SHADEDGE
 70
     3
  9
$SHADEDIF
 70
    70
  9
$TILEMODE
 70
     1
  9
$MAXACTVP
 70
    16
  9
$PLIMCHECK
 70
     0
  9
$PEXTMIN
 10
1.0000000000000000E+20
 20
1.0000000000000000E+20
 30
1.0000000000000000E+20
  9
$PEXTMAX
 10
-1.0000000000000000E+20
 20
-1.0000000000000000E+20
 30
-1.0000000000000000E+20
  9
$PLIMMIN
 10
0.0
 20
0.0
  9
$PLIMMAX
 10
12.0
 20
9.0
  9
$UNITMODE
 70
     0
  9
$VISRETAIN
 70
     0
  9
$PLINEGEN
 70
     0
  9
$PSLTSCALE
 70
     1
  0
ENDSEC
  0
SECTION
  2
TABLES
  0
TABLE
  2
VPORT
 70
     1
  0
VPORT
  2
*ACTIVE
 70
     0
 10
0.0
 20
0.0
 11
1.0
 21
1.0
 12
4199.8076316636534102
 22
2969.8640759998620524
 13
0.0
 23
0.0
 14
1.0
 24
1.0
 15
0.0
 25
0.0
 16
0.0
 26
0.0
 36
1.0
 17
0.0
 27
0.0
 37
0.0
 40
5985.2739074548253484
 41
2.348925410872313
 42
50.0
 43
0.0
 44
0.0
 50
0.0
 51
0.0
 71
     0
 72
 20000
 73
     1
 74
     1
 75
     0
 76
     0
 77
     0
 78
     0
  0
ENDTAB
  0
TABLE
  2
LTYPE
 70
     8
  0
LTYPE
  2
CONTINUOUS
 70
     0
  3
Solid line
 72
    65
 73
     0
 40
0.0
  0
LTYPE
  2
HIDDEN
 70
     0
  3
__ __ __ __ __ __ __ __ __ __ __ __ __ __ __ __
 72
    65
 73
     2
 40
0.375
 49
0.25
 49
-0.125
  0
LTYPE
  2
PHANTOM
 70
     0
  3
______  __  __  ______  __  __  ______  __  __ 
 72
    65
 73
     6
 40
2.5
 49
1.25
 49
-0.25
 49
0.25
 49
-0.25
 49
0.25
 49
-0.25
  0
LTYPE
  2
CENTER2
 70
     0
  3
___ _ ___ _ ___ _ ___ _ ___ _ ___ _ ___ _ ___ _
 72
    65
 73
     4
 40
1.125
 49
0.75
 49
-0.125
 49
0.125
 49
-0.125
  0
LTYPE
  2
PHANTOM2
 70
     0
  3
___ _ _ ___ _ _ ___ _ _ ___ _ _ ___ _ _ ___ _ _
 72
    65
 73
     6
 40
1.25
 49
0.625
 49
-0.125
 49
0.125
 49
-0.125
 49
0.125
 49
-0.125
  0
LTYPE
  2
HIDDEN2
 70
     0
  3
Hidden (.5x) _ _ _ _ _ _ _ _ _ _ _ _ _ _ _ _ _
 72
    65
 73
     2
 40
0.1875
 49
0.125
 49
-0.0625
  0
ENDTAB
  0
TABLE
  2
LAYER
 70
     5
  0
LAYER
  2
0
 70
     0
 62
     7
  6
CONTINUOUS
  0
LAYER
  2
WAKU
 70
     1
 62
     7
  6
CONTINUOUS
  0
LAYER
  2
DEFPOINTS
 70
     0
 62
     7
  6
CONTINUOUS
  0
LAYER
  2
壁
 70
     0
 62
     7
  6
CONTINUOUS
  0
ENDTAB
  0
TABLE
  2
STYLE
 70
     3
  0
STYLE
  2
STANDARD
 70
     0
 40
0.0
 41
0.8
 50
0.0
 71
     0
 42
0.2
  3
simplex.shx
  4
extfont.shx
  0
STYLE
  2
\U+FF7D\U+FF80\U+FF72\U+FF991
 70
     0
 40
2.7000000000000002
 41
0.9
 50
0.0
 71
     0
 42
2.7000000000000002
  3
romans.shx
  4
bigfont.shx
  0
ENDTAB
  0
TABLE
  2
VIEW
 70
     0
  0
ENDTAB
  0
TABLE
  2
UCS
 70
     0
  0
ENDTAB
  0
TABLE
  2
APPID
 70
    12
  0
APPID
  2
ACAD
 70
     0
  0
APPID
  2
ACAD_NAV_VCDISPLAY
 70
     0
  0
APPID
  2
ACAD_MLEADERVER
 70
     0
  0
APPID
  2
GENIUS_GENREC_14
 70
     0
  0
APPID
  2
GENIUS_GENODEF_13
 70
     0
  0
APPID
  2
GENIUS_GENOBJ-N-REC_13
 70
     0
  0
APPID
  2
GENIUS_GENOBJ-N-CEN_13
 70
     0
  0
APPID
  2
ACAD_PSEXT
 70
     0
  0
APPID
  2
ACAECLAYERSTANDARD
 70
     0
  0
APPID
  2
ACDBDYNAMICBLOCKGUID
 70
     0
  0
APPID
  2
ACCMTRANSPARENCY
 70
     0
  0
APPID
  2
ACAD_EXEMPT_FROM_CAD_STANDARDS
 70
     0
  0
ENDTAB
  0
TABLE
  2
DIMSTYLE
 70
     1
  0
DIMSTYLE
  2
YA
 70
     0
  3

  4

  5

  6
YA
  7
YA
 40
20.0
 41
2.0
 42
1.0
 43
0.0
 44
1.0
 45
0.0
 46
0.0
 47
0.0
 48
0.0
140
2.5
141
-1.0
142
0.0
143
25.3999999999999986
144
0.9999999999999998
145
0.8333333333333333
146
0.5
147
1.0
 71
     0
 72
     0
 73
     0
 74
     0
 75
     0
 76
     0
 77
     1
 78
     8
170
     0
171
     2
172
     1
173
     1
174
     1
175
     0
176
     2
177
     2
178
     2
  0
ENDTAB
  0
ENDSEC
  0
SECTION
  2
BLOCKS
  0
BLOCK
  8
0
 62
     7
  2
$MODEL_SPACE
 70
     0
 10
0.0
 20
0.0
 30
0.0
  3
$MODEL_SPACE
  1

  0
ENDBLK
  5
34
  8
0
 62
     7
  0
BLOCK
 67
     1
  8
0
 62
     7
  2
$PAPER_SPACE
 70
     0
 10
0.0
 20
0.0
 30
0.0
  3
$PAPER_SPACE
  1

  0
ENDBLK
  5
32
 67
     1
  8
0
 62
     7
  0
BLOCK
  8
0
  2
YA
 70
     0
 10
0.0
 20
0.0
 30
0.0
  3
YA
  1

  0
LINE
  5
41
  8
0
 62
     2
 10
0.0
 20
0.0
 30
0.0
 11
-0.9659258262890944
 21
0.2588190451025127
 31
0.0
  0
LINE
  5
42
  8
0
 62
     2
 10
0.0
 20
0.0
 30
0.0
 11
-0.9659258262890944
 21
-0.2588190451025127
 31
0.0
  0
LINE
  5
43
  8
0
 62
     2
 10
0.0
 20
0.0
 30
0.0
 11
-1.0
 21
0.0
 31
0.0
  0
ENDBLK
  5
44
  8
0
  0
BLOCK
  8
0
 62
     7
  2
A$C0DC71B30
 70
     0
 10
0.0
 20
0.0
 30
0.0
  3
A$C0DC71B30
  1

  0
LINE
  5
2EF
  8
0
  6
CONTINUOUS
 62
     3
 10
36.0000591517737192
 20
410.0001030287339177
 30
0.0
 11
41.0000591517673385
 21
410.0001030287456842
 31
0.0
  0
LINE
  5
2F0
  8
0
  6
CONTINUOUS
 62
     3
 10
41.0000591515690687
 20
408.4955409697549271
 30
0.0
 11
41.0000591517673385
 21
410.0001030287456842
 31
0.0
  0
LINE
  5
2F1
  8
0
  6
CONTINUOUS
 62
     3
 10
36.0000591521002207
 20
408.4955409697540176
 30
0.0
 11
36.0000591517737192
 21
410.0001030287339177
 31
0.0
  0
LINE
  5
2F2
  8
0
  6
CONTINUOUS
 62
     3
 10
23.5000591517637112
 20
11.6333400287321602
 30
0.0
 11
53.5000591517637076
 21
11.6333400287321602
 31
0.0
  0
LINE
  5
2F3
  8
0
  6
CONTINUOUS
 62
     3
 10
6.6161021517636982
 20
6.5001030287321546
 30
0.0
 11
70.3840161517637171
 21
6.5001030287321546
 31
0.0
  0
LINE
  5
2F4
  8
0
  6
CONTINUOUS
 62
     3
 10
6.1422231517644832
 20
5.5001030287321546
 30
0.0
 11
70.8578951517629321
 21
5.5001030287321546
 31
0.0
  0
LINE
  5
2F5
  8
0
  6
CONTINUOUS
 62
     3
 10
23.5000591517637112
 20
2.5001030287321551
 30
0.0
 11
53.5000591517637076
 21
2.5001030287321551
 31
0.0
  0
LINE
  5
2F6
  8
0
  6
CONTINUOUS
 62
     3
 10
1.500059151763707
 20
11.0001030287321502
 30
0.0
 11
2.2740161517649531
 21
11.6333400287321602
 31
0.0
  0
LINE
  5
2F7
  8
0
  6
CONTINUOUS
 62
     3
 10
6.3839151517640849
 20
6.6101310287313018
 30
0.0
 11
2.2740161517649531
 21
11.6333400287321602
 31
0.0
  0
LINE
  5
2F8
  8
0
  6
CONTINUOUS
 62
     3
 10
5.9100351517627132
 20
5.6101310287313018
 30
0.0
 11
1.500059151763707
 21
11.0001030287321502
 31
0.0
  0
LINE
  5
2F9
  8
0
  6
CONTINUOUS
 62
     3
 10
26.5000591517637112
 20
0.0001030287321555
 30
0.0
 11
50.5000591517637005
 21
0.0001030287321555
 31
0.0
  0
LINE
  5
2FA
  8
0
  6
CONTINUOUS
 62
     3
 10
26.5000591517637112
 20
2.5001030287321551
 30
0.0
 11
26.5000591517637112
 21
0.0001030287321555
 31
0.0
  0
LINE
  5
2FB
  8
0
  6
CONTINUOUS
 62
     3
 10
23.0000591517637112
 20
5.5001030287321546
 30
0.0
 11
23.0000591517637112
 21
0.0001030287321555
 31
0.0
  0
LINE
  5
2FC
  8
0
  6
CONTINUOUS
 62
     3
 10
23.5000591517637112
 20
0.0001030287321555
 30
0.0
 11
23.0000591517637112
 21
0.0001030287321555
 31
0.0
  0
LINE
  5
2FD
  8
0
  6
CONTINUOUS
 62
     3
 10
50.5000591517637005
 20
2.5001030287321551
 30
0.0
 11
50.5000591517637005
 21
0.0001030287321555
 31
0.0
  0
LINE
  5
2FE
  8
0
  6
CONTINUOUS
 62
     3
 10
70.6162031517633295
 20
6.6101310287313018
 30
0.0
 11
74.7261021517642803
 21
11.6333400287321602
 31
0.0
  0
LINE
  5
2FF
  8
0
  6
CONTINUOUS
 62
     3
 10
54.0000591517637076
 20
5.5001030287321546
 30
0.0
 11
54.0000591517637076
 21
0.0001030287321555
 31
0.0
  0
LINE
  5
300
  8
0
  6
CONTINUOUS
 62
     3
 10
54.0000591517637076
 20
0.0001030287321555
 30
0.0
 11
53.5000591517637076
 21
0.0001030287321555
 31
0.0
  0
LINE
  5
301
  8
0
  6
CONTINUOUS
 62
     3
 10
74.7261021517642803
 20
11.6333400287321602
 30
0.0
 11
75.5000591517636934
 21
11.0001030287321502
 31
0.0
  0
LINE
  5
302
  8
0
  6
CONTINUOUS
 62
     3
 10
71.0900821517643635
 20
5.6101310287313018
 30
0.0
 11
75.5000591517636934
 21
11.0001030287321502
 31
0.0
  0
LINE
  5
303
  8
0
  6
CONTINUOUS
 62
     3
 10
58.750059151768248
 20
208.500103028713113
 30
0.0
 11
58.750059151768248
 21
247.6644002080392966
 31
0.0
  0
LINE
  5
304
  8
0
  6
CONTINUOUS
 62
     3
 10
0.0000591517355133
 20
209.0001030287340029
 30
0.0
 11
0.0000591517582507
 21
214.0001030287421884
 31
0.0
  0
LINE
  5
305
  8
0
  6
CONTINUOUS
 62
     3
 10
1.500059151761888
 20
209.0001030287594972
 30
0.0
 11
0.0000591517355133
 21
209.0001030287340029
 31
0.0
  0
LINE
  5
306
  8
0
  6
CONTINUOUS
 62
     3
 10
1.500059151761888
 20
214.0001030287621973
 30
0.0
 11
0.0000591517582507
 21
214.0001030287421884
 31
0.0
  0
LINE
  5
307
  8
0
  6
CONTINUOUS
 62
     3
 10
77.0000591517955399
 20
209.0001030287340029
 30
0.0
 11
77.0000591517728026
 21
214.0001030287421884
 31
0.0
  0
LINE
  5
308
  8
0
  6
CONTINUOUS
 62
     3
 10
75.5000591517691646
 20
209.0001030287594972
 30
0.0
 11
77.0000591517955399
 21
209.0001030287340029
 31
0.0
  0
LINE
  5
309
  8
0
  6
CONTINUOUS
 62
     3
 10
75.5000591517691646
 20
214.0001030287621973
 30
0.0
 11
77.0000591517728026
 21
214.0001030287421884
 31
0.0
  0
LINE
  5
30A
  8
0
  6
CONTINUOUS
 62
     3
 10
75.5000591517527937
 20
180.5001030287021138
 30
0.0
 11
75.5000591517818833
 21
402.7467445368255881
 31
0.0
  0
LINE
  5
30B
  8
0
  6
CONTINUOUS
 62
     3
 10
1.5000591517627979
 20
180.5001030287193942
 30
0.0
 11
1.500059151750065
 21
402.7467445368329209
 31
0.0
  0
LINE
  5
30C
  8
0
  6
CONTINUOUS
 62
     3
 10
32.5000591518137298
 20
153.5001030287048138
 30
0.0
 11
25.5000591517582507
 21
153.5001030287176036
 31
0.0
  0
LINE
  5
30D
  8
0
  6
CONTINUOUS
 62
     3
 10
56.5000591517773501
 20
158.500103028725789
 30
0.0
 11
10.5000591517609791
 21
158.5001030287230037
 31
0.0
  0
LINE
  5
30E
  8
0
  6
CONTINUOUS
 62
     3
 10
25.5000591515963606
 20
158.5001030287239132
 30
0.0
 11
25.5000591517582507
 21
153.5001030287176036
 31
0.0
  0
LINE
  5
30F
  8
0
  6
CONTINUOUS
 62
     3
 10
32.5000591520583768
 20
158.500103028724908
 30
0.0
 11
32.5000591518137298
 21
153.5001030287048138
 31
0.0
  0
LINE
  5
310
  8
0
  6
CONTINUOUS
 62
     3
 10
10.5000591517609791
 20
158.5001030287230037
 30
0.0
 11
10.5000591517764406
 21
197.0001030287239132
 31
0.0
  0
LINE
  5
311
  8
0
  6
CONTINUOUS
 62
     3
 10
56.5000591517773501
 20
158.500103028725789
 30
0.0
 11
56.5000591517682622
 21
197.0001030287585024
 31
0.0
  0
LINE
  5
312
  8
0
  6
CONTINUOUS
 62
     3
 10
56.5000591517673385
 20
180.5001030287066897
 30
0.0
 11
75.5000591517527937
 21
180.500103028724908
 31
0.0
  0
LINE
  5
313
  8
0
  6
CONTINUOUS
 62
     3
 10
1.5000591517627979
 20
180.5001030287012043
 30
0.0
 11
10.5000591517809898
 21
180.500103028724908
 31
0.0
  0
LINE
  5
314
  8
0
  6
CONTINUOUS
 62
     3
 10
53.5000591517646171
 20
158.5001030287266985
 30
0.0
 11
53.5000591517682622
 21
6.5001030287376116
 31
0.0
  0
LINE
  5
315
  8
0
  6
CONTINUOUS
 62
     3
 10
42.0000591517673385
 20
158.500103028724908
 30
0.0
 11
42.0000591517655266
 21
15.1618419186224802
 31
0.0
  0
LINE
  5
316
  8
0
  6
CONTINUOUS
 62
     3
 10
35.0000591517646171
 20
158.500103028724908
 30
0.0
 11
35.0000591517664432
 21
15.1968136961195306
 31
0.0
  0
LINE
  5
317
  8
0
  6
CONTINUOUS
 62
     3
 10
23.5000591517591602
 20
158.5001030287239132
 30
0.0
 11
23.5000591517618886
 21
6.5001030287376116
 31
0.0
  0
LINE
  5
318
  8
0
  6
CONTINUOUS
 62
     3
 10
18.25005915177098
 20
214.2174634536503959
 30
0.0
 11
18.250059151766429
 21
247.6644002080593054
 31
0.0
  0
LINE
  5
319
  8
0
  6
CONTINUOUS
 62
     3
 10
4.5000591518492001
 20
201.0001030287922106
 30
0.0
 11
4.500059151863752
 21
206.0001030287284891
 31
0.0
  0
LINE
  5
31A
  8
0
  6
CONTINUOUS
 62
     3
 10
7.0000591518728461
 20
208.500103028727608
 30
0.0
 11
13.5814748646343997
 21
208.5001030287002948
 31
0.0
  0
LINE
  5
31B
  8
0
  6
CONTINUOUS
 62
     3
 10
7.0000591518519277
 20
198.5001030290495123
 30
0.0
 11
10.5490243167750997
 21
198.5001030287957917
 31
0.0
  0
LINE
  5
31C
  8
0
  6
CONTINUOUS
 62
     3
 10
72.5000591517700741
 20
201.0001030287521928
 30
0.0
 11
72.5000591517755311
 21
206.0001030287421884
 31
0.0
  0
LINE
  5
31D
  8
0
  6
CONTINUOUS
 62
     3
 10
70.0000591517764406
 20
208.5001030286703099
 30
0.0
 11
53.4186434390021603
 21
208.5001030287203037
 31
0.0
  0
LINE
  5
31E
  8
0
  6
CONTINUOUS
 62
     3
 10
56.4510939869114665
 20
198.5001030287467074
 30
0.0
 11
70.0000591517673456
 21
198.5001030286757953
 31
0.0
  0
LINE
  5
31F
  8
0
  6
CONTINUOUS
 62
     3
 10
72.5000591517755311
 20
392.881439245783497
 30
0.0
 11
72.5000591517764406
 21
180.5001030288995025
 31
0.0
  0
LINE
  5
320
  8
0
  6
CONTINUOUS
 62
     3
 10
4.5000591517282373
 20
392.8814392457916256
 30
0.0
 11
4.5000591517264183
 21
180.5001030287212131
 31
0.0
  0
LINE
  5
321
  8
0
  6
CONTINUOUS
 62
     3
 10
72.5000591517755311
 20
397.6557870656807268
 30
0.0
 11
74.2046356355103853
 21
403.24925022835032
 31
0.0
  0
LINE
  5
322
  8
0
  6
CONTINUOUS
 62
     3
 10
4.5000591517591602
 20
397.6557870656807268
 30
0.0
 11
2.795482668024305
 21
403.24925022835032
 31
0.0
  0
CIRCLE
  5
323
  8
0
  6
CONTINUOUS
 62
     3
 10
38.5000591517637076
 20
238.0001030287112087
 30
0.0
 40
2.5
  0
ARC
  5
324
  8
0
  6
CONTINUOUS
 62
     3
 10
70.5000591517782595
 20
402.7467445368264976
 30
0.0
 40
5.0
 50
0.0
 51
87.3027318660789859
  0
ARC
  5
325
  8
0
  6
CONTINUOUS
 62
     3
 10
38.5000591516336499
 20
-276.4998969827136079
 30
0.0
 40
685.0000000114554268
 50
87.3027318660920031
 51
92.697268133881991
  0
ARC
  5
326
  8
0
  6
CONTINUOUS
 62
     3
 10
6.5000591517500652
 20
402.7467445368329209
 30
0.0
 40
5.0
 50
92.6972681339730684
 51
180.0
  0
ARC
  5
327
  8
0
  6
CONTINUOUS
 62
     3
 10
6.6161021517636982
 20
6.800103028731427
 30
0.0
 40
0.3
 50
219.2894069999834983
 51
270.0
  0
ARC
  5
328
  8
0
  6
CONTINUOUS
 62
     3
 10
6.1422231517644832
 20
5.800103028731427
 30
0.0
 40
0.3
 50
219.2894069999834983
 51
270.0
  0
ARC
  5
329
  8
0
  6
CONTINUOUS
 62
     3
 10
70.8578951517629321
 20
5.800103028731427
 30
0.0
 40
0.3
 50
270.0
 51
320.7105930000165017
  0
ARC
  5
32A
  8
0
  6
CONTINUOUS
 62
     3
 10
70.3840161517637171
 20
6.800103028731427
 30
0.0
 40
0.3
 50
270.0
 51
320.7105930000165017
  0
ARC
  5
32B
  8
0
  6
CONTINUOUS
 62
     3
 10
54.7500591517691575
 20
247.6644002080383871
 30
0.0
 40
4.0
 50
0.0
 51
80.6020339034328401
  0
ARC
  5
32C
  8
0
  6
CONTINUOUS
 62
     3
 10
38.5000591517500723
 20
149.4844780286138928
 30
0.0
 40
103.5156250000995044
 50
80.6020339034199935
 51
99.3979660965671741
  0
ARC
  5
32D
  8
0
  6
CONTINUOUS
 62
     3
 10
22.2500591517664397
 20
247.6644002080593054
 30
0.0
 40
4.0
 50
99.3979660965264742
 51
180.0
  0
ARC
  5
32E
  8
0
  6
CONTINUOUS
 62
     3
 10
33.5000591517318824
 20
197.0001030287349124
 30
0.0
 40
22.9999999999927205
 50
0.0000000000521102
 51
180.0000000000260059
  0
ARC
  5
32F
  8
0
  6
CONTINUOUS
 62
     3
 10
38.5000591517664432
 20
227.5001030287112087
 30
0.0
 40
13.0
 50
302.8953169095287876
 51
359.9999999999217835
  0
ARC
  5
330
  8
0
  6
CONTINUOUS
 62
     3
 10
38.5000591517664432
 20
227.5001030287112087
 30
0.0
 40
13.0
 50
0.0
 51
218.4848027403733965
  0
ARC
  5
331
  8
0
  6
CONTINUOUS
 62
     3
 10
7.000059151863752
 20
206.0001030287293986
 30
0.0
 40
2.5
 50
89.9999999997915552
 51
180.0
  0
ARC
  5
332
  8
0
  6
CONTINUOUS
 62
     3
 10
7.0000591518501087
 20
201.0001030287922106
 30
0.0
 40
2.5
 50
180.0
 51
270.0000000000521254
  0
ARC
  5
333
  8
0
  6
CONTINUOUS
 62
     3
 10
70.0000591517755311
 20
206.0001030287421884
 30
0.0
 40
2.5
 50
0.0
 51
89.9999999999869686
  0
ARC
  5
334
  8
0
  6
CONTINUOUS
 62
     3
 10
70.0000591517709836
 20
201.0001030287531023
 30
0.0
 40
2.5
 50
269.9999999999088232
 51
359.9999999999740226
  0
ARC
  5
335
  8
0
  6
CONTINUOUS
 62
     3
 10
67.5000591517755311
 20
392.881439245783497
 30
0.0
 40
5.0
 50
0.0
 51
87.555762220299215
  0
ARC
  5
336
  8
0
  6
CONTINUOUS
 62
     3
 10
38.5000591516363784
 20
-286.4998969826826851
 30
0.0
 40
685.0000000114554268
 50
87.5557622202471748
 51
92.4442377797397938
  0
ARC
  5
337
  8
0
  6
CONTINUOUS
 62
     3
 10
9.5000591517255089
 20
392.8814392457916256
 30
0.0
 40
5.0
 50
92.4442377796877537
 51
180.0
  0
POLYLINE
  5
338
  8
0
  6
CONTINUOUS
 62
     3
 10
35.0000591517637076
 20
15.1968138840893481
 30
0.0
 66
     1
 70
     8
  0
VERTEX
  8
0
  5
24C8
 10
35.0001
 20
15.1968
 30
0.00000
  70
    32
  0
VERTEX
  8
0
  5
24C9
 10
35.0038
 20
15.1201
 30
0.00000
  70
    32
  0
VERTEX
  8
0
  5
24CA
 10
35.0160
 20
15.0435
 30
0.00000
  70
    32
  0
VERTEX
  8
0
  5
24CB
 10
35.0365
 20
14.9673
 30
0.00000
  70
    32
  0
VERTEX
  8
0
  5
24CC
 10
35.0654
 20
14.8915
 30
0.00000
  70
    32
  0
VERTEX
  8
0
  5
24CD
 10
35.1026
 20
14.8164
 30
0.00000
  70
    32
  0
VERTEX
  8
0
  5
24CE
 10
35.1479
 20
14.7422
 30
0.00000
  70
    32
  0
VERTEX
  8
0
  5
24CF
 10
35.2014
 20
14.6690
 30
0.00000
  70
    32
  0
VERTEX
  8
0
  5
24D0
 10
35.2627
 20
14.5971
 30
0.00000
  70
    32
  0
VERTEX
  8
0
  5
24D1
 10
35.3319
 20
14.5265
 30
0.00000
  70
    32
  0
VERTEX
  8
0
  5
24D2
 10
35.4087
 20
14.4575
 30
0.00000
  70
    32
  0
VERTEX
  8
0
  5
24D3
 10
35.4930
 20
14.3903
 30
0.00000
  70
    32
  0
VERTEX
  8
0
  5
24D4
 10
35.5845
 20
14.3249
 30
0.00000
  70
    32
  0
VERTEX
  8
0
  5
24D5
 10
35.6830
 20
14.2615
 30
0.00000
  70
    32
  0
VERTEX
  8
0
  5
24D6
 10
35.7883
 20
14.2004
 30
0.00000
  70
    32
  0
VERTEX
  8
0
  5
24D7
 10
35.9002
 20
14.1416
 30
0.00000
  70
    32
  0
VERTEX
  8
0
  5
24D8
 10
36.0183
 20
14.0853
 30
0.00000
  70
    32
  0
VERTEX
  8
0
  5
24D9
 10
36.1424
 20
14.0317
 30
0.00000
  70
    32
  0
VERTEX
  8
0
  5
24DA
 10
36.2721
 20
13.9807
 30
0.00000
  70
    32
  0
VERTEX
  8
0
  5
24DB
 10
36.4073
 20
13.9327
 30
0.00000
  70
    32
  0
VERTEX
  8
0
  5
24DC
 10
36.5475
 20
13.8877
 30
0.00000
  70
    32
  0
VERTEX
  8
0
  5
24DD
 10
36.6923
 20
13.8457
 30
0.00000
  70
    32
  0
VERTEX
  8
0
  5
24DE
 10
36.8416
 20
13.8070
 30
0.00000
  70
    32
  0
VERTEX
  8
0
  5
24DF
 10
36.9948
 20
13.7715
 30
0.00000
  70
    32
  0
VERTEX
  8
0
  5
24E0
 10
37.1517
 20
13.7395
 30
0.00000
  70
    32
  0
VERTEX
  8
0
  5
24E1
 10
37.3118
 20
13.7109
 30
0.00000
  70
    32
  0
VERTEX
  8
0
  5
24E2
 10
37.4747
 20
13.6858
 30
0.00000
  70
    32
  0
VERTEX
  8
0
  5
24E3
 10
37.6402
 20
13.6643
 30
0.00000
  70
    32
  0
VERTEX
  8
0
  5
24E4
 10
37.8077
 20
13.6464
 30
0.00000
  70
    32
  0
VERTEX
  8
0
  5
24E5
 10
37.9769
 20
13.6323
 30
0.00000
  70
    32
  0
VERTEX
  8
0
  5
24E6
 10
38.1473
 20
13.6218
 30
0.00000
  70
    32
  0
VERTEX
  8
0
  5
24E7
 10
38.3186
 20
13.6151
 30
0.00000
  70
    32
  0
VERTEX
  8
0
  5
24E8
 10
38.4903
 20
13.6121
 30
0.00000
  70
    32
  0
VERTEX
  8
0
  5
24E9
 10
38.6621
 20
13.6130
 30
0.00000
  70
    32
  0
VERTEX
  8
0
  5
24EA
 10
38.8334
 20
13.6175
 30
0.00000
  70
    32
  0
VERTEX
  8
0
  5
24EB
 10
39.0040
 20
13.6259
 30
0.00000
  70
    32
  0
VERTEX
  8
0
  5
24EC
 10
39.1733
 20
13.6379
 30
0.00000
  70
    32
  0
VERTEX
  8
0
  5
24ED
 10
39.3410
 20
13.6537
 30
0.00000
  70
    32
  0
VERTEX
  8
0
  5
24EE
 10
39.5067
 20
13.6731
 30
0.00000
  70
    32
  0
VERTEX
  8
0
  5
24EF
 10
39.6700
 20
13.6961
 30
0.00000
  70
    32
  0
VERTEX
  8
0
  5
24F0
 10
39.8304
 20
13.7228
 30
0.00000
  70
    32
  0
VERTEX
  8
0
  5
24F1
 10
39.9877
 20
13.7529
 30
0.00000
  70
    32
  0
VERTEX
  8
0
  5
24F2
 10
40.1413
 20
13.7864
 30
0.00000
  70
    32
  0
VERTEX
  8
0
  5
24F3
 10
40.2911
 20
13.8233
 30
0.00000
  70
    32
  0
VERTEX
  8
0
  5
24F4
 10
40.4364
 20
13.8634
 30
0.00000
  70
    32
  0
VERTEX
  8
0
  5
24F5
 10
40.5772
 20
13.9067
 30
0.00000
  70
    32
  0
VERTEX
  8
0
  5
24F6
 10
40.7129
 20
13.9530
 30
0.00000
  70
    32
  0
VERTEX
  8
0
  5
24F7
 10
40.8433
 20
14.0023
 30
0.00000
  70
    32
  0
VERTEX
  8
0
  5
24F8
 10
40.9680
 20
14.0544
 30
0.00000
  70
    32
  0
VERTEX
  8
0
  5
24F9
 10
41.0868
 20
14.1093
 30
0.00000
  70
    32
  0
VERTEX
  8
0
  5
24FA
 10
41.1994
 20
14.1666
 30
0.00000
  70
    32
  0
VERTEX
  8
0
  5
24FB
 10
41.3055
 20
14.2265
 30
0.00000
  70
    32
  0
VERTEX
  8
0
  5
24FC
 10
41.4048
 20
14.2886
 30
0.00000
  70
    32
  0
VERTEX
  8
0
  5
24FD
 10
41.4971
 20
14.3528
 30
0.00000
  70
    32
  0
VERTEX
  8
0
  5
24FE
 10
41.5822
 20
14.4190
 30
0.00000
  70
    32
  0
VERTEX
  8
0
  5
24FF
 10
41.6599
 20
14.4870
 30
0.00000
  70
    32
  0
VERTEX
  8
0
  5
2500
 10
41.7299
 20
14.5567
 30
0.00000
  70
    32
  0
VERTEX
  8
0
  5
2501
 10
41.7922
 20
14.6279
 30
0.00000
  70
    32
  0
VERTEX
  8
0
  5
2502
 10
41.8465
 20
14.7004
 30
0.00000
  70
    32
  0
VERTEX
  8
0
  5
2503
 10
41.8928
 20
14.7741
 30
0.00000
  70
    32
  0
VERTEX
  8
0
  5
2504
 10
41.9309
 20
14.8487
 30
0.00000
  70
    32
  0
VERTEX
  8
0
  5
2505
 10
41.9607
 20
14.9241
 30
0.00000
  70
    32
  0
VERTEX
  8
0
  5
2506
 10
41.9822
 20
15.0001
 30
0.00000
  70
    32
  0
VERTEX
  8
0
  5
2507
 10
41.9954
 20
15.0765
 30
0.00000
  70
    32
  0
VERTEX
  8
0
  5
2508
 10
42.0001
 20
15.1531
 30
0.00000
  70
    32
  0
VERTEX
  8
0
  5
2509
 10
41.9963
 20
15.2298
 30
0.00000
  70
    32
  0
VERTEX
  8
0
  5
250A
 10
41.9842
 20
15.3064
 30
0.00000
  70
    32
  0
VERTEX
  8
0
  5
250B
 10
41.9636
 20
15.3827
 30
0.00000
  70
    32
  0
VERTEX
  8
0
  5
250C
 10
41.9347
 20
15.4584
 30
0.00000
  70
    32
  0
VERTEX
  8
0
  5
250D
 10
41.8975
 20
15.5335
 30
0.00000
  70
    32
  0
VERTEX
  8
0
  5
250E
 10
41.8522
 20
15.6077
 30
0.00000
  70
    32
  0
VERTEX
  8
0
  5
250F
 10
41.7987
 20
15.6809
 30
0.00000
  70
    32
  0
VERTEX
  8
0
  5
2510
 10
41.7374
 20
15.7529
 30
0.00000
  70
    32
  0
VERTEX
  8
0
  5
2511
 10
41.6682
 20
15.8234
 30
0.00000
  70
    32
  0
VERTEX
  8
0
  5
2512
 10
41.5914
 20
15.8924
 30
0.00000
  70
    32
  0
VERTEX
  8
0
  5
2513
 10
41.5071
 20
15.9597
 30
0.00000
  70
    32
  0
VERTEX
  8
0
  5
2514
 10
41.4156
 20
16.0251
 30
0.00000
  70
    32
  0
VERTEX
  8
0
  5
2515
 10
41.3171
 20
16.0884
 30
0.00000
  70
    32
  0
VERTEX
  8
0
  5
2516
 10
41.2118
 20
16.1495
 30
0.00000
  70
    32
  0
VERTEX
  8
0
  5
2517
 10
41.0999
 20
16.2083
 30
0.00000
  70
    32
  0
VERTEX
  8
0
  5
2518
 10
40.9818
 20
16.2646
 30
0.00000
  70
    32
  0
VERTEX
  8
0
  5
2519
 10
40.8577
 20
16.3183
 30
0.00000
  70
    32
  0
VERTEX
  8
0
  5
251A
 10
40.7280
 20
16.3692
 30
0.00000
  70
    32
  0
VERTEX
  8
0
  5
251B
 10
40.5928
 20
16.4172
 30
0.00000
  70
    32
  0
VERTEX
  8
0
  5
251C
 10
40.4527
 20
16.4623
 30
0.00000
  70
    32
  0
VERTEX
  8
0
  5
251D
 10
40.3078
 20
16.5042
 30
0.00000
  70
    32
  0
VERTEX
  8
0
  5
251E
 10
40.1585
 20
16.5430
 30
0.00000
  70
    32
  0
VERTEX
  8
0
  5
251F
 10
40.0053
 20
16.5784
 30
0.00000
  70
    32
  0
VERTEX
  8
0
  5
2520
 10
39.8485
 20
16.6105
 30
0.00000
  70
    32
  0
VERTEX
  8
0
  5
2521
 10
39.6884
 20
16.6391
 30
0.00000
  70
    32
  0
VERTEX
  8
0
  5
2522
 10
39.5254
 20
16.6642
 30
0.00000
  70
    32
  0
VERTEX
  8
0
  5
2523
 10
39.3599
 20
16.6857
 30
0.00000
  70
    32
  0
VERTEX
  8
0
  5
2524
 10
39.1924
 20
16.7035
 30
0.00000
  70
    32
  0
VERTEX
  8
0
  5
2525
 10
39.0233
 20
16.7177
 30
0.00000
  70
    32
  0
VERTEX
  8
0
  5
2526
 10
38.8528
 20
16.7281
 30
0.00000
  70
    32
  0
VERTEX
  8
0
  5
2527
 10
38.6815
 20
16.7348
 30
0.00000
  70
    32
  0
VERTEX
  8
0
  5
2528
 10
38.5098
 20
16.7378
 30
0.00000
  70
    32
  0
VERTEX
  8
0
  5
2529
 10
38.3381
 20
16.7370
 30
0.00000
  70
    32
  0
VERTEX
  8
0
  5
252A
 10
38.1667
 20
16.7324
 30
0.00000
  70
    32
  0
VERTEX
  8
0
  5
252B
 10
37.9961
 20
16.7241
 30
0.00000
  70
    32
  0
VERTEX
  8
0
  5
252C
 10
37.8268
 20
16.7120
 30
0.00000
  70
    32
  0
VERTEX
  8
0
  5
252D
 10
37.6591
 20
16.6963
 30
0.00000
  70
    32
  0
VERTEX
  8
0
  5
252E
 10
37.4934
 20
16.6768
 30
0.00000
  70
    32
  0
VERTEX
  8
0
  5
252F
 10
37.3301
 20
16.6538
 30
0.00000
  70
    32
  0
VERTEX
  8
0
  5
2530
 10
37.1697
 20
16.6272
 30
0.00000
  70
    32
  0
VERTEX
  8
0
  5
2531
 10
37.0124
 20
16.5971
 30
0.00000
  70
    32
  0
VERTEX
  8
0
  5
2532
 10
36.8588
 20
16.5636
 30
0.00000
  70
    32
  0
VERTEX
  8
0
  5
2533
 10
36.7091
 20
16.5267
 30
0.00000
  70
    32
  0
VERTEX
  8
0
  5
2534
 10
36.5637
 20
16.4866
 30
0.00000
  70
    32
  0
VERTEX
  8
0
  5
2535
 10
36.4229
 20
16.4433
 30
0.00000
  70
    32
  0
VERTEX
  8
0
  5
2536
 10
36.2872
 20
16.3969
 30
0.00000
  70
    32
  0
VERTEX
  8
0
  5
2537
 10
36.1568
 20
16.3476
 30
0.00000
  70
    32
  0
VERTEX
  8
0
  5
2538
 10
36.0321
 20
16.2955
 30
0.00000
  70
    32
  0
VERTEX
  8
0
  5
2539
 10
35.9133
 20
16.2407
 30
0.00000
  70
    32
  0
VERTEX
  8
0
  5
253A
 10
35.8007
 20
16.1833
 30
0.00000
  70
    32
  0
VERTEX
  8
0
  5
253B
 10
35.6946
 20
16.1235
 30
0.00000
  70
    32
  0
VERTEX
  8
0
  5
253C
 10
35.5953
 20
16.0614
 30
0.00000
  70
    32
  0
VERTEX
  8
0
  5
253D
 10
35.5030
 20
15.9972
 30
0.00000
  70
    32
  0
VERTEX
  8
0
  5
253E
 10
35.4179
 20
15.9309
 30
0.00000
  70
    32
  0
VERTEX
  8
0
  5
253F
 10
35.3403
 20
15.8629
 30
0.00000
  70
    32
  0
VERTEX
  8
0
  5
2540
 10
35.2702
 20
15.7932
 30
0.00000
  70
    32
  0
VERTEX
  8
0
  5
2541
 10
35.2079
 20
15.7220
 30
0.00000
  70
    32
  0
VERTEX
  8
0
  5
2542
 10
35.1536
 20
15.6495
 30
0.00000
  70
    32
  0
VERTEX
  8
0
  5
2543
 10
35.1073
 20
15.5759
 30
0.00000
  70
    32
  0
VERTEX
  8
0
  5
2544
 10
35.0692
 20
15.5013
 30
0.00000
  70
    32
  0
VERTEX
  8
0
  5
2545
 10
35.0394
 20
15.4259
 30
0.00000
  70
    32
  0
VERTEX
  8
0
  5
2546
 10
35.0179
 20
15.3499
 30
0.00000
  70
    32
  0
VERTEX
  8
0
  5
2547
 10
35.0048
 20
15.2735
 30
0.00000
  70
    32
  0
VERTEX
  8
0
  5
2548
 10
35.0001
 20
15.1968
 30
0.00000
  70
    32
  0
SEQEND
  8
0
  5
2549
  0
ENDBLK
  5
339
  8
0
 62
     7
  0
BLOCK
  8
0
 62
     3
  2
A$C3FE03FDA
 70
     0
 10
0.0
 20
0.0
 30
0.0
  3
A$C3FE03FDA
  1

  0
INSERT
  5
33E
  8
0
 62
     3
  2
A$C0DC71B30
 10
-0.000107692736492
 20
-0.000104754091808
 30
0.0
  0
ENDBLK
  5
33F
  8
0
 62
     3
  0
BLOCK
  8
0
  2
A$C51C070DC
 70
     0
 10
0.0
 20
0.0
 30
0.0
  3
A$C51C070DC
  1

  0
LINE
  5
344
  8
0
  6
CENTER2
 62
     4
 10
-0.0000841985129227
 20
75.1618252247790224
 30
0.0
 11
99.9999158014870915
 21
75.1618252247790224
 31
0.0
  0
CIRCLE
  5
345
  8
0
 62
     3
 10
49.9999158014870773
 20
55.1618252247790224
 30
0.0
 40
10.0
  0
CIRCLE
  5
346
  8
0
 62
     3
 10
49.9999158014870773
 20
95.1618252247790366
 30
0.0
 40
10.0
  0
LINE
  5
347
  8
0
  6
CENTER2
 62
     4
 10
49.9999158014870773
 20
150.3236902247807905
 30
0.0
 11
49.9999158014870773
 21
-0.000039775215555
 31
0.0
  0
POLYLINE
  5
348
  8
0
  6
HIDDEN2
 62
     3
 66
     1
 10
0.0
 20
0.0
 30
0.0
 70
     1
  0
VERTEX
  5
23C9
  8
0
  6
HIDDEN2
 62
     3
 10
79.9999158014870773
 20
30.1618252247790188
 30
0.0
  0
VERTEX
  5
23CA
  8
0
  6
HIDDEN2
 62
     3
 10
79.9999158014870773
 20
120.161825224778994
 30
0.0
  0
VERTEX
  5
23CB
  8
0
  6
HIDDEN2
 62
     3
 10
19.9999158014870808
 20
120.161825224778994
 30
0.0
  0
VERTEX
  5
23CC
  8
0
  6
HIDDEN2
 62
     3
 10
19.9999158014870808
 20
30.1618252247790188
 30
0.0
  0
SEQEND
  5
23CD
  8
0
  6
HIDDEN2
 62
     3
  0
ENDBLK
  5
349
  8
0
  0
BLOCK
  8
0
  2
A$C5756186B
 70
     0
 10
0.0
 20
0.0
 30
0.0
  3
A$C5756186B
  1

  0
LINE
  5
34E
  8
0
  6
CENTER2
 62
     4
 10
30.0001275829599798
 20
119.2820257094062981
 30
0.0
 11
30.0001275829599798
 21
0.0000437094058725
 31
0.0
  0
POLYLINE
  5
34F
  8
0
  6
HIDDEN2
 62
     3
 66
     1
 10
0.0
 20
0.0
 30
0.0
 70
     1
  0
VERTEX
  5
23CE
  8
0
  6
HIDDEN2
 62
     3
 10
0.0001275829599763
 20
0.0000437094058725
 30
0.0
  0
VERTEX
  5
23CF
  8
0
  6
HIDDEN2
 62
     3
 10
0.0001275829599763
 20
50.0000437094058725
 30
0.0
  0
VERTEX
  5
23D0
  8
0
  6
HIDDEN2
 62
     3
 10
60.0001275829599834
 20
50.0000437094058725
 30
0.0
  0
VERTEX
  5
23D1
  8
0
  6
HIDDEN2
 62
     3
 10
60.0001275829599834
 20
0.0000437094058725
 30
0.0
  0
SEQEND
  5
23D2
  8
0
  6
HIDDEN2
 62
     3
  0
ENDBLK
  5
350
  8
0
  0
BLOCK
  8
0
  2
A$C4E7F6CC5
 70
     0
 10
0.0
 20
0.0
 30
0.0
  3
A$C4E7F6CC5
  1

  0
LINE
  5
355
  8
0
  6
HIDDEN2
 62
     3
 10
-0.0000954992974584
 20
49.9999570132859006
 30
0.0
 11
39.9999045007025416
 21
119.2819390132863049
 31
0.0
  0
LINE
  5
356
  8
0
  6
HIDDEN2
 62
     3
 10
-0.0000954992974584
 20
119.2819390132863049
 30
0.0
 11
39.9999045007025416
 21
49.9999570132859006
 31
0.0
  0
LINE
  5
357
  8
0
  6
CENTER2
 62
     4
 10
19.9999045007025416
 20
150.3236870132896001
 30
0.0
 11
19.9999045007025416
 21
-0.0000429867141065
 31
0.0
  0
LINE
  5
358
  8
0
  6
HIDDEN2
 62
     3
 10
29.9999045007025416
 20
49.9999570132859006
 30
0.0
 11
29.9999045007025416
 21
-0.0000429867141065
 31
0.0
  0
LINE
  5
359
  8
0
  6
HIDDEN2
 62
     3
 10
9.9999045007025416
 20
49.9999570132859006
 30
0.0
 11
9.9999045007025416
 21
-0.0000429867141065
 31
0.0
  0
LINE
  5
35A
  8
0
  6
HIDDEN2
 62
     3
 10
44.9999045007025416
 20
99.6410700132910421
 30
0.0
 11
44.9999045007025416
 21
69.6410700132910279
 31
0.0
  0
LINE
  5
35B
  8
0
  6
HIDDEN2
 62
     3
 10
39.9999045007025416
 20
49.9999570132859006
 30
0.0
 11
-0.0000954992974584
 21
49.9999570132859006
 31
0.0
  0
LINE
  5
35C
  8
0
  6
HIDDEN2
 62
     3
 10
19.9999045007025416
 20
84.6410700132910137
 30
0.0
 11
44.9999045007025416
 21
84.6410700132910137
 31
0.0
  0
LINE
  5
35D
  8
0
  6
HIDDEN2
 62
     3
 10
39.9999045007025416
 20
119.2819390132863049
 30
0.0
 11
-0.0000954992974584
 21
119.2819390132863049
 31
0.0
  0
ENDBLK
  5
35E
  8
0
  0
BLOCK
  8
0
  2
A$C24BB75B8
 70
     0
 10
0.0
 20
0.0
 30
0.0
  3
A$C24BB75B8
  1

  0
LINE
  5
363
  8
0
  6
CENTER2
 62
     4
 10
49.99996041995837
 20
178.819543966208613
 30
0.0
 11
49.99996041995837
 21
-0.0000173060107045
 31
0.0
  0
POLYLINE
  5
364
  8
0
  6
HIDDEN
 62
     3
 66
     1
 10
0.0
 20
0.0
 30
0.0
 70
     1
  0
VERTEX
  5
23D3
  8
0
  6
HIDDEN
 62
     3
 10
99.99996041995837
 20
64.7411936939897714
 30
0.0
  0
VERTEX
  5
23D4
  8
0
  6
HIDDEN
 62
     3
 10
99.99996041995837
 20
139.7411936939897998
 30
0.0
  0
VERTEX
  5
23D5
  8
0
  6
HIDDEN
 62
     3
 10
-0.00003958004163
 20
139.7411936939897998
 30
0.0
  0
VERTEX
  5
23D6
  8
0
  6
HIDDEN
 62
     3
 10
-0.00003958004163
 20
64.7411936939897714
 30
0.0
  0
SEQEND
  5
23D7
  8
0
  6
HIDDEN
 62
     3
  0
ENDBLK
  5
365
  8
0
  0
BLOCK
  8
0
  2
A$C1AEA2420
 70
     0
 10
0.0
 20
0.0
 30
0.0
  3
A$C1AEA2420
  1

  0
LINE
  5
36A
  8
0
  6
PHANTOM2
 62
     3
 10
93.4517887394431455
 20
89.9999713946526754
 30
0.0
 11
93.4517887394431455
 21
499.9999713946526185
 31
0.0
  0
LINE
  5
36B
  8
0
  6
PHANTOM2
 62
     3
 10
73.4517887394431455
 20
89.9999713946526754
 30
0.0
 11
73.4517887394431455
 21
499.9999713946526185
 31
0.0
  0
LINE
  5
36C
  8
0
  6
CENTER2
 62
     4
 10
170.0970280262880863
 20
44.9998493946550298
 30
0.0
 11
0.0001287394443352
 21
44.9999713946526683
 31
0.0
  0
LINE
  5
36D
  8
0
  6
HIDDEN
 62
     3
 10
108.4517887394431028
 20
89.9999713946526754
 30
0.0
 11
108.4517887394431028
 21
-0.0000286053473246
 31
0.0
  0
LINE
  5
36E
  8
0
  6
HIDDEN
 62
     3
 10
33.4517887394431526
 20
-0.0000286053473246
 30
0.0
 11
108.4517887394431028
 21
-0.0000286053473246
 31
0.0
  0
LINE
  5
36F
  8
0
  6
HIDDEN
 62
     3
 10
33.4517887394431526
 20
89.9999713946526754
 30
0.0
 11
108.4517887394431028
 21
89.9999713946526754
 31
0.0
  0
ARC
  5
370
  8
0
  6
CONTINUOUS
 62
     1
 10
88.4517893258489494
 20
497.4604863881685901
 30
0.0
 40
5.607939600699841
 50
26.9258859113436202
 51
153.0741200885383932
  0
ARC
  5
371
  8
0
  6
CONTINUOUS
 62
     1
 10
78.4517890599418024
 20
502.5394568490301026
 30
0.0
 40
5.607939600699841
 50
206.9258859113436131
 51
333.0741200885383932
  0
ARC
  5
372
  8
0
  6
CONTINUOUS
 62
     1
 10
78.4517890599418024
 20
497.4604863881685901
 30
0.0
 40
5.607939600699841
 50
26.9258799114615606
 51
153.0741140886563016
  0
LINE
  5
373
  8
0
  6
HIDDEN
 62
     3
 10
33.4517887394431526
 20
89.9999713946526754
 30
0.0
 11
33.4517887394431526
 21
-0.0000286053473246
 31
0.0
  0
ENDBLK
  5
374
  8
0
  0
BLOCK
  8
0
 62
     7
  2
A$C014B713B
 70
     0
 10
0.0
 20
0.0
 30
0.0
  3
A$C014B713B
  1

  0
ARC
  5
378
  8
0
  6
CONTINUOUS
 62
     3
 10
329.0
 20
-10.0
 30
0.0
 40
10.0
 50
0.0
 51
90.0
  0
ARC
  5
379
  8
0
  6
CONTINUOUS
 62
     3
 10
329.0
 20
-94.0
 30
0.0
 40
10.0
 50
270.0
 51
0.0
  0
ARC
  5
37A
  8
0
  6
CONTINUOUS
 62
     3
 10
-329.0
 20
-94.0
 30
0.0
 40
10.0
 50
180.0
 51
270.0
  0
ARC
  5
37B
  8
0
  6
CONTINUOUS
 62
     3
 10
-329.0
 20
-10.0
 30
0.0
 40
10.0
 50
90.0
 51
180.0
  0
CIRCLE
  5
37C
  8
0
  6
CONTINUOUS
 62
     3
 10
-331.0
 20
-52.0
 30
0.0
 40
6.0
  0
CIRCLE
  5
37D
  8
0
  6
CONTINUOUS
 62
     3
 10
331.0
 20
-52.0
 30
0.0
 40
2.5
  0
LINE
  5
37E
  8
0
  6
CONTINUOUS
 62
     3
 10
324.0000000000036948
 20
-10.0
 30
0.0
 11
324.0000000000036948
 21
-94.0
 31
0.0
  0
LINE
  5
37F
  8
0
  6
CONTINUOUS
 62
     3
 10
-324.0
 20
-10.0
 30
0.0
 11
-324.0
 21
-94.0
 31
0.0
  0
LINE
  5
380
  8
0
  6
CONTINUOUS
 62
     3
 10
-329.0
 20
0.0
 30
0.0
 11
329.0
 21
0.0
 31
0.0
  0
LINE
  5
381
  8
0
  6
CONTINUOUS
 62
     3
 10
339.0
 20
-10.0
 30
0.0
 11
339.0
 21
-94.0
 31
0.0
  0
LINE
  5
382
  8
0
  6
CONTINUOUS
 62
     3
 10
-329.0
 20
-104.0
 30
0.0
 11
329.0
 21
-104.0
 31
0.0
  0
LINE
  5
383
  8
0
  6
CONTINUOUS
 62
     3
 10
-339.0
 20
-10.0
 30
0.0
 11
-339.0
 21
-94.0
 31
0.0
  0
ENDBLK
  5
384
  8
0
 62
     7
  0
BLOCK
  8
0
  2
A$C615207BD
 70
     0
 10
0.0
 20
0.0
 30
0.0
  3
A$C615207BD
  1

  0
ARC
  5
389
  8
0
  6
CONTINUOUS
 62
     3
 10
599.9999142697197385
 20
52.0000602628206181
 30
0.0
 40
600.0
 50
175.0281284318583914
 51
184.9718715681416086
  0
LINE
  5
38A
  8
0
  6
CONTINUOUS
 62
     3
 10
4.2574948280343961
 20
104.0000602628205968
 30
0.0
 11
4.2574948280343961
 21
0.0000602628169872
 31
0.0
  0
LINE
  5
38B
  8
0
  6
CONTINUOUS
 62
     3
 10
2.2574948280343961
 20
104.0000602628170014
 30
0.0
 11
4.2574948280343961
 21
104.0000602628205968
 31
0.0
  0
LINE
  5
38C
  8
0
  6
CONTINUOUS
 62
     3
 10
2.2574948280343961
 20
104.0000602628170014
 30
0.0
 11
2.2574948280343961
 21
0.0000602628169872
 31
0.0
  0
LINE
  5
38D
  8
0
  6
CONTINUOUS
 62
     3
 10
2.2574948280343961
 20
0.0000602628169872
 30
0.0
 11
4.2574948280343961
 21
0.0000602628169872
 31
0.0
  0
ENDBLK
  5
38E
  8
0
  0
BLOCK
  8
0
 62
     6
  2
A$C4CD329FB
 70
     0
 10
0.0
 20
0.0
 30
0.0
  3
A$C4CD329FB
  1

  0
ARC
  5
393
  8
0
  6
CONTINUOUS
 62
     3
 10
-193.1291950000012889
 20
945.7409829999996873
 30
0.0
 40
4.0
 50
293.0283430002054956
 51
357.945854999968617
  0
ARC
  5
394
  8
0
  6
CONTINUOUS
 62
     3
 10
-184.134979000002204
 20
945.4183869999977787
 30
0.0
 40
5.0
 50
124.3243519999374058
 51
177.9458549999685033
  0
LINE
  5
395
  8
0
  6
CONTINUOUS
 62
     3
 10
-180.00000900000299
 20
950.8640559999985271
 30
0.0
 11
-186.9543640000046878
 21
949.5476809999963734
 31
0.0
  0
LINE
  5
396
  8
0
  6
CONTINUOUS
 62
     3
 10
-640.0000020000006771
 20
-0.0000010244912119
 30
0.0
 11
0.0
 21
0.0
 31
0.0
  0
LINE
  5
397
  8
0
  6
CONTINUOUS
 62
     3
 10
-640.614571000005526
 20
351.9999989999996046
 30
0.0
 11
-627.7403700000068056
 21
351.9999989999996046
 31
0.0
  0
LINE
  5
398
  8
0
  6
CONTINUOUS
 62
     3
 10
-640.0000250000011874
 20
347.9999989999996046
 30
0.0
 11
-640.0000000580330379
 21
-0.0000010244912119
 31
0.0
  0
LINE
  5
399
  8
0
  6
CONTINUOUS
 62
     3
 10
-640.0000250000011874
 20
347.9999989999996046
 30
0.0
 11
-627.7000030000053812
 21
347.9999989999996046
 31
0.0
  0
LINE
  5
39A
  8
0
  6
CONTINUOUS
 62
     3
 10
-627.7000030000053812
 20
347.9999989999996046
 30
0.0
 11
-627.7000030000125435
 21
-0.0000010048024706
 31
0.0
  0
LINE
  5
39B
  8
0
  6
CONTINUOUS
 62
     3
 10
-771.1960450000042329
 20
774.4519419999995762
 30
0.0
 11
-758.3218370000031427
 21
774.4519159999980502
 31
0.0
  0
LINE
  5
39C
  8
0
  6
CONTINUOUS
 62
     3
 10
-758.3218370000031427
 20
774.4519159999980502
 30
0.0
 11
-627.7403700000068056
 21
351.9999989999996046
 31
0.0
  0
LINE
  5
39D
  8
0
  6
CONTINUOUS
 62
     3
 10
-180.0003160000051139
 20
931.7300969999995459
 30
0.0
 11
-743.1108050000037792
 21
825.1509000000005472
 31
0.0
  0
LINE
  5
39E
  8
0
  6
CONTINUOUS
 62
     3
 10
-743.1108040000035544
 20
825.1508990000000949
 30
0.0
 11
-752.5454370000005611
 21
778.4517889999988256
 31
0.0
  0
LINE
  5
39F
  8
0
  6
CONTINUOUS
 62
     3
 10
-189.1414127808166086
 20
929.9999733854856458
 30
0.0
 11
0.0
 21
929.999994999998421
 31
0.0
  0
LINE
  5
3A0
  8
0
  6
CONTINUOUS
 62
     3
 10
0.0
 20
0.0
 30
0.0
 11
0.0
 21
930.9999949999983073
 31
0.0
  0
ARC
  5
3A1
  8
0
  6
CONTINUOUS
 62
     3
 10
-720.8758040000028586
 20
839.9451379999991332
 30
0.0
 40
4.0
 50
39.0577559999466217
 51
76.6445919998810439
  0
LINE
  5
3A2
  8
0
  6
CONTINUOUS
 62
     3
 10
-827.6900929553739843
 20
869.72955864677715
 30
0.0
 11
-719.9518410000018775
 21
843.8369839999976421
 31
0.0
  0
LINE
  5
3A3
  8
0
  6
CONTINUOUS
 62
     3
 10
-837.0000014720935724
 20
778.4519634416318468
 30
0.0
 11
-752.5454780000000028
 21
778.4519220000000814
 31
0.0
  0
LINE
  5
3A4
  8
0
  6
CONTINUOUS
 62
     3
 10
-771.1960450000042329
 20
774.4519419999995762
 30
0.0
 11
-640.614571000005526
 21
351.9999989999996046
 31
0.0
  0
LINE
  5
3A5
  8
0
  6
CONTINUOUS
 62
     3
 10
-0.0003280000019004
 20
930.9999949999983073
 30
0.0
 11
-0.0003160000051139
 21
2029.9999049999969429
 31
0.0
  0
LINE
  5
3A6
  8
0
  6
CONTINUOUS
 62
     3
 10
-180.0003240000004894
 20
2029.9999069999980748
 30
0.0
 11
-0.0003160000051139
 21
2029.9999049999969429
 31
0.0
  0
LINE
  5
3A7
  8
0
  6
CONTINUOUS
 62
     3
 10
-180.0003240000004894
 20
2029.9999069999980748
 30
0.0
 11
-180.0003040000009946
 21
929.9999739999983603
 31
0.0
  0
LINE
  5
3A8
  8
0
  6
CONTINUOUS
 62
     3
 10
-180.0003160000051139
 20
944.2484679999979562
 30
0.0
 11
-717.769759000002523
 21
842.4655379999967408
 31
0.0
  0
LINE
  5
3A9
  8
0
  6
CONTINUOUS
 62
     3
 10
-840.000000000007276
 20
781.4519634416283225
 30
0.0
 11
-840.0
 21
859.9999990758004742
 31
0.0
  0
ARC
  5
3AA
  8
0
  6
CONTINUOUS
 62
     3
 10
-837.0000000000071623
 20
781.4519634416283225
 30
0.0
 40
3.0
 50
180.0
 51
269.9999718850838235
  0
ARC
  5
3AB
  8
0
  6
CONTINUOUS
 62
     3
 10
-830.0
 20
859.9999990758004742
 30
0.0
 40
10.0
 50
76.6445943329243136
 51
180.0
  0
ARC
  5
3AC
  8
0
  6
HIDDEN
 62
     4
 10
-211.0842794331038021
 20
899.815452951239422
 30
0.0
 40
10.0
 50
100.7199999997717015
 51
175.7199999998175883
  0
LINE
  5
3AD
  8
0
  6
HIDDEN
 62
     4
 10
-360.4254564331059214
 20
454.7195486544515006
 30
0.0
 11
-352.0549784331087722
 21
456.5033196544536054
 31
0.0
  0
ARC
  5
3AE
  8
0
  6
HIDDEN
 62
     4
 10
-360.0086114331061253
 20
452.763470654455773
 30
0.0
 40
2.0
 50
102.0299319999387961
 51
180.7199999998518081
  0
ARC
  5
3AF
  8
0
  6
HIDDEN
 62
     4
 10
-479.9991364331071964
 20
451.2555456544504864
 30
0.0
 40
2.0
 50
0.7200000000602885
 51
79.4100680001110391
  0
ARC
  5
3B0
  8
0
  6
HIDDEN
 62
     4
 10
-465.9077514331074212
 20
444.0716596544517074
 30
0.0
 40
2.0
 50
0.7200000000602885
 51
90.7200000000602955
  0
ARC
  5
3B1
  8
0
  6
HIDDEN
 62
     4
 10
-373.9150154331073281
 20
445.2277346544506145
 30
0.0
 40
2.0
 50
90.7200000000602955
 51
180.7199999998518081
  0
ARC
  5
3B2
  8
0
  6
HIDDEN
 62
     4
 10
-474.9698704331094063
 20
448.958169654455503
 30
0.0
 40
3.0
 50
180.7199999998518081
 51
270.7200000000602813
  0
LINE
  5
3B3
  8
0
  6
HIDDEN
 62
     4
 10
-474.9321724331093151
 20
445.9584066544557004
 30
0.0
 11
-364.9408574331101249
 21
447.340671654455889
 31
0.0
  0
ARC
  5
3B4
  8
0
  6
HIDDEN
 62
     4
 10
-364.9785554331101025
 20
450.3404346544556915
 30
0.0
 40
3.0
 50
270.7200000000602813
 51
0.7200000000602885
  0
LINE
  5
3B5
  8
0
  6
HIDDEN
 62
     4
 10
-361.9787924331030808
 20
450.3781326544557828
 30
0.0
 11
-362.0084534331107875
 21
452.7383386544534005
 31
0.0
  0
LINE
  5
3B6
  8
0
  6
HIDDEN
 62
     4
 10
-479.6315794331093798
 20
453.2214806544507155
 30
0.0
 11
-488.0442404331114972
 21
454.7943376544499188
 31
0.0
  0
LINE
  5
3B7
  8
0
  6
HIDDEN
 62
     4
 10
-477.9992944331096965
 20
451.2806776544529725
 30
0.0
 11
-477.9696334331092089
 21
448.9204716544555254
 31
0.0
  0
LINE
  5
3B8
  8
0
  6
HIDDEN
 62
     4
 10
-478.0198974331069053
 20
452.9201556544502978
 30
0.0
 11
-478.0076504331080969
 21
451.945620654456377
 31
0.0
  0
LINE
  5
3B9
  8
0
  6
HIDDEN
 62
     4
 10
-478.0198974331069053
 20
452.9201556544502978
 30
0.0
 11
-478.9298754331102259
 21
453.0902886544499779
 31
0.0
  0
LINE
  5
3BA
  8
0
  6
HIDDEN
 62
     4
 10
-463.7191534331067828
 20
429.0769096544535159
 30
0.0
 11
-463.9079084331096965
 21
444.0967916544540799
 31
0.0
  0
LINE
  5
3BB
  8
0
  6
HIDDEN
 62
     4
 10
-375.7261014331087949
 20
430.1827216544551789
 30
0.0
 11
-375.914857433104828
 21
445.2026026544554043
 31
0.0
  0
LINE
  5
3BC
  8
0
  6
HIDDEN
 62
     4
 10
-250.2095714331080956
 20
521.5382596544513945
 30
0.0
 11
-221.0563914330996056
 21
900.5617599512405604
 31
0.0
  0
ARC
  5
3BD
  8
0
  6
HIDDEN
 62
     4
 10
-330.9836824331068783
 20
527.5833406544552417
 30
0.0
 40
81.0
 50
272.7200000001868148
 51
355.7199999998176168
  0
LINE
  5
3BE
  8
0
  6
HIDDEN
 62
     4
 10
-349.2670354331057752
 20
445.6233636544566252
 30
0.0
 11
-327.1398174331116024
 21
446.6745976544552832
 31
0.0
  0
ARC
  5
3BF
  8
0
  6
HIDDEN
 62
     4
 10
-330.9836824331068783
 20
527.5833406544552417
 30
0.0
 40
70.0
 50
272.7200000001868148
 51
355.7199999998176168
  0
LINE
  5
3C0
  8
0
  6
HIDDEN
 62
     4
 10
-358.7274444331123959
 20
430.3963436544509022
 30
0.0
 11
-358.791694433108205
 21
435.5089696544528124
 31
0.0
  0
ARC
  5
3C1
  8
0
  6
HIDDEN
 62
     4
 10
-348.7924844331064946
 20
435.6346296544506913
 30
0.0
 40
10.0
 50
92.7200000001867579
 51
180.7199999998518081
  0
ARC
  5
3C2
  8
0
  6
HIDDEN
 62
     4
 10
-490.7812724331088248
 20
433.8502526544543798
 30
0.0
 40
10.0
 50
0.7200000000602885
 51
88.7200000002212334
  0
LINE
  5
3C3
  8
0
  6
HIDDEN
 62
     4
 10
-490.557888433104381
 20
443.847756654453292
 30
0.0
 11
-527.6675114331083023
 21
444.6769316544522894
 31
0.0
  0
LINE
  5
3C4
  8
0
  6
HIDDEN
 62
     4
 10
-358.7274444331123959
 20
430.3963436544509022
 30
0.0
 11
-480.7178114331035772
 21
428.8632866544502917
 31
0.0
  0
LINE
  5
3C5
  8
0
  6
HIDDEN
 62
     4
 10
-480.7178114331035772
 20
428.8632866544502917
 30
0.0
 11
-480.7820614331067191
 21
433.9759126544522019
 31
0.0
  0
ARC
  5
3C6
  8
0
  6
HIDDEN
 62
     4
 10
-525.8581084331090096
 20
525.6567196544565377
 30
0.0
 40
70.0
 50
200.7199999998518081
 51
268.7200000002213187
  0
ARC
  5
3C7
  8
0
  6
HIDDEN
 62
     4
 10
-525.8581084331090096
 20
525.6567196544565377
 30
0.0
 40
81.0
 50
200.7199999998518081
 51
268.7200030000141737
  0
LINE
  5
3C8
  8
0
  6
HIDDEN
 62
     4
 10
-719.521725058213633
 20
829.2609387060219888
 30
0.0
 11
-591.0702780000136727
 21
500.2025627616822021
 31
0.0
  0
LINE
  5
3C9
  8
0
  6
HIDDEN
 62
     4
 10
-488.0442404331114972
 20
454.7943376544499188
 30
0.0
 11
-527.4217934331098832
 21
455.6741876544547267
 31
0.0
  0
LINE
  5
3CA
  8
0
  6
HIDDEN
 62
     4
 10
-352.0549784331087722
 20
456.5033196544536054
 30
0.0
 11
-327.6618234331107828
 21
457.6622046544507043
 31
0.0
  0
ARC
  5
3CB
  8
0
  6
HIDDEN
 62
     4
 10
-730.1623164331031148
 20
798.0354069512395654
 30
0.0
 40
10.0
 50
20.7199999998517903
 51
90.7200000000602955
  0
LINE
  5
3CC
  8
0
  6
HIDDEN
 62
     4
 10
-730.2879774331013323
 20
808.0346179512415574
 30
0.0
 11
-746.6102515856617856
 21
807.8294952165450695
 31
0.0
  0
LINE
  5
3CD
  8
0
  6
HIDDEN
 62
     4
 10
-601.6190764331113314
 20
496.9988106544550988
 30
0.0
 11
-720.809111433096291
 21
801.5734209512411326
 31
0.0
  0
LINE
  5
3CE
  8
0
  6
HIDDEN
 62
     4
 10
-183.5092734331047097
 20
915.2133949512425488
 30
0.0
 11
-186.2994174331032866
 21
929.9516139512415975
 31
0.0
  0
LINE
  5
3CF
  8
0
  6
HIDDEN
 62
     4
 10
-212.9443754331005039
 20
909.6409319512384855
 30
0.0
 11
-183.5092734331047097
 21
915.2133949512425488
 31
0.0
  0
LINE
  5
3D0
  8
0
  6
HIDDEN
 62
     4
 10
-230.4386974330990938
 20
922.5882989512391532
 30
0.0
 11
-261.178895433105879
 21
522.3591966544554452
 31
0.0
  0
ARC
  5
3D1
  8
0
  6
HIDDEN
 62
     4
 10
-215.4419871809732001
 20
922.274162652982227
 30
0.0
 40
15.0
 50
100.717522000359196
 51
178.7999999999765919
  0
LINE
  5
3D2
  8
0
  6
CENTER2
 62
     4
 10
-419.730813933099796
 20
913.3219027999292621
 30
0.0
 11
-419.730813933107072
 21
256.3379599932376891
 31
0.0
  0
LINE
  5
3D3
  8
0
  6
HIDDEN
 62
     4
 10
-477.6970147198226186
 20
428.9012491072352873
 30
0.0
 11
-451.338479933110591
 21
297.1087001544510144
 31
0.0
  0
LINE
  5
3D4
  8
0
  6
HIDDEN
 62
     4
 10
-362.0023623794986065
 20
430.3551876516867196
 30
0.0
 11
-388.1460979331095018
 21
297.144100154451678
 31
0.0
  0
LINE
  5
3D5
  8
0
  6
HIDDEN
 62
     4
 10
-441.5328159331111237
 20
289.0698811544497744
 30
0.0
 11
-397.9590859331074171
 21
289.0698811544497744
 31
0.0
  0
LINE
  5
3D6
  8
0
  6
HIDDEN
 62
     4
 10
-444.730813933107072
 20
279.0698811544497744
 30
0.0
 11
-394.730813933107072
 21
279.0698811544497744
 31
0.0
  0
LINE
  5
3D7
  8
0
  6
HIDDEN
 62
     4
 10
-444.730813933107072
 20
289.0698811544497744
 30
0.0
 11
-444.730813933107072
 21
279.0698811544497744
 31
0.0
  0
ARC
  5
3D8
  8
0
  6
HIDDEN
 62
     4
 10
-441.5328159331111237
 20
299.0698811544497744
 30
0.0
 40
10.0
 50
191.3099379997863139
 51
270.0000009996822996
  0
LINE
  5
3D9
  8
0
  6
HIDDEN
 62
     4
 10
-394.730813933107072
 20
289.0698811544497744
 30
0.0
 11
-394.730813933107072
 21
279.0698811544497744
 31
0.0
  0
ARC
  5
3DA
  8
0
  6
HIDDEN
 62
     4
 10
-397.9590859331074171
 20
299.0698811544497744
 30
0.0
 40
10.0
 50
270.0000009996822996
 51
348.8963630001310889
  0
ENDBLK
  5
3DB
  8
0
 62
     6
  0
BLOCK
  8
0
 62
     7
  2
A$C0FEC19CC
 70
     0
 10
0.0
 20
0.0
 30
0.0
  3
A$C0FEC19CC
  1

  0
LINE
  5
40D
  8
0
  6
CONTINUOUS
 62
     3
 10
-0.0000040485815589
 20
8.9999951167483232
 30
0.0
 11
-0.0000040485815589
 21
10.9999951167483196
 31
0.0
  0
LINE
  5
40E
  8
0
  6
CONTINUOUS
 62
     3
 10
-0.0000040485815589
 20
8.9999951167483232
 30
0.0
 11
677.9999959514175316
 21
8.9999951167483232
 31
0.0
  0
LINE
  5
40F
  8
0
  6
CONTINUOUS
 62
     3
 10
14.9999959514184393
 20
6.7419951167503314
 30
0.0
 11
14.9999959514184393
 21
8.9999951167483232
 31
0.0
  0
LINE
  5
410
  8
0
  6
CONTINUOUS
 62
     3
 10
14.9999959514184393
 20
6.7419951167503314
 30
0.0
 11
662.9999959514175316
 21
6.7419951167503314
 31
0.0
  0
LINE
  5
411
  8
0
  6
CONTINUOUS
 62
     3
 10
662.9999959514175316
 20
6.7419951167503314
 30
0.0
 11
662.9999959514175316
 21
8.9999951167483232
 31
0.0
  0
LINE
  5
412
  8
0
  6
CONTINUOUS
 62
     4
 10
2.7499959519586801
 20
7.4999951167192194
 30
0.0
 11
13.2499959519586792
 21
7.4999951167192194
 31
0.0
  0
LINE
  5
413
  8
0
  6
CONTINUOUS
 62
     4
 10
13.2499959519586792
 20
7.4999951167192194
 30
0.0
 11
13.2499959519586792
 21
8.9999951167192194
 31
0.0
  0
LINE
  5
414
  8
0
  6
CONTINUOUS
 62
     4
 10
2.7499959519586801
 20
7.4999951167192194
 30
0.0
 11
2.7499959519568611
 21
8.9999951167192194
 31
0.0
  0
LINE
  5
415
  8
0
  6
CONTINUOUS
 62
     4
 10
1.9999959519586801
 20
6.4999951167192194
 30
0.0
 11
13.9999959519568602
 21
6.4999951167192194
 31
0.0
  0
LINE
  5
416
  8
0
  6
CONTINUOUS
 62
     4
 10
13.9999959519586792
 20
0.9999951167192193
 30
0.0
 11
13.9999959519568602
 21
6.4999951167192194
 31
0.0
  0
LINE
  5
417
  8
0
  6
CONTINUOUS
 62
     4
 10
1.9999959519604991
 20
0.9999951167192193
 30
0.0
 11
1.9999959519586801
 21
6.4999951167192194
 31
0.0
  0
LINE
  5
418
  8
0
  6
CONTINUOUS
 62
     4
 10
1.9999959519604991
 20
0.9999951167192193
 30
0.0
 11
13.9999959519586792
 21
0.9999951167192193
 31
0.0
  0
LINE
  5
419
  8
0
  6
CONTINUOUS
 62
     4
 10
12.1999959519557706
 20
0.9999951167192193
 30
0.0
 11
12.1999959519612293
 21
6.4999951167192194
 31
0.0
  0
LINE
  5
41A
  8
0
  6
CONTINUOUS
 62
     4
 10
10.3999959519610403
 20
0.9999951167192193
 30
0.0
 11
10.3999959519610403
 21
6.4999951167192194
 31
0.0
  0
LINE
  5
41B
  8
0
  6
CONTINUOUS
 62
     4
 10
8.5999959519572258
 20
0.9999951167192193
 30
0.0
 11
8.5999959519608637
 21
6.4999951167192194
 31
0.0
  0
LINE
  5
41C
  8
0
  6
CONTINUOUS
 62
     4
 10
6.7999959519634103
 20
0.9999951167192193
 30
0.0
 11
6.7999959519615913
 21
6.4999951167192194
 31
0.0
  0
LINE
  5
41D
  8
0
  6
CONTINUOUS
 62
     4
 10
4.9999959519568611
 20
0.9999951167192193
 30
0.0
 11
4.9999959519604991
 21
6.4999951167192194
 31
0.0
  0
LINE
  5
41E
  8
0
  6
CONTINUOUS
 62
     4
 10
3.199995951962137
 20
0.9999951167192193
 30
0.0
 11
3.1999959519612271
 21
6.4999951167155814
 31
0.0
  0
LINE
  5
41F
  8
0
  6
CONTINUOUS
 62
     4
 10
664.7499959520714583
 20
7.4999951167519612
 30
0.0
 11
675.2499959520713446
 21
7.4999951167519612
 31
0.0
  0
LINE
  5
420
  8
0
  6
CONTINUOUS
 62
     4
 10
675.2499959520713446
 20
7.4999951167519612
 30
0.0
 11
675.2499959520713446
 21
8.9999951167519612
 31
0.0
  0
LINE
  5
421
  8
0
  6
CONTINUOUS
 62
     4
 10
664.7499959520714583
 20
7.4999951167519612
 30
0.0
 11
664.7499959520696393
 21
8.9999951167519612
 31
0.0
  0
LINE
  5
422
  8
0
  6
CONTINUOUS
 62
     4
 10
663.9999959520713446
 20
6.4999951167519612
 30
0.0
 11
675.9999959520696393
 21
6.4999951167519612
 31
0.0
  0
LINE
  5
423
  8
0
  6
CONTINUOUS
 62
     4
 10
675.9999959520713446
 20
0.9999951167519611
 30
0.0
 11
675.9999959520696393
 21
6.4999951167519612
 31
0.0
  0
LINE
  5
424
  8
0
  6
CONTINUOUS
 62
     4
 10
663.9999959520713446
 20
0.9999951167519611
 30
0.0
 11
663.9999959520713446
 21
6.4999951167519612
 31
0.0
  0
LINE
  5
425
  8
0
  6
CONTINUOUS
 62
     4
 10
663.9999959520713446
 20
0.9999951167519611
 30
0.0
 11
675.9999959520696393
 21
0.9999951167519611
 31
0.0
  0
LINE
  5
426
  8
0
  6
CONTINUOUS
 62
     4
 10
674.1999959520685479
 20
0.9999951167519611
 30
0.0
 11
674.1999959520740049
 21
6.4999951167519612
 31
0.0
  0
LINE
  5
427
  8
0
  6
CONTINUOUS
 62
     4
 10
672.3999959520747325
 20
0.9999951167519611
 30
0.0
 11
672.3999959520718903
 21
6.4999951167519612
 31
0.0
  0
LINE
  5
428
  8
0
  6
CONTINUOUS
 62
     4
 10
670.5999959520689799
 20
0.9999951167519611
 30
0.0
 11
670.5999959520736411
 21
6.4999951167519612
 31
0.0
  0
LINE
  5
429
  8
0
  6
CONTINUOUS
 62
     4
 10
668.7999959520769835
 20
0.9999951167519611
 30
0.0
 11
668.7999959520725497
 21
6.4999951167519612
 31
0.0
  0
LINE
  5
42A
  8
0
  6
CONTINUOUS
 62
     4
 10
666.9999959520696393
 20
0.9999951167519611
 30
0.0
 11
666.9999959520731636
 21
6.4999951167519612
 31
0.0
  0
LINE
  5
42B
  8
0
  6
CONTINUOUS
 62
     4
 10
665.1999959520757102
 20
0.9999951167519611
 30
0.0
 11
665.1999959520740049
 21
6.4999951167519612
 31
0.0
  0
LINE
  5
42C
  8
0
  6
CONTINUOUS
 62
     3
 10
677.9999959514175316
 20
8.9999951166828396
 30
0.0
 11
677.9999959514175316
 21
10.9999951167483196
 31
0.0
  0
ARC
  5
42D
  8
0
  6
CONTINUOUS
 62
     4
 10
7.9999959519586801
 20
18.4999951167301298
 30
0.0
 40
18.500000000012701
 50
251.0753555839849867
 51
288.9246444160149849
  0
ARC
  5
42E
  8
0
  6
CONTINUOUS
 62
     4
 10
3.249995951971413
 20
6.9999951167192194
 30
0.0
 40
0.5
 50
270.0
 51
90.0
  0
ARC
  5
42F
  8
0
  6
CONTINUOUS
 62
     4
 10
12.7499959519714103
 20
6.9999951167192194
 30
0.0
 40
0.5000000000003411
 50
90.0
 51
270.0
  0
ARC
  5
430
  8
0
  6
CONTINUOUS
 62
     4
 10
669.9999959520713446
 20
18.4999951167665095
 30
0.0
 40
18.500000000012701
 50
251.0753555839849867
 51
288.9246444160149849
  0
ARC
  5
431
  8
0
  6
CONTINUOUS
 62
     4
 10
665.2499959520841912
 20
6.9999951167519612
 30
0.0
 40
0.5
 50
270.0
 51
90.0
  0
ARC
  5
432
  8
0
  6
CONTINUOUS
 62
     4
 10
674.7499959520840775
 20
6.9999951167519612
 30
0.0
 40
0.5000000000003411
 50
90.0
 51
270.0
  0
LINE
  5
433
  8
0
  6
CONTINUOUS
 62
     3
 10
-0.0000040485815589
 20
10.9999951167483196
 30
0.0
 11
677.9999959514175316
 21
10.9999951167483196
 31
0.0
  0
ENDBLK
  5
434
  8
0
 62
     7
  0
BLOCK
  8
0
 62
     7
  2
A$C187A0370
 70
     0
 10
0.0
 20
0.0
 30
0.0
  3
A$C187A0370
  1

  0
LINE
  5
439
  8
0
  6
CONTINUOUS
 62
     3
 10
160.5040301612802978
 20
-114.221296802996207
 30
0.0
 11
187.5040301612839926
 21
-114.2212968029889026
 31
0.0
  0
LINE
  5
43A
  8
0
  6
CENTER2
 62
     4
 10
214.7612982755971132
 20
-149.2212968029998024
 30
0.0
 11
133.2467620470004874
 21
-149.2212968029998024
 31
0.0
  0
LINE
  5
43B
  8
0
  6
CONTINUOUS
 62
     3
 10
187.5040301612839926
 20
-114.2212968029889026
 30
0.0
 11
187.504030161282202
 21
-173.0959695756318979
 31
0.0
  0
LINE
  5
43C
  8
0
  6
CONTINUOUS
 62
     3
 10
160.5040301612785072
 20
-173.0959695756318979
 30
0.0
 11
160.5040301612802978
 21
-114.221296802996207
 31
0.0
  0
LINE
  5
43D
  8
0
  6
CONTINUOUS
 62
     3
 10
162.5040301612802978
 20
-122.2212968029998024
 30
0.0
 11
185.5040301612839926
 21
-122.221296802996207
 31
0.0
  0
LINE
  5
43E
  8
0
  6
CONTINUOUS
 62
     3
 10
151.5040301613003066
 20
69.7787031970801763
 30
0.0
 11
196.5040301613003066
 21
69.7787031970801763
 31
0.0
  0
LINE
  5
43F
  8
0
  6
CENTER2
 62
     4
 10
174.0040301612984877
 20
-194.1236045803271111
 30
0.0
 11
174.0040301613003066
 21
85.7787031970019456
 31
0.0
  0
LINE
  5
440
  8
0
  6
CONTINUOUS
 62
     3
 10
156.0040301612912117
 20
69.7787031969492091
 30
0.0
 11
156.0040301612912117
 21
52.7787031969492091
 31
0.0
  0
LINE
  5
441
  8
0
  6
CONTINUOUS
 62
     3
 10
156.0040301612912117
 20
52.7787031969492091
 30
0.0
 11
157.0040301613003066
 21
51.7787031969492091
 31
0.0
  0
LINE
  5
442
  8
0
  6
CONTINUOUS
 62
     3
 10
192.0040301612912117
 20
69.7787031969492091
 30
0.0
 11
192.0040301612912117
 21
52.7787031969492091
 31
0.0
  0
LINE
  5
443
  8
0
  6
CONTINUOUS
 62
     3
 10
192.0040301612912117
 20
52.7787031969492091
 30
0.0
 11
191.0040301612820883
 21
51.7787031969492091
 31
0.0
  0
LINE
  5
444
  8
0
  6
CONTINUOUS
 62
     3
 10
157.0040301613003066
 20
51.7787031969492091
 30
0.0
 11
191.0040301612820883
 21
51.7787031969492091
 31
0.0
  0
LINE
  5
445
  8
0
  6
CONTINUOUS
 62
     3
 10
160.2541676612923141
 20
43.7788031969503209
 30
0.0
 11
187.7538926612928094
 21
43.7788031969503209
 31
0.0
  0
LINE
  5
446
  8
0
  6
CONTINUOUS
 62
     3
 10
187.7538926612928094
 20
43.7788031969503209
 30
0.0
 11
187.7538926612901093
 21
51.77870319695284
 31
0.0
  0
LINE
  5
447
  8
0
  6
CONTINUOUS
 62
     3
 10
160.2541676612885908
 20
51.7787031969273812
 30
0.0
 11
160.2541676612923141
 21
43.7788031969503209
 31
0.0
  0
LINE
  5
448
  8
0
  6
CONTINUOUS
 62
     3
 10
156.0040301612856979
 20
52.7787031969892269
 30
0.0
 11
192.0040301612912117
 21
52.7787031969892269
 31
0.0
  0
LINE
  5
449
  8
0
  6
CONTINUOUS
 62
     3
 10
186.5040301612758071
 20
-114.2212968029889026
 30
0.0
 11
186.504030161255713
 21
43.7788031968811922
 31
0.0
  0
LINE
  5
44A
  8
0
  6
CONTINUOUS
 62
     3
 10
161.5040301612758071
 20
-114.221296802996207
 30
0.0
 11
161.5040301612621079
 21
43.7788031970339873
 31
0.0
  0
LINE
  5
44B
  8
0
  6
CONTINUOUS
 62
     4
 10
312.00403016124028
 20
81.5207031970057869
 30
0.0
 11
312.00403016124028
 21
78.7787031970001408
 31
0.0
  0
LINE
  5
44C
  8
0
  6
CONTINUOUS
 62
     3
 10
202.4831605329104036
 20
78.7787031970001408
 30
0.0
 11
202.4831605328485864
 21
75.2787031970547105
 31
0.0
  0
LINE
  5
44D
  8
0
  6
CONTINUOUS
 62
     3
 10
145.5248997899684014
 20
78.7787031970001408
 30
0.0
 11
145.5248997897502079
 21
75.2787031970729004
 31
0.0
  0
LINE
  5
44E
  8
0
  6
CONTINUOUS
 62
     4
 10
9.0040301612430085
 20
78.7787031970001408
 30
0.0
 11
312.00403016124028
 21
78.7787031970001408
 31
0.0
  0
LINE
  5
44F
  8
0
  6
CONTINUOUS
 62
     4
 10
9.0040301612430085
 20
81.5207031970057869
 30
0.0
 11
9.0040301612430085
 21
78.7787031970001408
 31
0.0
  0
ARC
  5
450
  8
0
  6
CONTINUOUS
 62
     3
 10
174.0040301612802978
 20
-149.2212968029961928
 30
0.0
 40
28.5
 50
118.2737136312947968
 51
61.7262863685755008
  0
ARC
  5
451
  8
0
  6
CONTINUOUS
 62
     3
 10
174.0040301612802978
 20
-149.2212968029961928
 30
0.0
 40
20.0
 50
132.4541502043115031
 51
227.5458497956884969
  0
ARC
  5
452
  8
0
  6
CONTINUOUS
 62
     3
 10
174.0040301612802978
 20
-149.2212968029961928
 30
0.0
 40
23.0
 50
125.9413298913347035
 51
234.0586701086652113
  0
ARC
  5
453
  8
0
  6
CONTINUOUS
 62
     3
 10
174.0040301612802978
 20
-149.2212968029961928
 30
0.0
 40
20.0
 50
312.45415020445148
 51
47.5458497955484773
  0
ARC
  5
454
  8
0
  6
CONTINUOUS
 62
     3
 10
174.0040301612802978
 20
-149.2212968029961928
 30
0.0
 40
23.0
 50
305.9413298911917991
 51
54.0586701088081583
  0
ARC
  5
455
  8
0
  6
CONTINUOUS
 62
     3
 10
185.5040301612785072
 20
-173.0959695756318979
 30
0.0
 40
2.0
 50
295.7192795022119753
 51
0.0
  0
ARC
  5
456
  8
0
  6
CONTINUOUS
 62
     3
 10
162.5040301612785072
 20
-173.0959695756318979
 30
0.0
 40
2.0
 50
180.0
 51
244.2807204977879962
  0
ARC
  5
457
  8
0
  6
CONTINUOUS
 62
     3
 10
162.5040301612802978
 20
-124.2212968030034972
 30
0.0
 40
2.0
 50
90.0
 51
180.0
  0
ARC
  5
458
  8
0
  6
CONTINUOUS
 62
     3
 10
185.5040301612839926
 20
-124.221296802996207
 30
0.0
 40
2.0
 50
0.0
 51
90.0
  0
ARC
  5
459
  8
0
  6
CONTINUOUS
 62
     3
 10
196.5040301613003066
 20
75.7787031970801763
 30
0.0
 40
6.0
 50
270.0
 51
355.219808152556709
  0
ARC
  5
45A
  8
0
  6
CONTINUOUS
 62
     3
 10
151.5040301613003066
 20
75.7787031970801763
 30
0.0
 40
6.0
 50
184.7801918472339935
 51
270.0
  0
LINE
  5
45B
  8
0
  6
CONTINUOUS
 62
     4
 10
9.0040301612430085
 20
81.5207031970057869
 30
0.0
 11
312.00403016124028
 21
81.5207031970057869
 31
0.0
  0
ENDBLK
  5
45C
  8
0
 62
     7
  0
BLOCK
  8
0
 62
     7
  2
A$C1C185600
 70
     0
 10
0.0
 20
0.0
 30
0.0
  3
A$C1C185600
  1

  0
LINE
  5
4B2
  8
0
  6
CONTINUOUS
 62
     4
 10
77.0001157449987659
 20
823.9520739547295989
 30
0.0
 11
376.0001157450024039
 21
823.9520739547515404
 31
0.0
  0
LINE
  5
4B3
  8
0
  6
CONTINUOUS
 62
     4
 10
75.0001157449996754
 20
833.9520739547295989
 30
0.0
 11
378.000115745005985
 21
833.9520739547479025
 31
0.0
  0
LINE
  5
4B4
  8
0
  6
CONTINUOUS
 62
     4
 10
77.0001157449978564
 20
136.9520739547332937
 30
0.0
 11
376.0001157449923994
 21
136.9520739547405981
 31
0.0
  0
LINE
  5
4B5
  8
0
  6
CONTINUOUS
 62
     4
 10
75.0001157449978564
 20
126.9520739547332937
 30
0.0
 11
378.0001157449951279
 21
126.9520739547370027
 31
0.0
  0
LINE
  5
4B6
  8
0
  6
CONTINUOUS
 62
     4
 10
75.0001157450005849
 20
833.9520739547295989
 30
0.0
 11
75.0001157449960374
 21
126.9520739547370027
 31
0.0
  0
LINE
  5
4B7
  8
0
  6
CONTINUOUS
 62
     4
 10
378.0001157449923994
 20
126.9520739547405981
 30
0.0
 11
378.000115745005985
 21
833.9520739547479025
 31
0.0
  0
LINE
  5
4B8
  8
0
  6
CONTINUOUS
 62
     4
 10
440.5001157447732112
 20
727.9520739545476999
 30
0.0
 11
440.5001157447667879
 21
766.9520739546242112
 31
0.0
  0
LINE
  5
4B9
  8
0
  6
CONTINUOUS
 62
     4
 10
390.5001157448805884
 20
727.9520739544968819
 30
0.0
 11
390.5001157446658908
 21
766.9520739545441756
 31
0.0
  0
LINE
  5
4BA
  8
0
  6
CONTINUOUS
 62
     4
 10
393.5001157448822937
 20
724.9520739545478136
 30
0.0
 11
437.5001157447749733
 21
724.9520739545114338
 31
0.0
  0
LINE
  5
4BB
  8
0
  6
CONTINUOUS
 62
     4
 10
393.5001157446586149
 20
769.9520739545150718
 30
0.0
 11
437.5001157447586024
 21
769.9520739546460391
 31
0.0
  0
LINE
  5
4BC
  8
0
  6
CONTINUOUS
 62
     3
 10
0.0001157450069513
 20
972.9520769547852979
 30
0.0
 11
480.0001157450033134
 21
972.9520769547925738
 31
0.0
  0
LINE
  5
4BD
  8
0
  6
CONTINUOUS
 62
     3
 10
0.0001157450069513
 20
62.9520769547852979
 30
0.0
 11
0.0001157450069513
 21
972.9520769547852979
 31
0.0
  0
LINE
  5
4BE
  8
0
  6
CONTINUOUS
 62
     3
 10
0.0001157450069513
 20
62.9520769547852979
 30
0.0
 11
480.0001157450024039
 21
62.9520769547852979
 31
0.0
  0
LINE
  5
4BF
  8
0
  6
CONTINUOUS
 62
     3
 10
480.0001157450024039
 20
62.9520769547852979
 30
0.0
 11
480.0001157450033134
 21
972.9520769547925738
 31
0.0
  0
CIRCLE
  5
4C0
  8
0
  6
CONTINUOUS
 62
     4
 10
425.5001157447094897
 20
754.9520739546060213
 30
0.0
 40
3.0
  0
CIRCLE
  5
4C1
  8
0
  6
CONTINUOUS
 62
     4
 10
405.5001157447094897
 20
754.9520739546060213
 30
0.0
 40
3.0
  0
CIRCLE
  5
4C2
  8
0
  6
CONTINUOUS
 62
     4
 10
415.5001157447094897
 20
739.9520739546060213
 30
0.0
 40
3.0
  0
CIRCLE
  5
4C3
  8
0
  6
CONTINUOUS
 62
     4
 10
420.0001157450050755
 20
468.4520739547987773
 30
0.0
 40
17.5
  0
CIRCLE
  5
4C4
  8
0
  6
CONTINUOUS
 62
     4
 10
420.0001157450050755
 20
468.4520739547987773
 30
0.0
 40
29.0
  0
ARC
  5
4C5
  8
0
  6
CONTINUOUS
 62
     4
 10
77.0001157449987659
 20
825.9520739547295989
 30
0.0
 40
2.0
 50
180.0
 51
270.0000000000521254
  0
ARC
  5
4C6
  8
0
  6
CONTINUOUS
 62
     4
 10
376.0001157450033134
 20
825.9520739547479025
 30
0.0
 40
2.0
 50
269.9999999999478746
 51
0.0
  0
ARC
  5
4C7
  8
0
  6
CONTINUOUS
 62
     4
 10
376.0001157449942184
 20
134.9520739547405981
 30
0.0
 40
2.0
 50
0.0
 51
90.0000000000521254
  0
ARC
  5
4C8
  8
0
  6
CONTINUOUS
 62
     4
 10
77.0001157449960374
 20
134.9520739547332937
 30
0.0
 40
2.0
 50
89.9999999999478888
 51
180.0
  0
ARC
  5
4C9
  8
0
  6
CONTINUOUS
 62
     4
 10
437.5001157447667879
 20
766.9520739546204595
 30
0.0
 40
3.0
 50
0.0
 51
90.0000000001042082
  0
ARC
  5
4CA
  8
0
  6
CONTINUOUS
 62
     4
 10
437.5001157447732112
 20
727.9520739545476999
 30
0.0
 40
3.0
 50
270.0000000000521254
 51
0.0
  0
ARC
  5
4CB
  8
0
  6
CONTINUOUS
 62
     4
 10
393.5001157448822937
 20
727.9520739545114338
 30
0.0
 40
3.0
 50
180.000000000208388
 51
270.0
  0
ARC
  5
4CC
  8
0
  6
CONTINUOUS
 62
     4
 10
393.5001157446658908
 20
766.9520739545441756
 30
0.0
 40
3.0
 50
90.0000000001563336
 51
180.0
  0
ARC
  5
4CD
  8
0
  6
CONTINUOUS
 62
     3
 10
240.0001157449987943
 20
342.7520769541588948
 30
0.0
 40
28.5
 50
335.124275852546873
 51
38.7129202391822105
  0
ARC
  5
4CE
  8
0
  6
CONTINUOUS
 62
     3
 10
240.0001157449987943
 20
342.7520769541588948
 30
0.0
 40
28.5
 50
141.2870797608177895
 51
204.8757241474530986
  0
LINE
  5
4CF
  8
0
  6
CONTINUOUS
 62
     3
 10
212.7501157449987943
 20
306.2520769541587811
 30
0.0
 11
267.2501157449988227
 21
306.2520769541587811
 31
0.0
1001
ACAD
1000
ASC_BOUNDS
1002
{
1070
    19
1002
}
  0
LINE
  5
4D0
  8
0
  6
CONTINUOUS
 62
     4
 10
239.2600351228647924
 20
337.8447963222387784
 30
0.0
 11
242.9214036603152067
 21
341.4347752153407782
 31
0.0
  0
CIRCLE
  5
4D1
  8
0
  6
CONTINUOUS
 62
     4
 10
240.0001157449987943
 20
340.7520769541588948
 30
0.0
 40
3.0
  0
LINE
  5
4D2
  8
0
  6
CONTINUOUS
 62
     4
 10
237.0098628925188962
 20
340.5104411161083249
 30
0.0
 11
240.300577225574699
 21
343.7369928489025028
 31
0.0
  0
LINE
  5
4D3
  8
0
  6
CONTINUOUS
 62
     4
 10
237.024498254104401
 20
341.13378436552739
 30
0.0
 11
239.6770666558913945
 21
343.7346327853265961
 31
0.0
  0
LINE
  5
4D4
  8
0
  6
CONTINUOUS
 62
     4
 10
238.7998996525165865
 20
338.0026258577855174
 30
0.0
 11
242.7726639225730025
 21
341.8979288656336735
 31
0.0
  0
CIRCLE
  5
4D5
  8
0
  6
CONTINUOUS
 62
     4
 10
240.0001157449987943
 20
340.7520769541588948
 30
0.0
 40
5.0
  0
CIRCLE
  5
4D6
  8
0
  6
CONTINUOUS
 62
     4
 10
240.0001157449987943
 20
340.7520769541588948
 30
0.0
 40
6.0
  0
POINT
  5
4D7
  8
0
  6
CONTINUOUS
 62
     3
 10
213.0001157449987943
 20
319.2520769541587811
 30
0.0
  0
POINT
  5
4D8
  8
0
  6
CONTINUOUS
 62
     3
 10
267.0001157449988227
 20
319.2520769541587811
 30
0.0
  0
TEXT
  5
4D9
  8
0
 62
     1
 10
404.6551029325946729
 20
745.4903730563163435
 30
0.0
 40
4.0
  1
殺菌灯時間計
 41
0.9
  7
\U+FF7D\U+FF80\U+FF72\U+FF991
  0
TEXT
  5
4DA
  8
0
 62
     1
 10
402.5360851374553022
 20
729.9951688897380109
 30
0.0
 40
4.0
  1
時間計リセット
 41
0.9
  7
\U+FF7D\U+FF80\U+FF72\U+FF991
  0
LINE
  5
4DB
  8
0
  6
CONTINUOUS
 62
     3
 10
226.500115744998709
 20
391.7520769541587811
 30
0.0
 11
226.500115744998709
 21
332.7520769541587811
 31
0.0
1001
ACAD
1000
ASC_BOUNDS
1002
{
1070
    19
1002
}
  0
LINE
  5
4DC
  8
0
  6
CONTINUOUS
 62
     3
 10
226.500115744998709
 20
332.7520769541587811
 30
0.0
 11
253.500115744998709
 21
332.7520769541587811
 31
0.0
1001
ACAD
1000
ASC_BOUNDS
1002
{
1070
    19
1002
}
  0
LINE
  5
4DD
  8
0
  6
CONTINUOUS
 62
     3
 10
253.500115744998709
 20
332.7520769541587811
 30
0.0
 11
253.500115744998709
 21
391.7520769541587811
 31
0.0
1001
ACAD
1000
ASC_BOUNDS
1002
{
1070
    19
1002
}
  0
LINE
  5
4DE
  8
0
  6
CONTINUOUS
 62
     3
 10
213.0001157449987943
 20
320.7520769541587811
 30
0.0
 11
217.0001157449987943
 21
355.7520769541587811
 31
0.0
1001
ACAD
1000
ASC_BOUNDS
1002
{
1070
    19
1002
}
  0
LINE
  5
4DF
  8
0
  6
CONTINUOUS
 62
     3
 10
263.0001157449988227
 20
355.7520769541587811
 30
0.0
 11
267.0001157449988227
 21
320.7520769541587811
 31
0.0
1001
ACAD
1000
ASC_BOUNDS
1002
{
1070
    19
1002
}
  0
LINE
  5
4E0
  8
0
  6
CONTINUOUS
 62
     3
 10
213.0001157449987943
 20
320.7520769541587811
 30
0.0
 11
213.0001157449987943
 21
317.7520769541588948
 31
0.0
  0
LINE
  5
4E1
  8
0
  6
CONTINUOUS
 62
     3
 10
213.0001157449987943
 20
317.7520769541588948
 30
0.0
 11
267.0001157449988227
 21
317.7520769541588948
 31
0.0
  0
LINE
  5
4E2
  8
0
  6
CONTINUOUS
 62
     3
 10
267.0001157449988227
 20
317.7520769541588948
 30
0.0
 11
267.0001157449988227
 21
320.7520769541587811
 31
0.0
  0
LINE
  5
4E3
  8
0
  6
CONTINUOUS
 62
     3
 10
267.0001157449988227
 20
320.7520769541587811
 30
0.0
 11
213.0001157449987943
 21
320.7520769541587811
 31
0.0
  0
LINE
  5
4E4
  8
0
  6
CONTINUOUS
 62
     3
 10
213.5001157449987943
 20
314.7520769541587811
 30
0.0
 11
213.5001157449987943
 21
316.7520769541587811
 31
0.0
  0
LINE
  5
4E5
  8
0
  6
CONTINUOUS
 62
     3
 10
213.5001157449987943
 20
316.7520769541587811
 30
0.0
 11
266.5001157449988227
 21
316.7520769541587811
 31
0.0
  0
LINE
  5
4E6
  8
0
  6
CONTINUOUS
 62
     3
 10
266.5001157449988227
 20
316.7520769541587811
 30
0.0
 11
266.5001157449988227
 21
314.7520769541587811
 31
0.0
  0
LINE
  5
4E7
  8
0
  6
CONTINUOUS
 62
     3
 10
214.5001157449987943
 20
316.7520769541587811
 30
0.0
 11
214.5001157449987943
 21
317.7520769541588948
 31
0.0
  0
LINE
  5
4E8
  8
0
  6
CONTINUOUS
 62
     3
 10
265.5001157449988227
 20
317.7520769541588948
 30
0.0
 11
265.5001157449988227
 21
316.7520769541587811
 31
0.0
  0
LINE
  5
4E9
  8
0
  6
CONTINUOUS
 62
     3
 10
212.7501157449987943
 20
306.2520769541587811
 30
0.0
 11
212.7501157449987943
 21
314.7520769541587811
 31
0.0
1001
ACAD
1000
ASC_BOUNDS
1002
{
1070
    19
1002
}
  0
LINE
  5
4EA
  8
0
  6
CONTINUOUS
 62
     3
 10
212.7501157449987943
 20
314.7520769541587811
 30
0.0
 11
267.2501157449988227
 21
314.7520769541587811
 31
0.0
1001
ACAD
1000
ASC_BOUNDS
1002
{
1070
    19
1002
}
  0
LINE
  5
4EB
  8
0
  6
CONTINUOUS
 62
     3
 10
267.2501157449988227
 20
314.7520769541587811
 30
0.0
 11
267.2501157449988227
 21
306.2520769541587811
 31
0.0
1001
ACAD
1000
ASC_BOUNDS
1002
{
1070
    19
1002
}
  0
LINE
  5
4EC
  8
0
  6
CONTINUOUS
 62
     3
 10
267.2501157449988227
 20
306.2520769541587811
 30
0.0
 11
266.7501157449988227
 21
305.7520769541587811
 31
0.0
1001
ACAD
1000
ASC_BOUNDS
1002
{
1070
    19
1002
}
  0
LINE
  5
4ED
  8
0
  6
CONTINUOUS
 62
     3
 10
266.7501157449988227
 20
305.7520769541587811
 30
0.0
 11
213.2501157449987943
 21
305.7520769541587811
 31
0.0
1001
ACAD
1000
ASC_BOUNDS
1002
{
1070
    19
1002
}
  0
LINE
  5
4EE
  8
0
  6
CONTINUOUS
 62
     3
 10
213.2501157449987943
 20
305.7520769541587811
 30
0.0
 11
212.7501157449987943
 21
306.2520769541587811
 31
0.0
1001
ACAD
1000
ASC_BOUNDS
1002
{
1070
    19
1002
}
  0
LINE
  5
4EF
  8
0
  6
CONTINUOUS
 62
     4
 10
239.000115744998709
 20
335.8530974685926935
 30
0.0
 11
239.000115744998709
 21
337.9236498294122271
 31
0.0
  0
LINE
  5
4F0
  8
0
  6
CONTINUOUS
 62
     4
 10
241.000115744998709
 20
337.9236498294122271
 30
0.0
 11
241.000115744998709
 21
335.8530974685926935
 31
0.0
  0
LINE
  5
4F1
  8
0
  6
CONTINUOUS
 62
     4
 10
239.000115744998709
 20
343.5805040789055056
 30
0.0
 11
239.000115744998709
 21
345.6510564397249254
 31
0.0
  0
LINE
  5
4F2
  8
0
  6
CONTINUOUS
 62
     4
 10
241.000115744998709
 20
345.6510564397249254
 30
0.0
 11
241.000115744998709
 21
343.5805040789055056
 31
0.0
  0
ARC
  5
4F3
  8
0
  6
CONTINUOUS
 62
     3
 10
251.500115744998709
 20
391.7520769541587811
 30
0.0
 40
2.0
 50
0.0
 51
90.0
1001
ACAD
1000
ASC_BOUNDS
1002
{
1070
    19
1002
}
  0
LINE
  5
4F4
  8
0
  6
CONTINUOUS
 62
     3
 10
251.500115744998709
 20
393.7520769541587811
 30
0.0
 11
228.500115744998709
 21
393.7520769541587811
 31
0.0
1001
ACAD
1000
ASC_BOUNDS
1002
{
1070
    19
1002
}
  0
ARC
  5
4F5
  8
0
  6
CONTINUOUS
 62
     3
 10
228.500115744998709
 20
391.7520769541587811
 30
0.0
 40
2.0
 50
90.0
 51
180.0
1001
ACAD
1000
ASC_BOUNDS
1002
{
1070
    19
1002
}
  0
LINE
  5
4F6
  8
0
  6
CONTINUOUS
 62
     3
 10
253.500115744998709
 20
374.7520769541587811
 30
0.0
 11
259.1456218470157182
 21
374.7520769541587811
 31
0.0
1001
ACAD
1000
ASC_BOUNDS
1002
{
1070
    19
1002
}
  0
ARC
  5
4F7
  8
0
  6
CONTINUOUS
 62
     3
 10
259.1456218470157182
 20
373.7520769541588948
 30
0.0
 40
1.0
 50
8.9726266148205394
 51
90.0
1001
ACAD
1000
ASC_BOUNDS
1002
{
1070
    19
1002
}
  0
LINE
  5
4F8
  8
0
  6
CONTINUOUS
 62
     3
 10
260.1333848123430812
 20
373.9080395276324111
 30
0.0
 11
263.0001157449988227
 21
355.7520769541587811
 31
0.0
1001
ACAD
1000
ASC_BOUNDS
1002
{
1070
    19
1002
}
  0
LINE
  5
4F9
  8
0
  6
CONTINUOUS
 62
     3
 10
263.0001157449988227
 20
355.7520769541587811
 30
0.0
 11
217.0001157449987943
 21
355.7520769541587811
 31
0.0
1001
ACAD
1000
ASC_BOUNDS
1002
{
1070
    19
1002
}
  0
LINE
  5
4FA
  8
0
  6
CONTINUOUS
 62
     3
 10
217.0001157449987943
 20
355.7520769541587811
 30
0.0
 11
219.8668466776508126
 21
373.9080395276324111
 31
0.0
1001
ACAD
1000
ASC_BOUNDS
1002
{
1070
    19
1002
}
  0
ARC
  5
4FB
  8
0
  6
CONTINUOUS
 62
     3
 10
220.8546096429818135
 20
373.7520769541588948
 30
0.0
 40
0.9999999999997262
 50
90.0
 51
171.027373385179402
1001
ACAD
1000
ASC_BOUNDS
1002
{
1070
    19
1002
}
  0
LINE
  5
4FC
  8
0
  6
CONTINUOUS
 62
     3
 10
220.8546096429818135
 20
374.7520769541587811
 30
0.0
 11
226.500115744998709
 21
374.7520769541587811
 31
0.0
1001
ACAD
1000
ASC_BOUNDS
1002
{
1070
    19
1002
}
  0
LINE
  5
4FD
  8
0
  6
CENTER2
 62
     4
 10
240.0001157450068945
 20
-0.0000120458389574
 30
0.0
 11
240.0001157450068945
 21
1085.7520769541590653
 31
0.0
  0
CIRCLE
  5
4FE
  8
0
  6
CONTINUOUS
 62
     4
 10
420.0001157449759717
 20
543.4520739547697303
 30
0.0
 40
7.5
  0
CIRCLE
  5
4FF
  8
0
  6
CONTINUOUS
 62
     4
 10
420.0001157449759717
 20
543.4520739547697303
 30
0.0
 40
9.0
  0
ENDBLK
  5
500
  8
0
 62
     7
  0
BLOCK
  8
0
 62
     4
  2
A$C38AF493F
 70
     0
 10
0.0
 20
0.0
 30
0.0
  3
A$C38AF493F
  1

  0
LINE
  5
56A
  8
0
 62
     3
 10
73.0468589359661564
 20
228.9998660716809979
 30
0.0
 11
81.0012823904980905
 21
228.9998660717392056
 31
0.0
  0
POLYLINE
  5
56B
  8
0
  6
CONTINUOUS
 62
     3
 10
20.5014043904166101
 20
38.9735320327428809
 30
0.0
 66
     1
 70
     8
  0
VERTEX
  8
0
  5
254A
 10
20.5014
 20
38.9735
 30
0.00000
  70
    32
  0
VERTEX
  8
0
  5
254B
 10
20.5053
 20
38.8626
 30
0.00000
  70
    32
  0
VERTEX
  8
0
  5
254C
 10
20.5171
 20
38.7517
 30
0.00000
  70
    32
  0
VERTEX
  8
0
  5
254D
 10
20.5366
 20
38.6409
 30
0.00000
  70
    32
  0
VERTEX
  8
0
  5
254E
 10
20.5640
 20
38.5304
 30
0.00000
  70
    32
  0
VERTEX
  8
0
  5
254F
 10
20.5992
 20
38.4201
 30
0.00000
  70
    32
  0
VERTEX
  8
0
  5
2550
 10
20.6421
 20
38.3101
 30
0.00000
  70
    32
  0
VERTEX
  8
0
  5
2551
 10
20.6928
 20
38.2006
 30
0.00000
  70
    32
  0
VERTEX
  8
0
  5
2552
 10
20.7512
 20
38.0915
 30
0.00000
  70
    32
  0
VERTEX
  8
0
  5
2553
 10
20.8173
 20
37.9829
 30
0.00000
  70
    32
  0
VERTEX
  8
0
  5
2554
 10
20.8910
 20
37.8749
 30
0.00000
  70
    32
  0
VERTEX
  8
0
  5
2555
 10
20.9723
 20
37.7676
 30
0.00000
  70
    32
  0
VERTEX
  8
0
  5
2556
 10
21.0612
 20
37.6611
 30
0.00000
  70
    32
  0
VERTEX
  8
0
  5
2557
 10
21.1575
 20
37.5553
 30
0.00000
  70
    32
  0
VERTEX
  8
0
  5
2558
 10
21.2613
 20
37.4503
 30
0.00000
  70
    32
  0
VERTEX
  8
0
  5
2559
 10
21.3725
 20
37.3463
 30
0.00000
  70
    32
  0
VERTEX
  8
0
  5
255A
 10
21.4910
 20
37.2433
 30
0.00000
  70
    32
  0
VERTEX
  8
0
  5
255B
 10
21.6167
 20
37.1413
 30
0.00000
  70
    32
  0
VERTEX
  8
0
  5
255C
 10
21.7495
 20
37.0404
 30
0.00000
  70
    32
  0
VERTEX
  8
0
  5
255D
 10
21.8895
 20
36.9407
 30
0.00000
  70
    32
  0
VERTEX
  8
0
  5
255E
 10
22.0364
 20
36.8422
 30
0.00000
  70
    32
  0
VERTEX
  8
0
  5
255F
 10
22.1903
 20
36.7450
 30
0.00000
  70
    32
  0
VERTEX
  8
0
  5
2560
 10
22.3509
 20
36.6491
 30
0.00000
  70
    32
  0
VERTEX
  8
0
  5
2561
 10
22.5183
 20
36.5546
 30
0.00000
  70
    32
  0
VERTEX
  8
0
  5
2562
 10
22.6923
 20
36.4616
 30
0.00000
  70
    32
  0
VERTEX
  8
0
  5
2563
 10
22.8728
 20
36.3701
 30
0.00000
  70
    32
  0
VERTEX
  8
0
  5
2564
 10
23.0597
 20
36.2802
 30
0.00000
  70
    32
  0
VERTEX
  8
0
  5
2565
 10
23.2529
 20
36.1919
 30
0.00000
  70
    32
  0
VERTEX
  8
0
  5
2566
 10
23.4523
 20
36.1052
 30
0.00000
  70
    32
  0
VERTEX
  8
0
  5
2567
 10
23.6577
 20
36.0203
 30
0.00000
  70
    32
  0
VERTEX
  8
0
  5
2568
 10
23.8690
 20
35.9372
 30
0.00000
  70
    32
  0
VERTEX
  8
0
  5
2569
 10
24.0862
 20
35.8559
 30
0.00000
  70
    32
  0
VERTEX
  8
0
  5
256A
 10
24.3090
 20
35.7765
 30
0.00000
  70
    32
  0
VERTEX
  8
0
  5
256B
 10
24.5374
 20
35.6990
 30
0.00000
  70
    32
  0
VERTEX
  8
0
  5
256C
 10
24.7711
 20
35.6234
 30
0.00000
  70
    32
  0
VERTEX
  8
0
  5
256D
 10
25.0102
 20
35.5499
 30
0.00000
  70
    32
  0
VERTEX
  8
0
  5
256E
 10
25.2543
 20
35.4785
 30
0.00000
  70
    32
  0
VERTEX
  8
0
  5
256F
 10
25.5034
 20
35.4091
 30
0.00000
  70
    32
  0
VERTEX
  8
0
  5
2570
 10
25.7573
 20
35.3420
 30
0.00000
  70
    32
  0
VERTEX
  8
0
  5
2571
 10
26.0159
 20
35.2769
 30
0.00000
  70
    32
  0
VERTEX
  8
0
  5
2572
 10
26.2790
 20
35.2142
 30
0.00000
  70
    32
  0
VERTEX
  8
0
  5
2573
 10
26.5464
 20
35.1537
 30
0.00000
  70
    32
  0
VERTEX
  8
0
  5
2574
 10
26.8181
 20
35.0954
 30
0.00000
  70
    32
  0
VERTEX
  8
0
  5
2575
 10
27.0937
 20
35.0396
 30
0.00000
  70
    32
  0
VERTEX
  8
0
  5
2576
 10
27.3732
 20
34.9861
 30
0.00000
  70
    32
  0
VERTEX
  8
0
  5
2577
 10
27.6565
 20
34.9350
 30
0.00000
  70
    32
  0
VERTEX
  8
0
  5
2578
 10
27.9432
 20
34.8863
 30
0.00000
  70
    32
  0
VERTEX
  8
0
  5
2579
 10
28.2333
 20
34.8401
 30
0.00000
  70
    32
  0
VERTEX
  8
0
  5
257A
 10
28.5265
 20
34.7964
 30
0.00000
  70
    32
  0
VERTEX
  8
0
  5
257B
 10
28.8228
 20
34.7551
 30
0.00000
  70
    32
  0
VERTEX
  8
0
  5
257C
 10
29.1218
 20
34.7165
 30
0.00000
  70
    32
  0
VERTEX
  8
0
  5
257D
 10
29.4235
 20
34.6804
 30
0.00000
  70
    32
  0
VERTEX
  8
0
  5
257E
 10
29.7277
 20
34.6469
 30
0.00000
  70
    32
  0
VERTEX
  8
0
  5
257F
 10
30.0341
 20
34.6160
 30
0.00000
  70
    32
  0
VERTEX
  8
0
  5
2580
 10
30.3427
 20
34.5877
 30
0.00000
  70
    32
  0
VERTEX
  8
0
  5
2581
 10
30.6531
 20
34.5620
 30
0.00000
  70
    32
  0
VERTEX
  8
0
  5
2582
 10
30.9652
 20
34.5391
 30
0.00000
  70
    32
  0
VERTEX
  8
0
  5
2583
 10
31.2789
 20
34.5188
 30
0.00000
  70
    32
  0
VERTEX
  8
0
  5
2584
 10
31.5939
 20
34.5011
 30
0.00000
  70
    32
  0
VERTEX
  8
0
  5
2585
 10
31.9101
 20
34.4862
 30
0.00000
  70
    32
  0
VERTEX
  8
0
  5
2586
 10
32.2272
 20
34.4740
 30
0.00000
  70
    32
  0
VERTEX
  8
0
  5
2587
 10
32.5451
 20
34.4644
 30
0.00000
  70
    32
  0
VERTEX
  8
0
  5
2588
 10
32.8635
 20
34.4576
 30
0.00000
  70
    32
  0
VERTEX
  8
0
  5
2589
 10
33.1824
 20
34.4535
 30
0.00000
  70
    32
  0
VERTEX
  8
0
  5
258A
 10
33.5014
 20
34.4522
 30
0.00000
  70
    32
  0
VERTEX
  8
0
  5
258B
 10
33.8204
 20
34.4535
 30
0.00000
  70
    32
  0
VERTEX
  8
0
  5
258C
 10
34.1393
 20
34.4576
 30
0.00000
  70
    32
  0
VERTEX
  8
0
  5
258D
 10
34.4577
 20
34.4644
 30
0.00000
  70
    32
  0
VERTEX
  8
0
  5
258E
 10
34.7756
 20
34.4740
 30
0.00000
  70
    32
  0
VERTEX
  8
0
  5
258F
 10
35.0927
 20
34.4862
 30
0.00000
  70
    32
  0
VERTEX
  8
0
  5
2590
 10
35.4089
 20
34.5011
 30
0.00000
  70
    32
  0
VERTEX
  8
0
  5
2591
 10
35.7239
 20
34.5188
 30
0.00000
  70
    32
  0
VERTEX
  8
0
  5
2592
 10
36.0376
 20
34.5391
 30
0.00000
  70
    32
  0
VERTEX
  8
0
  5
2593
 10
36.3497
 20
34.5620
 30
0.00000
  70
    32
  0
VERTEX
  8
0
  5
2594
 10
36.6601
 20
34.5877
 30
0.00000
  70
    32
  0
VERTEX
  8
0
  5
2595
 10
36.9687
 20
34.6160
 30
0.00000
  70
    32
  0
VERTEX
  8
0
  5
2596
 10
37.2751
 20
34.6469
 30
0.00000
  70
    32
  0
VERTEX
  8
0
  5
2597
 10
37.5793
 20
34.6804
 30
0.00000
  70
    32
  0
VERTEX
  8
0
  5
2598
 10
37.8810
 20
34.7165
 30
0.00000
  70
    32
  0
VERTEX
  8
0
  5
2599
 10
38.1800
 20
34.7551
 30
0.00000
  70
    32
  0
VERTEX
  8
0
  5
259A
 10
38.4763
 20
34.7964
 30
0.00000
  70
    32
  0
VERTEX
  8
0
  5
259B
 10
38.7695
 20
34.8401
 30
0.00000
  70
    32
  0
VERTEX
  8
0
  5
259C
 10
39.0596
 20
34.8863
 30
0.00000
  70
    32
  0
VERTEX
  8
0
  5
259D
 10
39.3464
 20
34.9350
 30
0.00000
  70
    32
  0
VERTEX
  8
0
  5
259E
 10
39.6296
 20
34.9861
 30
0.00000
  70
    32
  0
VERTEX
  8
0
  5
259F
 10
39.9091
 20
35.0396
 30
0.00000
  70
    32
  0
VERTEX
  8
0
  5
25A0
 10
40.1847
 20
35.0954
 30
0.00000
  70
    32
  0
VERTEX
  8
0
  5
25A1
 10
40.4564
 20
35.1537
 30
0.00000
  70
    32
  0
VERTEX
  8
0
  5
25A2
 10
40.7238
 20
35.2142
 30
0.00000
  70
    32
  0
VERTEX
  8
0
  5
25A3
 10
40.9869
 20
35.2769
 30
0.00000
  70
    32
  0
VERTEX
  8
0
  5
25A4
 10
41.2455
 20
35.3420
 30
0.00000
  70
    32
  0
VERTEX
  8
0
  5
25A5
 10
41.4994
 20
35.4091
 30
0.00000
  70
    32
  0
VERTEX
  8
0
  5
25A6
 10
41.7485
 20
35.4785
 30
0.00000
  70
    32
  0
VERTEX
  8
0
  5
25A7
 10
41.9927
 20
35.5499
 30
0.00000
  70
    32
  0
VERTEX
  8
0
  5
25A8
 10
42.2317
 20
35.6234
 30
0.00000
  70
    32
  0
VERTEX
  8
0
  5
25A9
 10
42.4654
 20
35.6990
 30
0.00000
  70
    32
  0
VERTEX
  8
0
  5
25AA
 10
42.6938
 20
35.7765
 30
0.00000
  70
    32
  0
VERTEX
  8
0
  5
25AB
 10
42.9166
 20
35.8559
 30
0.00000
  70
    32
  0
VERTEX
  8
0
  5
25AC
 10
43.1338
 20
35.9372
 30
0.00000
  70
    32
  0
VERTEX
  8
0
  5
25AD
 10
43.3451
 20
36.0203
 30
0.00000
  70
    32
  0
VERTEX
  8
0
  5
25AE
 10
43.5505
 20
36.1052
 30
0.00000
  70
    32
  0
VERTEX
  8
0
  5
25AF
 10
43.7499
 20
36.1919
 30
0.00000
  70
    32
  0
VERTEX
  8
0
  5
25B0
 10
43.9431
 20
36.2802
 30
0.00000
  70
    32
  0
VERTEX
  8
0
  5
25B1
 10
44.1300
 20
36.3701
 30
0.00000
  70
    32
  0
VERTEX
  8
0
  5
25B2
 10
44.3105
 20
36.4616
 30
0.00000
  70
    32
  0
VERTEX
  8
0
  5
25B3
 10
44.4845
 20
36.5546
 30
0.00000
  70
    32
  0
VERTEX
  8
0
  5
25B4
 10
44.6519
 20
36.6491
 30
0.00000
  70
    32
  0
VERTEX
  8
0
  5
25B5
 10
44.8125
 20
36.7450
 30
0.00000
  70
    32
  0
VERTEX
  8
0
  5
25B6
 10
44.9664
 20
36.8422
 30
0.00000
  70
    32
  0
VERTEX
  8
0
  5
25B7
 10
45.1133
 20
36.9407
 30
0.00000
  70
    32
  0
VERTEX
  8
0
  5
25B8
 10
45.2533
 20
37.0404
 30
0.00000
  70
    32
  0
VERTEX
  8
0
  5
25B9
 10
45.3861
 20
37.1413
 30
0.00000
  70
    32
  0
VERTEX
  8
0
  5
25BA
 10
45.5118
 20
37.2433
 30
0.00000
  70
    32
  0
VERTEX
  8
0
  5
25BB
 10
45.6303
 20
37.3463
 30
0.00000
  70
    32
  0
VERTEX
  8
0
  5
25BC
 10
45.7415
 20
37.4503
 30
0.00000
  70
    32
  0
VERTEX
  8
0
  5
25BD
 10
45.8453
 20
37.5553
 30
0.00000
  70
    32
  0
VERTEX
  8
0
  5
25BE
 10
45.9416
 20
37.6611
 30
0.00000
  70
    32
  0
VERTEX
  8
0
  5
25BF
 10
46.0305
 20
37.7676
 30
0.00000
  70
    32
  0
VERTEX
  8
0
  5
25C0
 10
46.1118
 20
37.8749
 30
0.00000
  70
    32
  0
VERTEX
  8
0
  5
25C1
 10
46.1855
 20
37.9829
 30
0.00000
  70
    32
  0
VERTEX
  8
0
  5
25C2
 10
46.2516
 20
38.0915
 30
0.00000
  70
    32
  0
VERTEX
  8
0
  5
25C3
 10
46.3100
 20
38.2006
 30
0.00000
  70
    32
  0
VERTEX
  8
0
  5
25C4
 10
46.3607
 20
38.3101
 30
0.00000
  70
    32
  0
VERTEX
  8
0
  5
25C5
 10
46.4036
 20
38.4201
 30
0.00000
  70
    32
  0
VERTEX
  8
0
  5
25C6
 10
46.4388
 20
38.5304
 30
0.00000
  70
    32
  0
VERTEX
  8
0
  5
25C7
 10
46.4662
 20
38.6409
 30
0.00000
  70
    32
  0
VERTEX
  8
0
  5
25C8
 10
46.4857
 20
38.7517
 30
0.00000
  70
    32
  0
VERTEX
  8
0
  5
25C9
 10
46.4975
 20
38.8626
 30
0.00000
  70
    32
  0
VERTEX
  8
0
  5
25CA
 10
46.5014
 20
38.9735
 30
0.00000
  70
    32
  0
SEQEND
  8
0
  5
25CB
  0
ARC
  5
56C
  8
0
  6
CONTINUOUS
 62
     3
 10
33.5014043904375285
 20
22.9998660717392411
 30
0.0
 40
17.3249999999999993
 50
138.6216368673775889
 51
149.972087730667397
  0
ARC
  5
56D
  8
0
  6
CONTINUOUS
 62
     3
 10
33.5014043904375285
 20
22.9998660717392411
 30
0.0
 40
17.3249999999999993
 50
30.0286445981752586
 51
41.3783631326223329
  0
ARC
  5
56E
  8
0
  6
CONTINUOUS
 62
     3
 10
33.5014043904375285
 20
22.9998660717392411
 30
0.0
 40
23.0
 50
130.7057068309545969
 51
49.2942917123257018
  0
ARC
  5
56F
  8
0
  6
CONTINUOUS
 62
     3
 10
38.5014043904375285
 20
196.1467278473427882
 30
0.0
 40
2.4999999998267408
 50
202.7990312720756094
 51
337.2009687279243053
  0
ARC
  5
570
  8
0
  6
CONTINUOUS
 62
     3
 10
38.5014043903793208
 20
280.1467278445488773
 30
0.0
 40
84.999999997214573
 50
261.2025892887534155
 51
278.7974107112465845
  0
ARC
  5
571
  8
0
  6
CONTINUOUS
 62
     3
 10
38.5014043906121515
 20
280.2498660723795183
 30
0.0
 40
77.2500000006403127
 50
254.8031619553796077
 51
285.1968380446203923
  0
ARC
  5
572
  8
0
  6
CONTINUOUS
 62
     3
 10
9.3596510685165413
 20
215.2320168815203942
 30
0.0
 40
5.0
 50
199.9349903278609872
 51
245.8575246240177989
  0
ARC
  5
573
  8
0
  6
CONTINUOUS
 62
     3
 10
38.5014043906121515
 20
280.2498660723795183
 30
0.0
 40
76.2500000006403127
 50
245.8575246240177989
 51
294.1424753759823147
  0
ARC
  5
574
  8
0
  6
CONTINUOUS
 62
     3
 10
67.6431577123585157
 20
215.2320168814040073
 30
0.0
 40
5.0
 50
294.1424753759823147
 51
340.0650096721390128
  0
ARC
  5
575
  8
0
  6
CONTINUOUS
 62
     3
 10
9.3596510685165413
 20
220.2320168815786019
 30
0.0
 40
5.0
 50
182.6025622006825984
 51
245.8575246240177989
  0
ARC
  5
576
  8
0
  6
CONTINUOUS
 62
     3
 10
38.5014043906121515
 20
285.2498660723795183
 30
0.0
 40
76.2500000006403127
 50
245.8575246240177989
 51
294.1424753759823147
  0
ARC
  5
577
  8
0
  6
CONTINUOUS
 62
     3
 10
67.6431577123585157
 20
220.2320168814040073
 30
0.0
 40
5.0
 50
294.1424753759823147
 51
357.3974377993175153
  0
LINE
  5
578
  8
0
  6
CONTINUOUS
 62
     3
 10
18.5014043904375285
 20
55.9998660717392269
 30
0.0
 11
20.5014043904375285
 21
55.9998660717392269
 31
0.0
  0
LINE
  5
579
  8
0
  6
CONTINUOUS
 62
     3
 10
48.5014043904375285
 20
55.9998660717392269
 30
0.0
 11
46.5014043904375214
 21
55.9998660717392269
 31
0.0
  0
LINE
  5
57A
  8
0
  6
CONTINUOUS
 62
     3
 10
48.5014043904375285
 20
31.6698660717229394
 30
0.0
 11
48.5014043904375285
 21
55.9998660717392269
 31
0.0
  0
LINE
  5
57B
  8
0
  6
CONTINUOUS
 62
     3
 10
18.5014043904375285
 20
31.6698660717229394
 30
0.0
 11
18.5014043904375285
 21
55.9998660717392269
 31
0.0
  0
LINE
  5
57C
  8
0
  6
CONTINUOUS
 62
     3
 10
46.5014043904375214
 20
34.4521857053041529
 30
0.0
 11
46.5014043904375214
 21
195.5240358551382087
 31
0.0
  0
LINE
  5
57D
  8
0
  6
CONTINUOUS
 62
     3
 10
20.5014043904375285
 20
34.4521857054787688
 30
0.0
 11
20.5014043904375285
 21
205.1262179974582978
 31
0.0
  0
LINE
  5
57E
  8
0
  6
CONTINUOUS
 62
     3
 10
20.5014043904375285
 20
38.9735320327454318
 30
0.0
 11
46.5014043904375214
 21
38.9735320327454318
 31
0.0
  0
LINE
  5
57F
  8
0
  6
CONTINUOUS
 62
     3
 10
1.5014043905539429
 20
282.9998660717392909
 30
0.0
 11
0.0014043906121515
 21
282.9998660717392909
 31
0.0
  0
LINE
  5
580
  8
0
  6
CONTINUOUS
 62
     3
 10
1.7286771176732141
 20
277.9998660716810264
 30
0.0
 11
0.0014043904375285
 21
277.9998660716228187
 31
0.0
  0
LINE
  5
581
  8
0
  6
CONTINUOUS
 62
     3
 10
0.0014043905539438
 20
277.9998660717391772
 30
0.0
 11
0.0014043906121515
 21
282.9998660717392909
 31
0.0
  0
LINE
  5
582
  8
0
  6
CONTINUOUS
 62
     3
 10
75.2741316632018425
 20
277.9998660717391772
 30
0.0
 11
77.0014043902629055
 21
277.9998660717391772
 31
0.0
  0
LINE
  5
583
  8
0
  6
CONTINUOUS
 62
     3
 10
75.5014043904375285
 20
282.9998660717392909
 30
0.0
 11
77.0014043903211132
 21
282.9998660717392909
 31
0.0
  0
LINE
  5
584
  8
0
  6
CONTINUOUS
 62
     3
 10
77.0014043902629055
 20
277.9998660717391772
 30
0.0
 11
77.0014043903211132
 21
282.9998660717392909
 31
0.0
  0
LINE
  5
585
  8
0
  6
CONTINUOUS
 62
     3
 10
25.5014043902047014
 20
196.1467278474009959
 30
0.0
 11
25.5014043903793208
 21
204.1015732478117002
 31
0.0
  0
LINE
  5
586
  8
0
  6
CONTINUOUS
 62
     3
 10
51.5014043904375214
 20
196.1467278473427882
 30
0.0
 11
51.501404390495729
 21
204.1015732477534925
 31
0.0
  0
LINE
  5
587
  8
0
  6
CONTINUOUS
 62
     3
 10
58.7514043904375285
 20
205.7012242329655862
 30
0.0
 11
58.7514043904375285
 21
206.7379622737061879
 31
0.0
  0
LINE
  5
588
  8
0
  6
CONTINUOUS
 62
     3
 10
18.2514043904375285
 20
205.7012242330237939
 30
0.0
 11
18.2514043904375285
 21
206.7379622738226033
 31
0.0
  0
LINE
  5
589
  8
0
  6
CONTINUOUS
 62
     3
 10
75.5014043904375285
 20
282.9998660717392909
 30
0.0
 11
72.3435581278754398
 21
213.5272482947912067
 31
0.0
  0
LINE
  5
58A
  8
0
  6
CONTINUOUS
 62
     3
 10
1.501404390437528
 20
282.9998660717392909
 30
0.0
 11
4.6592506529996172
 21
213.5272482949658013
 31
0.0
  0
LINE
  5
58B
  8
0
  6
CONTINUOUS
 62
     3
 10
73.5014043904375285
 20
286.9998660717391772
 30
0.0
 11
73.5014043904375285
 21
288.9998660717391772
 31
0.0
  0
LINE
  5
58C
  8
0
  6
CONTINUOUS
 62
     3
 10
1.501404390437528
 20
282.9998660717392909
 30
0.0
 11
1.501404390437528
 21
284.741866071766708
 31
0.0
  0
LINE
  5
58D
  8
0
  6
CONTINUOUS
 62
     3
 10
75.5014043904375285
 20
286.9998660717391772
 30
0.0
 11
52.5014043904375285
 21
286.9998660717973848
 31
0.0
  0
LINE
  5
58E
  8
0
  6
CONTINUOUS
 62
     3
 10
75.5014043904375285
 20
282.9998660717392909
 30
0.0
 11
75.5014043904375285
 21
286.9998660717391772
 31
0.0
  0
ENDBLK
  5
58F
  8
0
 62
     4
  0
BLOCK
  8
0
 62
     7
  2
A$C76071F4B
 70
     0
 10
0.0
 20
0.0
 30
0.0
  3
A$C76071F4B
  1

  0
LINE
  5
594
  8
0
  6
HIDDEN2
 62
     4
 10
71.000011077059753
 20
64.999993486871972
 30
0.0
 11
71.000011077059753
 21
43.999993486871972
 31
0.0
  0
LINE
  5
595
  8
0
  6
HIDDEN2
 62
     4
 10
41.500011077059753
 20
72.499993486871972
 30
0.0
 11
54.5000110770597601
 21
72.499993486871972
 31
0.0
  0
LINE
  5
596
  8
0
  6
HIDDEN2
 62
     4
 10
54.5000110770597601
 20
36.499993486871972
 30
0.0
 11
41.500011077059753
 21
36.499993486871972
 31
0.0
  0
LINE
  5
597
  8
0
  6
HIDDEN2
 62
     4
 10
54.5000110770597601
 20
36.499993486871972
 30
0.0
 11
54.5000110770597601
 21
72.499993486871972
 31
0.0
  0
LINE
  5
598
  8
0
  6
HIDDEN2
 62
     4
 10
41.500011077059753
 20
36.499993486871972
 30
0.0
 11
41.500011077059753
 21
72.499993486871972
 31
0.0
  0
LINE
  5
599
  8
0
  6
HIDDEN2
 62
     4
 10
71.000011077059753
 20
63.7999934868712515
 30
0.0
 11
54.5000110770597601
 21
63.7999934868712515
 31
0.0
  0
LINE
  5
59A
  8
0
  6
HIDDEN2
 62
     4
 10
71.000011077059753
 20
64.999993486871972
 30
0.0
 11
54.5000110770597601
 21
64.999993486871972
 31
0.0
  0
LINE
  5
59B
  8
0
  6
HIDDEN2
 62
     4
 10
71.000011077059753
 20
45.1999934868708806
 30
0.0
 11
54.5000110770597601
 21
45.1999934868708806
 31
0.0
  0
LINE
  5
59C
  8
0
  6
HIDDEN2
 62
     4
 10
71.000011077059753
 20
43.999993486871972
 30
0.0
 11
54.5000110770602078
 21
43.999993486871972
 31
0.0
  0
LINE
  5
59D
  8
0
  6
HIDDEN2
 62
     4
 10
32.0000110770597601
 20
37.999993486871972
 30
0.0
 11
41.500011077059753
 21
37.999993486871972
 31
0.0
  0
LINE
  5
59E
  8
0
  6
HIDDEN2
 62
     4
 10
6.000011077059753
 20
42.7846189730116677
 30
0.0
 11
6.000011077059753
 21
34.999993486871972
 31
0.0
  0
LINE
  5
59F
  8
0
  6
HIDDEN2
 62
     4
 10
32.0000110770597601
 20
42.7846189730116677
 30
0.0
 11
32.0000110770597601
 21
34.999993486871972
 31
0.0
  0
LINE
  5
5A0
  8
0
  6
HIDDEN2
 62
     4
 10
32.500011077059753
 20
54.499993486871972
 30
0.0
 11
32.500011077059753
 21
73.999993486871972
 31
0.0
  0
LINE
  5
5A1
  8
0
  6
HIDDEN2
 62
     4
 10
29.5000110770597601
 20
73.999993486871972
 30
0.0
 11
29.5000110770597601
 21
93.999993486871972
 31
0.0
  0
LINE
  5
5A2
  8
0
  6
HIDDEN2
 62
     4
 10
28.3000110770599385
 20
73.999993486871972
 30
0.0
 11
28.3000110770599385
 21
93.999993486871972
 31
0.0
  0
LINE
  5
5A3
  8
0
  6
HIDDEN2
 62
     4
 10
5.500011077059753
 20
73.999993486871972
 30
0.0
 11
32.500011077059753
 21
73.999993486871972
 31
0.0
  0
LINE
  5
5A4
  8
0
  6
HIDDEN2
 62
     4
 10
5.500011077059753
 20
73.999993486871972
 30
0.0
 11
5.500011077059753
 21
54.499993486871972
 31
0.0
  0
LINE
  5
5A5
  8
0
  6
HIDDEN2
 62
     4
 10
8.500011077059753
 20
93.999993486871972
 30
0.0
 11
29.5000110770597601
 21
93.999993486871972
 31
0.0
  0
LINE
  5
5A6
  8
0
  6
HIDDEN2
 62
     4
 10
8.500011077059753
 20
93.999993486871972
 30
0.0
 11
8.500011077059753
 21
73.999993486871972
 31
0.0
  0
LINE
  5
5A7
  8
0
  6
HIDDEN2
 62
     4
 10
9.7000110770600259
 20
93.999993486871972
 30
0.0
 11
9.7000110770600259
 21
73.999993486871972
 31
0.0
  0
LINE
  5
5A8
  8
0
  6
HIDDEN2
 62
     4
 10
32.500011077059753
 20
70.999993486871972
 30
0.0
 11
41.500011077059753
 21
70.999993486871972
 31
0.0
  0
LINE
  5
5A9
  8
0
  6
HIDDEN2
 62
     4
 10
29.4550110770601385
 20
15.9999934868719702
 30
0.0
 11
28.4550110770601314
 21
14.9999934868719702
 31
0.0
  0
LINE
  5
5AA
  8
0
  6
HIDDEN2
 62
     4
 10
28.4550110770601314
 20
14.9999934868719702
 30
0.0
 11
9.5000110770602078
 21
14.9999934868719702
 31
0.0
  0
LINE
  5
5AB
  8
0
  6
HIDDEN2
 62
     4
 10
9.5000110770602078
 20
14.9999934868719702
 30
0.0
 11
8.5000110770602078
 21
15.9999934868719702
 31
0.0
  0
LINE
  5
5AC
  8
0
  6
HIDDEN2
 62
     4
 10
32.4775110770597166
 20
34.999993486871972
 30
0.0
 11
5.4775110770597157
 21
34.999993486871972
 31
0.0
  0
LINE
  5
5AD
  8
0
  6
HIDDEN2
 62
     4
 10
3.000011077059753
 20
31.9999934868719684
 30
0.0
 11
3.000011077059753
 21
32.999993486871972
 31
0.0
  0
LINE
  5
5AE
  8
0
  6
HIDDEN2
 62
     4
 10
35.000011077059753
 20
31.9999934868719684
 30
0.0
 11
35.000011077059753
 21
32.999993486871972
 31
0.0
  0
LINE
  5
5AF
  8
0
  6
HIDDEN2
 62
     4
 10
29.4550110770596802
 20
26.9999934868719684
 30
0.0
 11
29.4550110770601385
 21
15.9999934868719702
 31
0.0
  0
LINE
  5
5B0
  8
0
  6
HIDDEN2
 62
     4
 10
28.2930110770603314
 20
26.9999934868719684
 30
0.0
 11
28.2930110770603314
 21
14.9999934868719702
 31
0.0
  0
LINE
  5
5B1
  8
0
  6
HIDDEN2
 62
     4
 10
9.6620110770600132
 20
26.9999934868719684
 30
0.0
 11
9.6620110770600132
 21
14.9999934868719702
 31
0.0
  0
LINE
  5
5B2
  8
0
  6
HIDDEN2
 62
     4
 10
8.5000110770602078
 20
26.9999934868719684
 30
0.0
 11
8.5000110770602078
 21
15.9999934868719702
 31
0.0
  0
LINE
  5
5B3
  8
0
  6
HIDDEN2
 62
     4
 10
7.000011077059753
 20
31.9999934868719684
 30
0.0
 11
7.000011077059753
 21
26.9999934868719684
 31
0.0
  0
LINE
  5
5B4
  8
0
  6
HIDDEN2
 62
     4
 10
31.0000110770597495
 20
31.9999934868719684
 30
0.0
 11
31.0000110770597495
 21
26.9999934868719684
 31
0.0
  0
LINE
  5
5B5
  8
0
  6
HIDDEN2
 62
     4
 10
7.000011077059753
 20
26.9999934868719684
 30
0.0
 11
31.0000110770597495
 21
26.9999934868719684
 31
0.0
  0
LINE
  5
5B6
  8
0
  6
HIDDEN2
 62
     4
 10
3.000011077059753
 20
31.9999934868719684
 30
0.0
 11
35.000011077059753
 21
31.9999934868719684
 31
0.0
  0
LINE
  5
5B7
  8
0
  6
HIDDEN2
 62
     4
 10
0.000011077059753
 20
32.999993486871972
 30
0.0
 11
0.000011077059753
 21
34.999993486871972
 31
0.0
  0
LINE
  5
5B8
  8
0
  6
HIDDEN2
 62
     4
 10
0.000011077059753
 20
32.999993486871972
 30
0.0
 11
38.0000110770597601
 21
32.999993486871972
 31
0.0
  0
LINE
  5
5B9
  8
0
  6
HIDDEN2
 62
     4
 10
72.000011077059753
 20
-0.000006513128028
 30
0.0
 11
74.000011077059753
 21
-0.000006513128028
 31
0.0
  0
LINE
  5
5BA
  8
0
  6
HIDDEN2
 62
     4
 10
74.000011077059753
 20
-0.000006513128028
 30
0.0
 11
74.000011077059753
 21
34.999993486871972
 31
0.0
  0
LINE
  5
5BB
  8
0
  6
HIDDEN2
 62
     4
 10
0.000011077059753
 20
34.999993486871972
 30
0.0
 11
74.000011077059753
 21
34.999993486871972
 31
0.0
  0
LINE
  5
5BC
  8
0
  6
HIDDEN2
 62
     4
 10
72.000011077059753
 20
-0.000006513128028
 30
0.0
 11
72.000011077059753
 21
32.999993486871972
 31
0.0
  0
LINE
  5
5BD
  8
0
  6
HIDDEN2
 62
     4
 10
72.000011077059753
 20
32.999993486871972
 30
0.0
 11
0.000011077059753
 21
32.999993486871972
 31
0.0
  0
LINE
  5
5BE
  8
0
  6
HIDDEN2
 62
     4
 10
72.000011077059753
 20
29.9999934868719684
 30
0.0
 11
74.000011077059753
 21
29.9999934868719684
 31
0.0
  0
ARC
  5
5BF
  8
0
  6
HIDDEN2
 62
     4
 10
19.0000110770597495
 20
54.499993486871972
 30
0.0
 40
13.4999999999999805
 50
180.0
 51
0.0
  0
ARC
  5
5C0
  8
0
  6
HIDDEN2
 62
     4
 10
19.0000110770597495
 20
54.499993486871972
 30
0.0
 40
18.0
 50
316.2382573073621188
 51
41.4096221092795105
  0
ARC
  5
5C1
  8
0
  6
HIDDEN2
 62
     4
 10
19.0000110770597495
 20
54.499993486871972
 30
0.0
 40
18.0
 50
138.5903778907205037
 51
223.7617426926379096
  0
ARC
  5
5C2
  8
0
  6
HIDDEN2
 62
     4
 10
19.0000110770597495
 20
54.499993486871972
 30
0.0
 40
17.5
 50
317.9753724206765924
 51
39.5176527971798421
  0
ARC
  5
5C3
  8
0
  6
HIDDEN2
 62
     4
 10
19.0000110770597495
 20
54.499993486871972
 30
0.0
 40
17.5
 50
140.4823472028201081
 51
222.0246275793234076
  0
ENDBLK
  5
5C4
  8
0
 62
     7
  0
BLOCK
  8
0
 62
     7
  2
A$C6BE53629
 70
     0
 10
0.0
 20
0.0
 30
0.0
  3
A$C6BE53629
  1

  0
INSERT
  5
5C9
  8
0
 62
     4
  2
A$C76071F4B
 10
-0.0000551117518626
 20
181.0000232136663101
 30
0.0
  0
LINE
  5
5CA
  8
0
  6
HIDDEN2
 62
     4
 10
73.9999559653078904
 20
216.0000167005381968
 30
0.0
 11
73.9999559653078904
 21
0.0000159445262398
 31
0.0
  0
LINE
  5
5CB
  8
0
  6
HIDDEN2
 62
     4
 10
103.9999559653079046
 20
216.0000167005381968
 30
0.0
 11
103.9999559653079046
 21
0.000015992549379
 31
0.0
  0
LINE
  5
5CC
  8
0
 62
     4
 10
73.9999559653078904
 20
216.0000167005381968
 30
0.0
 11
103.9999559653079046
 21
216.0000167005381968
 31
0.0
  0
ENDBLK
  5
5CD
  8
0
 62
     7
  0
BLOCK
  8
0
 62
     4
  2
A$C18BD6BBE
 70
     0
 10
0.0
 20
0.0
 30
0.0
  3
A$C18BD6BBE
  1

  0
LINE
  5
5D2
  8
0
  6
HIDDEN2
 62
     4
 10
69.1122490365523845
 20
125.9997579479823031
 30
0.0
 11
69.1122490605921485
 21
155.9997579479822889
 31
0.0
  0
LINE
  5
5D3
  8
0
  6
HIDDEN2
 62
     4
 10
69.1122490365523845
 20
125.9997579479823031
 30
0.0
 11
139.1122490585840126
 21
125.9997579479823031
 31
0.0
  0
LINE
  5
5D4
  8
0
  6
HIDDEN2
 62
     4
 10
69.1122490605921485
 20
155.9997579479822889
 30
0.0
 11
139.1122490858251979
 21
155.9997579479822889
 31
0.0
  0
LINE
  5
5D5
  8
0
  6
HIDDEN2
 62
     4
 10
114.5672490722208039
 20
141.9997579479822889
 30
0.0
 11
113.5672490722209034
 21
140.9997579479822889
 31
0.0
  0
LINE
  5
5D6
  8
0
  6
HIDDEN2
 62
     4
 10
113.5672490722209034
 20
140.9997579479822889
 30
0.0
 11
94.6122490722045768
 21
140.9997579479822889
 31
0.0
  0
LINE
  5
5D7
  8
0
  6
HIDDEN2
 62
     4
 10
94.6122490722045768
 20
140.9997579479822889
 30
0.0
 11
93.6122490722045768
 21
141.9997579479822889
 31
0.0
  0
LINE
  5
5D8
  8
0
  6
HIDDEN2
 62
     4
 10
118.6122490722046052
 20
218.9997579479822889
 30
0.0
 11
119.6122490722046052
 21
219.9997579479822889
 31
0.0
  0
LINE
  5
5D9
  8
0
  6
HIDDEN2
 62
     4
 10
119.6122490722046052
 20
219.9997579479822889
 30
0.0
 11
138.5672490722209034
 21
219.9997579479822889
 31
0.0
  0
LINE
  5
5DA
  8
0
  6
HIDDEN2
 62
     4
 10
138.5672490722209034
 20
219.9997579479822889
 30
0.0
 11
139.5672490722207897
 21
218.9997579479822889
 31
0.0
  0
LINE
  5
5DB
  8
0
  6
HIDDEN2
 62
     4
 10
118.6122490722046052
 20
218.9997579479822889
 30
0.0
 11
118.6122490722046052
 21
199.9997579479822889
 31
0.0
  0
LINE
  5
5DC
  8
0
  6
HIDDEN2
 62
     4
 10
119.7742490722156958
 20
219.9997579479822889
 30
0.0
 11
119.7742490722156958
 21
199.9997579479822889
 31
0.0
  0
LINE
  5
5DD
  8
0
  6
HIDDEN2
 62
     4
 10
138.4052490722096991
 20
219.9997579479822889
 30
0.0
 11
138.4052490722096991
 21
199.9997579479822889
 31
0.0
  0
LINE
  5
5DE
  8
0
  6
HIDDEN2
 62
     4
 10
139.5672490722207897
 20
218.9997579479822889
 30
0.0
 11
139.5672490722207897
 21
199.9997579479822889
 31
0.0
  0
LINE
  5
5DF
  8
0
  6
HIDDEN2
 62
     4
 10
142.5897490722126975
 20
198.9997579479822889
 30
0.0
 11
141.5897490722126975
 21
199.9997579479822889
 31
0.0
  0
LINE
  5
5E0
  8
0
  6
HIDDEN2
 62
     4
 10
116.5897490722126975
 20
199.9997579479822889
 30
0.0
 11
141.5897490722126975
 21
199.9997579479822889
 31
0.0
  0
LINE
  5
5E1
  8
0
  6
HIDDEN2
 62
     4
 10
115.5897490722126975
 20
198.9997579479822889
 30
0.0
 11
116.5897490722126975
 21
199.9997579479822889
 31
0.0
  0
LINE
  5
5E2
  8
0
  6
HIDDEN2
 62
     4
 10
90.5897490722127259
 20
161.9997579479822889
 30
0.0
 11
90.5897490722127259
 21
160.9997579479822889
 31
0.0
  0
LINE
  5
5E3
  8
0
  6
HIDDEN2
 62
     4
 10
117.5897490722126975
 20
161.9997579479822889
 30
0.0
 11
117.5897490722126975
 21
160.9997579479822889
 31
0.0
  0
LINE
  5
5E4
  8
0
  6
HIDDEN2
 62
     4
 10
142.5897490722126975
 20
198.4997579479822889
 30
0.0
 11
142.5897490722126975
 21
198.9997579479822889
 31
0.0
  0
LINE
  5
5E5
  8
0
  6
HIDDEN2
 62
     4
 10
143.0897490722126975
 20
187.9997579479822889
 30
0.0
 11
143.0897490722126975
 21
197.9997579479822889
 31
0.0
  0
LINE
  5
5E6
  8
0
  6
HIDDEN2
 62
     4
 10
124.5897490722126975
 20
166.9997579479822889
 30
0.0
 11
124.5897490722126975
 21
168.0560872728237882
 31
0.0
  0
LINE
  5
5E7
  8
0
  6
HIDDEN2
 62
     4
 10
119.0897490722126975
 20
164.9997579479822889
 30
0.0
 11
122.5897490722126975
 21
164.9997579479822889
 31
0.0
  0
LINE
  5
5E8
  8
0
  6
HIDDEN2
 62
     4
 10
118.5897490722126975
 20
164.4997579479822889
 30
0.0
 11
118.5897490722126975
 21
162.9997579479822889
 31
0.0
  0
LINE
  5
5E9
  8
0
  6
HIDDEN2
 62
     4
 10
42.0897490722127188
 20
162.9997579479822889
 30
0.0
 11
42.0897490722127188
 21
197.9997579479822889
 31
0.0
  0
LINE
  5
5EA
  8
0
  6
HIDDEN2
 62
     4
 10
54.0897490722127188
 20
162.9997579479822889
 30
0.0
 11
54.0897490722127188
 21
197.9997579479822889
 31
0.0
  0
LINE
  5
5EB
  8
0
  6
HIDDEN2
 62
     4
 10
61.089749072212733
 20
162.9997579479822889
 30
0.0
 11
61.089749072212733
 21
197.9997579479822889
 31
0.0
  0
LINE
  5
5EC
  8
0
  6
HIDDEN2
 62
     4
 10
39.089749072212733
 20
162.9997579479822889
 30
0.0
 11
118.5897490722126975
 21
162.9997579479822889
 31
0.0
  0
LINE
  5
5ED
  8
0
  6
HIDDEN2
 62
     4
 10
37.089749072212733
 20
165.9997579479822889
 30
0.0
 11
2.3051393813802861
 21
165.9997579479822889
 31
0.0
  0
LINE
  5
5EE
  8
0
  6
HIDDEN2
 62
     4
 10
13.1814945031073893
 20
197.9997579479822889
 30
0.0
 11
143.0897490722126975
 21
197.9997579479822889
 31
0.0
  0
LINE
  5
5EF
  8
0
  6
HIDDEN2
 62
     4
 10
10.2837170242564699
 20
195.7762150833150088
 30
0.0
 11
0.1016477118537296
 21
157.7762150833150088
 31
0.0
  0
LINE
  5
5F0
  8
0
  6
HIDDEN2
 62
     4
 10
39.089749072212733
 20
156.9997579479822889
 30
0.0
 11
39.089749072212733
 21
163.9997579479822889
 31
0.0
  0
LINE
  5
5F1
  8
0
  6
HIDDEN2
 62
     4
 10
36.089749072212733
 20
153.9997579479822889
 30
0.0
 11
2.9994251907337448
 21
153.9997579479822889
 31
0.0
  0
LINE
  5
5F2
  8
0
  6
HIDDEN2
 62
     4
 10
88.1122490722045768
 20
157.9997579479822889
 30
0.0
 11
88.1122490722045768
 21
158.9997579479822889
 31
0.0
  0
LINE
  5
5F3
  8
0
  6
HIDDEN2
 62
     4
 10
120.1122490722045058
 20
157.9997579479822889
 30
0.0
 11
120.1122490722045058
 21
158.9997579479822889
 31
0.0
  0
LINE
  5
5F4
  8
0
  6
HIDDEN2
 62
     4
 10
114.5672490722208039
 20
152.9997579479822889
 30
0.0
 11
114.5672490722208039
 21
141.9997579479822889
 31
0.0
  0
LINE
  5
5F5
  8
0
  6
HIDDEN2
 62
     4
 10
113.4052490722096991
 20
152.9997579479822889
 30
0.0
 11
113.4052490722096991
 21
140.9997579479822889
 31
0.0
  0
LINE
  5
5F6
  8
0
  6
HIDDEN2
 62
     4
 10
94.7742490722157527
 20
152.9997579479822889
 30
0.0
 11
94.7742490722157527
 21
140.9997579479822889
 31
0.0
  0
LINE
  5
5F7
  8
0
  6
HIDDEN2
 62
     4
 10
93.6122490722045768
 20
152.9997579479822889
 30
0.0
 11
93.6122490722045768
 21
141.9997579479822889
 31
0.0
  0
LINE
  5
5F8
  8
0
  6
HIDDEN2
 62
     4
 10
92.1122490722045768
 20
157.9997579479822889
 30
0.0
 11
92.1122490722045768
 21
152.9997579479822889
 31
0.0
  0
LINE
  5
5F9
  8
0
  6
HIDDEN2
 62
     4
 10
116.1122490722046052
 20
157.9997579479822889
 30
0.0
 11
116.1122490722046052
 21
152.9997579479822889
 31
0.0
  0
LINE
  5
5FA
  8
0
  6
HIDDEN2
 62
     4
 10
92.1122490722045768
 20
152.9997579479822889
 30
0.0
 11
116.1122490722046052
 21
152.9997579479822889
 31
0.0
  0
LINE
  5
5FB
  8
0
  6
HIDDEN2
 62
     4
 10
88.1122490722045768
 20
157.9997579479822889
 30
0.0
 11
120.1122490722045058
 21
157.9997579479822889
 31
0.0
  0
LINE
  5
5FC
  8
0
  6
HIDDEN2
 62
     4
 10
85.1122490722045768
 20
155.9997579479822889
 30
0.0
 11
85.1122490722045768
 21
160.9997579479822889
 31
0.0
  0
LINE
  5
5FD
  8
0
  6
HIDDEN2
 62
     4
 10
123.1122490722045058
 20
155.9997579479822889
 30
0.0
 11
123.1122490722045058
 21
160.9997579479822889
 31
0.0
  0
LINE
  5
5FE
  8
0
  6
HIDDEN2
 62
     4
 10
69.1122490722045768
 20
127.9997579479823031
 30
0.0
 11
69.1122490722045768
 21
153.9997579479822889
 31
0.0
  0
LINE
  5
5FF
  8
0
  6
HIDDEN2
 62
     4
 10
139.1122490722046052
 20
153.9997579479822889
 30
0.0
 11
139.1122490722046052
 21
127.9997579479823031
 31
0.0
  0
LINE
  5
600
  8
0
  6
HIDDEN2
 62
     4
 10
85.1122490722045768
 20
160.9997579479822889
 30
0.0
 11
123.1122490722045058
 21
160.9997579479822889
 31
0.0
  0
LINE
  5
601
  8
0
  6
HIDDEN2
 62
     4
 10
85.1122490722045768
 20
158.9997579479822889
 30
0.0
 11
123.1122490722045058
 21
158.9997579479822889
 31
0.0
  0
LINE
  5
602
  8
0
  6
HIDDEN2
 62
     4
 10
139.1122489441185905
 20
-0.0000140519696288
 30
0.0
 11
139.1122490858251979
 21
155.9997579479822889
 31
0.0
  0
LINE
  5
603
  8
0
  6
HIDDEN2
 62
     4
 10
109.1122489441476944
 20
-0.0000140519696288
 30
0.0
 11
109.1122490585839984
 21
125.9997579479823031
 31
0.0
  0
CIRCLE
  5
604
  8
0
  6
HIDDEN2
 62
     4
 10
130.6122490722046052
 20
140.9997579479822889
 30
0.0
 40
1.649999999999999
  0
CIRCLE
  5
605
  8
0
  6
HIDDEN2
 62
     4
 10
77.6122490485722665
 20
140.9997579479822889
 30
0.0
 40
1.649999999999999
  0
CIRCLE
  5
606
  8
0
  6
HIDDEN2
 62
     4
 10
77.6122490722045768
 20
140.9997579479822889
 30
0.0
 40
2.25
  0
CIRCLE
  5
607
  8
0
  6
HIDDEN2
 62
     4
 10
130.6122490722046052
 20
140.9997579479822889
 30
0.0
 40
2.25
  0
ARC
  5
608
  8
0
  6
HIDDEN2
 62
     4
 10
114.5897490722126975
 20
198.9997579479822889
 30
0.0
 40
1.0
 50
270.0
 51
0.0
  0
ARC
  5
609
  8
0
  6
HIDDEN2
 62
     4
 10
118.5897490722126975
 20
161.9997579479822889
 30
0.0
 40
1.0
 50
90.0
 51
180.0
  0
ARC
  5
60A
  8
0
  6
HIDDEN2
 62
     4
 10
89.5897490722127259
 20
161.9997579479822889
 30
0.0
 40
1.0
 50
0.0
 51
90.0
  0
ARC
  5
60B
  8
0
  6
HIDDEN2
 62
     4
 10
143.0897490722126975
 20
198.4997579479822889
 30
0.0
 40
0.5
 50
180.0
 51
270.0
  0
ARC
  5
60C
  8
0
  6
HIDDEN2
 62
     4
 10
123.0897490722126975
 20
187.9997579479822889
 30
0.0
 40
20.0
 50
274.3012223054399215
 51
0.0
  0
ARC
  5
60D
  8
0
  6
HIDDEN2
 62
     4
 10
122.5897490722126975
 20
166.9997579479822889
 30
0.0
 40
2.0
 50
270.0
 51
0.0
  0
ARC
  5
60E
  8
0
  6
HIDDEN2
 62
     4
 10
119.0897490722126975
 20
164.4997579479822889
 30
0.0
 40
0.5
 50
90.0
 51
180.0
  0
ARC
  5
60F
  8
0
  6
HIDDEN2
 62
     4
 10
37.089749072212733
 20
163.9997579479822889
 30
0.0
 40
2.0
 50
0.0
 51
90.0
  0
ARC
  5
610
  8
0
  6
HIDDEN2
 62
     4
 10
2.9994251907337448
 20
156.9997579479822889
 30
0.0
 40
3.0
 50
165.000000000528587
 51
270.0
  0
ARC
  5
611
  8
0
  6
HIDDEN2
 62
     4
 10
13.1814945031073893
 20
194.9997579479822889
 30
0.0
 40
3.0
 50
90.0
 51
165.000000000528587
  0
ARC
  5
612
  8
0
  6
HIDDEN2
 62
     4
 10
36.089749072212733
 20
156.9997579479822889
 30
0.0
 40
3.0
 50
270.0
 51
0.0
  0
ARC
  5
613
  8
0
  6
HIDDEN2
 62
     4
 10
87.0897490722127259
 20
180.4997579479822889
 30
0.0
 40
18.0
 50
76.463797262241755
 51
103.5362027377582024
  0
ARC
  5
614
  8
0
  6
HIDDEN2
 62
     4
 10
87.0897490722127259
 20
180.4997579479822889
 30
0.0
 40
18.0
 50
256.4637972622417124
 51
280.0217399539417897
  0
ARC
  5
615
  8
0
  6
HIDDEN2
 62
     4
 10
71.1122490722045768
 20
153.9997579479822889
 30
0.0
 40
2.0
 50
90.0
 51
180.0
  0
ARC
  5
616
  8
0
  6
HIDDEN2
 62
     4
 10
71.1122490722045768
 20
127.9997579479823031
 30
0.0
 40
2.0
 50
180.0
 51
270.0
  0
ARC
  5
617
  8
0
  6
HIDDEN2
 62
     4
 10
137.1122490722046052
 20
127.9997579479823031
 30
0.0
 40
2.0
 50
270.0
 51
0.0
  0
ARC
  5
618
  8
0
  6
HIDDEN2
 62
     4
 10
137.1122490722046052
 20
153.9997579479822889
 30
0.0
 40
2.0
 50
0.0
 51
90.0
  0
ENDBLK
  5
619
  8
0
 62
     4
  0
BLOCK
  8
0
 62
     7
  2
*D86
 70
     1
 10
0.0
 20
0.0
 30
0.0
  3
*D86
  1

  0
LINE
  5
1F0A
  8
0
 62
     2
 10
4304.0246512387529947
 20
2157.5524133098078892
 30
0.0
 11
4304.0246512387529947
 21
2157.5524203627142015
 31
0.0
  0
LINE
  5
1F0B
  8
0
 62
     2
 10
4069.0246249168990289
 20
2342.2528020206950714
 30
0.0
 11
4069.0246249168990289
 21
2117.5524203627142015
 31
0.0
  0
LINE
  5
1F0C
  8
0
 62
     2
 10
4264.0246512387520852
 20
2137.5524203627142015
 30
0.0
 11
4109.0246249169003931
 21
2137.5524203627142015
 31
0.0
  0
INSERT
  5
1F0D
  8
0
 62
     2
  2
YA
 10
4304.0246512387529947
 20
2137.5524203627142015
 30
0.0
 41
40.0
 42
40.0
 43
40.0
  0
INSERT
  5
1F0E
  8
0
 62
     2
  2
YA
 10
4069.0246249168990289
 20
2137.5524203627142015
 30
0.0
 41
40.0
 42
40.0
 43
40.0
 50
180.0
  0
INSERT
  5
1F0F
  8
0
 62
     7
  2
*U143
 10
0.0
 20
0.0
 30
0.0
  0
POINT
  5
1F10
  8
DEFPOINTS
 62
     0
 10
4304.0246512387529947
 20
2137.5524133098078892
 30
0.0
  0
POINT
  5
1F11
  8
DEFPOINTS
 62
     0
 10
4069.0246249168990289
 20
2362.2528020206959809
 30
0.0
  0
POINT
  5
1F12
  8
DEFPOINTS
 62
     0
 10
4069.0246249168990289
 20
2137.5524203627142015
 30
0.0
  0
ENDBLK
  5
19AB
  8
0
 62
     7
  0
BLOCK
  8
0
 62
     7
  2
*D87
 70
     1
 10
0.0
 20
0.0
 30
0.0
  3
*D87
  1

  0
LINE
  5
1F01
  8
0
  6
CONTINUOUS
 62
     2
 10
1365.7404741005739197
 20
1315.2527918371490614
 30
0.0
 11
989.1907566304437296
 21
1315.2527918371490614
 31
0.0
  0
LINE
  5
1F02
  8
0
  6
CONTINUOUS
 62
     2
 10
1029.1907566295119523
 20
1115.2527918371490614
 30
0.0
 11
1029.190756630443957
 21
1115.2527918371490614
 31
0.0
  0
LINE
  5
1F03
  8
0
  6
CONTINUOUS
 62
     2
 10
1009.190756630443957
 20
1275.2527918371490614
 30
0.0
 11
1009.190756630443957
 21
1155.2527918371490614
 31
0.0
  0
INSERT
  5
1F04
  8
0
  6
CONTINUOUS
 62
     2
  2
YA
 10
1009.190756630443957
 20
1315.2527918371490614
 30
0.0
 41
40.0
 42
40.0
 43
40.0
 50
90.0
  0
INSERT
  5
1F05
  8
0
  6
CONTINUOUS
 62
     2
  2
YA
 10
1009.190756630443957
 20
1115.2527918371490614
 30
0.0
 41
40.0
 42
40.0
 43
40.0
 50
270.0
  0
INSERT
  5
1F06
  8
0
 62
     7
  2
*U142
 10
0.0
 20
0.0
 30
0.0
  0
POINT
  5
1F07
  8
DEFPOINTS
  6
CONTINUOUS
 62
     0
 10
1385.7404741005739197
 20
1315.2527918371490614
 30
0.0
  0
POINT
  5
1F08
  8
DEFPOINTS
  6
CONTINUOUS
 62
     0
 10
1009.1907566295129755
 20
1115.2527918371490614
 30
0.0
  0
POINT
  5
1F09
  8
DEFPOINTS
  6
CONTINUOUS
 62
     0
 10
1009.190756630443957
 20
1115.2527918371490614
 30
0.0
  0
ENDBLK
  5
19B7
  8
0
 62
     7
  0
BLOCK
  8
0
 62
     7
  2
*D88
 70
     1
 10
0.0
 20
0.0
 30
0.0
  3
*D88
  1

  0
LINE
  5
1EC1
  8
0
  6
CONTINUOUS
 62
     2
 10
1325.7404741005739197
 20
1095.2527918371490614
 30
0.0
 11
1325.7404741005739197
 21
591.2906807650578003
 31
0.0
  0
LINE
  5
1EC2
  8
0
  6
CONTINUOUS
 62
     2
 10
1975.7404741005739197
 20
1095.2527918371490614
 30
0.0
 11
1975.7404741005739197
 21
591.2906807650578003
 31
0.0
  0
LINE
  5
1EC3
  8
0
  6
CONTINUOUS
 62
     2
 10
1365.7404741005739197
 20
611.290680765057914
 30
0.0
 11
1935.7404741005739197
 21
611.290680765057914
 31
0.0
  0
INSERT
  5
1EC4
  8
0
  6
CONTINUOUS
 62
     2
  2
YA
 10
1325.7404741005739197
 20
611.290680765057914
 30
0.0
 41
40.0
 42
40.0
 43
40.0
 50
180.0
  0
INSERT
  5
1EC5
  8
0
  6
CONTINUOUS
 62
     2
  2
YA
 10
1975.7404741005739197
 20
611.290680765057914
 30
0.0
 41
40.0
 42
40.0
 43
40.0
  0
INSERT
  5
1EC6
  8
0
 62
     7
  2
*U135
 10
0.0
 20
0.0
 30
0.0
  0
POINT
  5
1EC7
  8
DEFPOINTS
  6
CONTINUOUS
 62
     0
 10
1325.7404741005739197
 20
1115.2527918371490614
 30
0.0
  0
POINT
  5
1EC8
  8
DEFPOINTS
  6
CONTINUOUS
 62
     0
 10
1975.7404741005739197
 20
1115.2527918371490614
 30
0.0
  0
POINT
  5
1EC9
  8
DEFPOINTS
  6
CONTINUOUS
 62
     0
 10
1975.7404741005739197
 20
611.290680765057914
 30
0.0
  0
ENDBLK
  5
1A0B
  8
0
 62
     7
  0
BLOCK
  8
0
 62
     7
  2
*D89
 70
     1
 10
0.0
 20
0.0
 30
0.0
  3
*D89
  1

  0
LINE
  5
1ECA
  8
0
  6
CONTINUOUS
 62
     2
 10
1775.7404741005739197
 20
1095.2527918371490614
 30
0.0
 11
1775.7404741005739197
 21
741.2906807650578003
 31
0.0
  0
LINE
  5
1ECB
  8
0
  6
CONTINUOUS
 62
     2
 10
1975.7404741005739197
 20
1095.2527918371490614
 30
0.0
 11
1975.7404741005739197
 21
741.2906807650578003
 31
0.0
  0
LINE
  5
1ECC
  8
0
  6
CONTINUOUS
 62
     2
 10
1815.7404741005730102
 20
761.290680765057914
 30
0.0
 11
1935.7404741005739197
 21
761.290680765057914
 31
0.0
  0
INSERT
  5
1ECD
  8
0
  6
CONTINUOUS
 62
     2
  2
YA
 10
1775.7404741005739197
 20
761.290680765057914
 30
0.0
 41
40.0
 42
40.0
 43
40.0
 50
180.0
  0
INSERT
  5
1ECE
  8
0
  6
CONTINUOUS
 62
     2
  2
YA
 10
1975.7404741005739197
 20
761.290680765057914
 30
0.0
 41
40.0
 42
40.0
 43
40.0
  0
INSERT
  5
1ECF
  8
0
 62
     7
  2
*U136
 10
0.0
 20
0.0
 30
0.0
  0
POINT
  5
1ED0
  8
DEFPOINTS
  6
CONTINUOUS
 62
     0
 10
1775.7404741005739197
 20
1115.2527918371490614
 30
0.0
  0
POINT
  5
1ED1
  8
DEFPOINTS
  6
CONTINUOUS
 62
     0
 10
1975.7404741005739197
 20
1115.2527918371490614
 30
0.0
  0
POINT
  5
1ED2
  8
DEFPOINTS
  6
CONTINUOUS
 62
     0
 10
1975.7404741005739197
 20
761.290680765057914
 30
0.0
  0
ENDBLK
  5
1A17
  8
0
 62
     7
  0
BLOCK
  8
0
 62
     7
  2
*D90
 70
     1
 10
0.0
 20
0.0
 30
0.0
  3
*D90
  1

  0
LINE
  5
1ED3
  8
0
  6
CONTINUOUS
 62
     2
 10
1575.7404741005739197
 20
1095.2527918371490614
 30
0.0
 11
1575.7404741005739197
 21
741.2906807650578003
 31
0.0
  0
LINE
  5
1ED4
  8
0
  6
CONTINUOUS
 62
     2
 10
1775.7404741005739197
 20
1100.2527918371479245
 30
0.0
 11
1775.7404741005739197
 21
741.2906807650578003
 31
0.0
  0
LINE
  5
1ED5
  8
0
  6
CONTINUOUS
 62
     2
 10
1615.7404741005739197
 20
761.290680765057914
 30
0.0
 11
1735.7404741005739197
 21
761.290680765057914
 31
0.0
  0
INSERT
  5
1ED6
  8
0
  6
CONTINUOUS
 62
     2
  2
YA
 10
1575.7404741005739197
 20
761.290680765057914
 30
0.0
 41
40.0
 42
40.0
 43
40.0
 50
180.0
  0
INSERT
  5
1ED7
  8
0
  6
CONTINUOUS
 62
     2
  2
YA
 10
1775.7404741005739197
 20
761.290680765057914
 30
0.0
 41
40.0
 42
40.0
 43
40.0
  0
INSERT
  5
1ED8
  8
0
 62
     7
  2
*U137
 10
0.0
 20
0.0
 30
0.0
  0
POINT
  5
1ED9
  8
DEFPOINTS
  6
CONTINUOUS
 62
     0
 10
1575.7404741005739197
 20
1115.2527918371490614
 30
0.0
  0
POINT
  5
1EDA
  8
DEFPOINTS
  6
CONTINUOUS
 62
     0
 10
1775.7404741005739197
 20
1120.2527918371490614
 30
0.0
  0
POINT
  5
1EDB
  8
DEFPOINTS
  6
CONTINUOUS
 62
     0
 10
1775.7404741005739197
 20
761.290680765057914
 30
0.0
  0
ENDBLK
  5
1A23
  8
0
 62
     7
  0
BLOCK
  8
0
 62
     7
  2
*D91
 70
     1
 10
0.0
 20
0.0
 30
0.0
  3
*D91
  1

  0
LINE
  5
1EDC
  8
0
  6
CONTINUOUS
 62
     2
 10
3644.0249569169250208
 20
1095.2527918371490614
 30
0.0
 11
3644.0249569169250208
 21
618.4985626445850357
 31
0.0
  0
LINE
  5
1EDD
  8
0
  6
CONTINUOUS
 62
     2
 10
4484.024956916924566
 20
1095.2527918371490614
 30
0.0
 11
4484.024956916924566
 21
618.4985626445850357
 31
0.0
  0
LINE
  5
1EDE
  8
0
  6
CONTINUOUS
 62
     2
 10
3684.0249569169250208
 20
638.4985626445850357
 30
0.0
 11
4444.024956916924566
 21
638.4985626445850357
 31
0.0
  0
INSERT
  5
1EDF
  8
0
  6
CONTINUOUS
 62
     2
  2
YA
 10
3644.0249569169250208
 20
638.4985626445850357
 30
0.0
 41
40.0
 42
40.0
 43
40.0
 50
180.0
  0
INSERT
  5
1EE0
  8
0
  6
CONTINUOUS
 62
     2
  2
YA
 10
4484.024956916924566
 20
638.4985626445850357
 30
0.0
 41
40.0
 42
40.0
 43
40.0
  0
INSERT
  5
1EE1
  8
0
 62
     7
  2
*U138
 10
0.0
 20
0.0
 30
0.0
  0
POINT
  5
1EE2
  8
DEFPOINTS
  6
CONTINUOUS
 62
     0
 10
3644.0249569169250208
 20
1115.2527918371490614
 30
0.0
  0
POINT
  5
1EE3
  8
DEFPOINTS
  6
CONTINUOUS
 62
     0
 10
4484.024956916924566
 20
1115.2527918371490614
 30
0.0
  0
POINT
  5
1EE4
  8
DEFPOINTS
  6
CONTINUOUS
 62
     0
 10
4484.024956916924566
 20
638.4985626445850357
 30
0.0
  0
ENDBLK
  5
1A79
  8
0
 62
     7
  0
BLOCK
  8
0
 62
     7
  2
*D92
 70
     1
 10
0.0
 20
0.0
 30
0.0
  3
*D92
  1

  0
LINE
  5
1EE5
  8
0
  6
CONTINUOUS
 62
     2
 10
3844.0249569169250208
 20
1095.2527918371490614
 30
0.0
 11
3844.0249569169250208
 21
768.4985626445850357
 31
0.0
  0
LINE
  5
1EE6
  8
0
  6
CONTINUOUS
 62
     2
 10
4484.024956916924566
 20
1095.2527918371490614
 30
0.0
 11
4484.024956916924566
 21
768.4985626445850357
 31
0.0
  0
LINE
  5
1EE7
  8
0
  6
CONTINUOUS
 62
     2
 10
3884.0249569169241113
 20
788.4985626445850357
 30
0.0
 11
4444.024956916924566
 21
788.4985626445850357
 31
0.0
  0
INSERT
  5
1EE8
  8
0
  6
CONTINUOUS
 62
     2
  2
YA
 10
3844.0249569169250208
 20
788.4985626445850357
 30
0.0
 41
40.0
 42
40.0
 43
40.0
 50
180.0
  0
INSERT
  5
1EE9
  8
0
  6
CONTINUOUS
 62
     2
  2
YA
 10
4484.024956916924566
 20
788.4985626445850357
 30
0.0
 41
40.0
 42
40.0
 43
40.0
  0
INSERT
  5
1EEA
  8
0
 62
     7
  2
*U139
 10
0.0
 20
0.0
 30
0.0
  0
POINT
  5
1EEB
  8
DEFPOINTS
  6
CONTINUOUS
 62
     0
 10
3844.0249569169250208
 20
1115.2527918371490614
 30
0.0
  0
POINT
  5
1EEC
  8
DEFPOINTS
  6
CONTINUOUS
 62
     0
 10
4484.024956916924566
 20
1115.2527918371490614
 30
0.0
  0
POINT
  5
1EED
  8
DEFPOINTS
  6
CONTINUOUS
 62
     0
 10
4484.024956916924566
 20
788.4985626445850357
 30
0.0
  0
ENDBLK
  5
1A85
  8
0
 62
     7
  0
BLOCK
  8
0
 62
     7
  2
*D93
 70
     1
 10
0.0
 20
0.0
 30
0.0
  3
*D93
  1

  0
LINE
  5
1EEE
  8
0
  6
CONTINUOUS
 62
     2
 10
4284.0249569169236565
 20
1095.2527918371490614
 30
0.0
 11
4284.0249569169236565
 21
918.4985626445850357
 31
0.0
  0
LINE
  5
1EEF
  8
0
  6
CONTINUOUS
 62
     2
 10
4334.0249569169236565
 20
1095.2527918371490614
 30
0.0
 11
4334.0249569169236565
 21
918.4985626445850357
 31
0.0
  0
LINE
  5
1EF0
  8
0
  6
CONTINUOUS
 62
     2
 10
4244.0249569169236565
 20
938.4985626445850357
 30
0.0
 11
4204.0249569169236565
 21
938.4985626445850357
 31
0.0
  0
LINE
  5
1EF1
  8
0
  6
CONTINUOUS
 62
     2
 10
4374.0249569169236565
 20
938.4985626445850357
 30
0.0
 11
4414.0249569169236565
 21
938.4985626445850357
 31
0.0
  0
INSERT
  5
1EF2
  8
0
 62
     7
  2
*U140
 10
0.0
 20
0.0
 30
0.0
  0
LINE
  5
1EF3
  8
0
  6
CONTINUOUS
 62
     2
 10
4284.0249569169236565
 20
938.4985626445850357
 30
0.0
 11
4334.0249569169236565
 21
938.4985626445850357
 31
0.0
  0
INSERT
  5
1EF4
  8
0
  6
CONTINUOUS
 62
     2
  2
YA
 10
4284.0249569169236565
 20
938.4985626445850357
 30
0.0
 41
40.0
 42
40.0
 43
40.0
  0
INSERT
  5
1EF5
  8
0
  6
CONTINUOUS
 62
     2
  2
YA
 10
4334.0249569169236565
 20
938.4985626445850357
 30
0.0
 41
40.0
 42
40.0
 43
40.0
 50
180.0
  0
POINT
  5
1EF6
  8
DEFPOINTS
  6
CONTINUOUS
 62
     0
 10
4284.0249569169236565
 20
1115.2527918371490614
 30
0.0
  0
POINT
  5
1EF7
  8
DEFPOINTS
  6
CONTINUOUS
 62
     0
 10
4334.0249569169236565
 20
1115.2527918371490614
 30
0.0
  0
POINT
  5
1EF8
  8
DEFPOINTS
  6
CONTINUOUS
 62
     0
 10
4334.0249569169236565
 20
938.4985626445850357
 30
0.0
  0
ENDBLK
  5
1A91
  8
0
 62
     7
  0
BLOCK
  8
0
 62
     7
  2
*D94
 70
     1
 10
0.0
 20
0.0
 30
0.0
  3
*D94
  1

  0
LINE
  5
1EF9
  8
0
  6
CONTINUOUS
 62
     2
 10
4484.024956916924566
 20
1095.2527918371490614
 30
0.0
 11
4484.024956916924566
 21
918.4985626445850357
 31
0.0
  0
LINE
  5
1EFA
  8
0
  6
CONTINUOUS
 62
     2
 10
4374.0249569169236565
 20
938.4985626445850357
 30
0.0
 11
4444.024956916924566
 21
938.4985626445850357
 31
0.0
  0
INSERT
  5
1EFB
  8
0
  6
CONTINUOUS
 62
     2
  2
YA
 10
4334.0249569169236565
 20
938.4985626445850357
 30
0.0
 41
40.0
 42
40.0
 43
40.0
 50
180.0
  0
INSERT
  5
1EFC
  8
0
  6
CONTINUOUS
 62
     2
  2
YA
 10
4484.024956916924566
 20
938.4985626445850357
 30
0.0
 41
40.0
 42
40.0
 43
40.0
  0
INSERT
  5
1EFD
  8
0
 62
     7
  2
*U141
 10
0.0
 20
0.0
 30
0.0
  0
POINT
  5
1EFE
  8
DEFPOINTS
  6
CONTINUOUS
 62
     0
 10
4334.0249569169236565
 20
1115.2527918371490614
 30
0.0
  0
POINT
  5
1EFF
  8
DEFPOINTS
  6
CONTINUOUS
 62
     0
 10
4484.024956916924566
 20
1115.2527918371490614
 30
0.0
  0
POINT
  5
1F00
  8
DEFPOINTS
  6
CONTINUOUS
 62
     0
 10
4484.024956916924566
 20
938.4985626445850357
 30
0.0
  0
ENDBLK
  5
1A9F
  8
0
 62
     7
  0
BLOCK
  8
0
 62
     7
  2
*D95
 70
     1
 10
0.0
 20
0.0
 30
0.0
  3
*D95
  1

  0
LINE
  5
1E63
  8
0
  6
CONTINUOUS
 62
     2
 10
1995.7404741005750566
 20
4115.4535145172867487
 30
0.0
 11
2419.9171609529889793
 21
4115.4535145172867487
 31
0.0
  0
LINE
  5
1E64
  8
0
  6
CONTINUOUS
 62
     2
 10
1995.7404741005750566
 20
4955.4535145172867487
 30
0.0
 11
2419.9171609529889793
 21
4955.4535145172867487
 31
0.0
  0
LINE
  5
1E65
  8
0
  6
CONTINUOUS
 62
     2
 10
2399.9171609529889793
 20
4155.4535145172867487
 30
0.0
 11
2399.9171609529889793
 21
4915.4535145172876582
 31
0.0
  0
INSERT
  5
1E66
  8
0
  6
CONTINUOUS
 62
     2
  2
YA
 10
2399.9171609529889793
 20
4115.4535145172867487
 30
0.0
 41
40.0
 42
40.0
 43
40.0
 50
270.0
  0
INSERT
  5
1E67
  8
0
  6
CONTINUOUS
 62
     2
  2
YA
 10
2399.9171609529889793
 20
4955.4535145172867487
 30
0.0
 41
40.0
 42
40.0
 43
40.0
 50
90.0
  0
INSERT
  5
1E68
  8
0
 62
     7
  2
*U124
 10
0.0
 20
0.0
 30
0.0
  0
POINT
  5
1E69
  8
DEFPOINTS
  6
CONTINUOUS
 62
     0
 10
1975.7404741005750566
 20
4115.4535145172867487
 30
0.0
  0
POINT
  5
1E6A
  8
DEFPOINTS
  6
CONTINUOUS
 62
     0
 10
1975.7404741005750566
 20
4955.4535145172867487
 30
0.0
  0
POINT
  5
1E6B
  8
DEFPOINTS
  6
CONTINUOUS
 62
     0
 10
2399.9171609529889793
 20
4955.4535145172867487
 30
0.0
  0
ENDBLK
  5
1AAA
  8
0
 62
     7
  0
BLOCK
  8
0
 62
     7
  2
*D96
 70
     1
 10
0.0
 20
0.0
 30
0.0
  3
*D96
  1

  0
LINE
  5
1E6C
  8
0
  6
CONTINUOUS
 62
     2
 10
2253.9568900989261238
 20
1115.2527918371490614
 30
0.0
 11
2434.9171609529889793
 21
1115.2527918371490614
 31
0.0
  0
LINE
  5
1E6D
  8
0
  6
CONTINUOUS
 62
     2
 10
1995.7404741005750566
 20
3145.2527918371511078
 30
0.0
 11
2434.9171609529889793
 21
3145.2527918371511078
 31
0.0
  0
LINE
  5
1E6E
  8
0
  6
CONTINUOUS
 62
     2
 10
2414.9171609529889793
 20
1155.2527918371490614
 30
0.0
 11
2414.9171609529889793
 21
3105.2527918371511078
 31
0.0
  0
INSERT
  5
1E6F
  8
0
  6
CONTINUOUS
 62
     2
  2
YA
 10
2414.9171609529889793
 20
1115.2527918371490614
 30
0.0
 41
40.0
 42
40.0
 43
40.0
 50
270.0
  0
INSERT
  5
1E70
  8
0
  6
CONTINUOUS
 62
     2
  2
YA
 10
2414.9171609529889793
 20
3145.2527918371511078
 30
0.0
 41
40.0
 42
40.0
 43
40.0
 50
90.0
  0
INSERT
  5
1E71
  8
0
 62
     7
  2
*U125
 10
0.0
 20
0.0
 30
0.0
  0
POINT
  5
1E72
  8
DEFPOINTS
  6
CONTINUOUS
 62
     0
 10
2233.9568900989261238
 20
1115.2527918371490614
 30
0.0
  0
POINT
  5
1E73
  8
DEFPOINTS
  6
CONTINUOUS
 62
     0
 10
1975.7404741005750566
 20
3145.2527918371511078
 30
0.0
  0
POINT
  5
1E74
  8
DEFPOINTS
  6
CONTINUOUS
 62
     0
 10
2414.9171609529889793
 20
3145.2527918371511078
 30
0.0
  0
ENDBLK
  5
1AB6
  8
0
 62
     7
  0
BLOCK
  8
0
 62
     7
  2
*D97
 70
     1
 10
0.0
 20
0.0
 30
0.0
  3
*D97
  1

  0
LINE
  5
1E75
  8
0
  6
CONTINUOUS
 62
     2
 10
1085.7404741005739197
 20
3165.252791837148834
 30
0.0
 11
1085.7404741005739197
 21
3426.0311746010561365
 31
0.0
  0
LINE
  5
1E76
  8
0
  6
CONTINUOUS
 62
     2
 10
1975.7404741005739197
 20
3165.252791837148834
 30
0.0
 11
1975.7404741005739197
 21
3426.0311746010561365
 31
0.0
  0
LINE
  5
1E77
  8
0
  6
CONTINUOUS
 62
     2
 10
1125.7404741005739197
 20
3406.0311746010561365
 30
0.0
 11
1935.7404741005739197
 21
3406.0311746010561365
 31
0.0
  0
INSERT
  5
1E78
  8
0
  6
CONTINUOUS
 62
     2
  2
YA
 10
1085.7404741005739197
 20
3406.0311746010561365
 30
0.0
 41
40.0
 42
40.0
 43
40.0
 50
180.0
  0
INSERT
  5
1E79
  8
0
  6
CONTINUOUS
 62
     2
  2
YA
 10
1975.7404741005739197
 20
3406.0311746010561365
 30
0.0
 41
40.0
 42
40.0
 43
40.0
  0
INSERT
  5
1E7A
  8
0
 62
     7
  2
*U126
 10
0.0
 20
0.0
 30
0.0
  0
POINT
  5
1E7B
  8
DEFPOINTS
  6
CONTINUOUS
 62
     0
 10
1085.7404741005739197
 20
3145.252791837148834
 30
0.0
  0
POINT
  5
1E7C
  8
DEFPOINTS
  6
CONTINUOUS
 62
     0
 10
1975.7404741005739197
 20
3145.252791837148834
 30
0.0
  0
POINT
  5
1E7D
  8
DEFPOINTS
  6
CONTINUOUS
 62
     0
 10
1975.7404741005739197
 20
3406.0311746010561365
 30
0.0
  0
ENDBLK
  5
1AC2
  8
0
 62
     7
  0
BLOCK
  8
0
 62
     7
  2
*D98
 70
     1
 10
0.0
 20
0.0
 30
0.0
  3
*D98
  1

  0
LINE
  5
1E7E
  8
0
  6
CONTINUOUS
 62
     2
 10
1085.7404741005739197
 20
4975.4535145172849298
 30
0.0
 11
1085.7404741005739197
 21
5229.1312653836803293
 31
0.0
  0
LINE
  5
1E7F
  8
0
  6
CONTINUOUS
 62
     2
 10
1435.7404741005739197
 20
5089.531864789489191
 30
0.0
 11
1435.7404741005739197
 21
5229.1312653836803293
 31
0.0
  0
LINE
  5
1E80
  8
0
  6
CONTINUOUS
 62
     2
 10
1125.7404741005739197
 20
5209.1312653836794198
 30
0.0
 11
1395.7404741005739197
 21
5209.1312653836794198
 31
0.0
  0
INSERT
  5
1E81
  8
0
  6
CONTINUOUS
 62
     2
  2
YA
 10
1085.7404741005739197
 20
5209.1312653836794198
 30
0.0
 41
40.0
 42
40.0
 43
40.0
 50
180.0
  0
INSERT
  5
1E82
  8
0
  6
CONTINUOUS
 62
     2
  2
YA
 10
1435.7404741005739197
 20
5209.1312653836794198
 30
0.0
 41
40.0
 42
40.0
 43
40.0
  0
INSERT
  5
1E83
  8
0
 62
     7
  2
*U127
 10
0.0
 20
0.0
 30
0.0
  0
POINT
  5
1E84
  8
DEFPOINTS
  6
CONTINUOUS
 62
     0
 10
1085.7404741005739197
 20
4955.4535145172849298
 30
0.0
  0
POINT
  5
1E85
  8
DEFPOINTS
  6
CONTINUOUS
 62
     0
 10
1435.7404741005739197
 20
5069.531864789489191
 30
0.0
  0
POINT
  5
1E86
  8
DEFPOINTS
  6
CONTINUOUS
 62
     0
 10
1435.7404741005739197
 20
5209.1312653836794198
 30
0.0
  0
ENDBLK
  5
1ACE
  8
0
 62
     7
  0
BLOCK
  8
0
 62
     7
  2
*D99
 70
     1
 10
0.0
 20
0.0
 30
0.0
  3
*D99
  1

  0
LINE
  5
1E87
  8
0
  6
CONTINUOUS
 62
     2
 10
1435.7404741005739197
 20
5089.531864789489191
 30
0.0
 11
1435.7404741005739197
 21
5229.1312653836803293
 31
0.0
  0
LINE
  5
1E88
  8
0
  6
CONTINUOUS
 62
     2
 10
1975.7403521005760467
 20
4975.4535145172849298
 30
0.0
 11
1975.7403521005760467
 21
5229.1312653836803293
 31
0.0
  0
LINE
  5
1E89
  8
0
  6
CONTINUOUS
 62
     2
 10
1475.7404741005739197
 20
5209.1312653836794198
 30
0.0
 11
1935.7403521005760467
 21
5209.1312653836794198
 31
0.0
  0
INSERT
  5
1E8A
  8
0
  6
CONTINUOUS
 62
     2
  2
YA
 10
1435.7404741005739197
 20
5209.1312653836794198
 30
0.0
 41
40.0
 42
40.0
 43
40.0
 50
180.0
  0
INSERT
  5
1E8B
  8
0
  6
CONTINUOUS
 62
     2
  2
YA
 10
1975.7403521005760467
 20
5209.1312653836794198
 30
0.0
 41
40.0
 42
40.0
 43
40.0
  0
INSERT
  5
1E8C
  8
0
 62
     7
  2
*U128
 10
0.0
 20
0.0
 30
0.0
  0
POINT
  5
1E8D
  8
DEFPOINTS
  6
CONTINUOUS
 62
     0
 10
1435.7404741005739197
 20
5069.531864789489191
 30
0.0
  0
POINT
  5
1E8E
  8
DEFPOINTS
  6
CONTINUOUS
 62
     0
 10
1975.7403521005760467
 20
4955.4535145172849298
 30
0.0
  0
POINT
  5
1E8F
  8
DEFPOINTS
  6
CONTINUOUS
 62
     0
 10
1975.7403521005760467
 20
5209.1312653836794198
 30
0.0
  0
ENDBLK
  5
1ADA
  8
0
 62
     7
  0
BLOCK
  8
0
 62
     7
  2
*D100
 70
     1
 10
0.0
 20
0.0
 30
0.0
  3
*D100
  1

  0
LINE
  5
1E90
  8
0
  6
CONTINUOUS
 62
     2
 10
1530.7404793363539284
 20
3866.0425977943828002
 30
0.0
 11
1505.5729557592310357
 21
4124.933038263016897
 31
0.0
  0
INSERT
  5
1E91
  8
0
 62
     7
  2
*U129
 10
0.0
 20
0.0
 30
0.0
  0
INSERT
  5
1E92
  8
0
  6
CONTINUOUS
 62
     2
  2
YA
 10
1501.7026794221019372
 20
4164.7453599872551422
 30
0.0
 41
40.0
 42
40.0
 43
40.0
 50
95.5524491617330227
  0
POINT
  5
1E93
  8
DEFPOINTS
  6
CONTINUOUS
 62
     0
 10
1501.7026794221019372
 20
4164.7453599872551422
 30
0.0
  0
POINT
  5
1E94
  8
DEFPOINTS
  6
CONTINUOUS
 62
     0
 10
1530.7404793363539284
 20
3866.0425977943828002
 30
0.0
  0
ENDBLK
  5
1AE6
  8
0
 62
     7
  0
BLOCK
  8
0
 62
     7
  2
*D101
 70
     1
 10
0.0
 20
0.0
 30
0.0
  3
*D101
  1

  0
LINE
  5
1E95
  8
0
  6
CONTINUOUS
 62
     2
 10
3824.0249569169268398
 20
1115.2527918371490614
 30
0.0
 11
3394.0249569178599813
 21
1115.2527918371490614
 31
0.0
  0
LINE
  5
1E96
  8
0
  6
CONTINUOUS
 62
     2
 10
3634.0249509169389057
 20
1985.2390388371429708
 30
0.0
 11
3394.0249569178599813
 21
1985.2390388371429708
 31
0.0
  0
LINE
  5
1E97
  8
0
  6
CONTINUOUS
 62
     2
 10
3414.0249569178608908
 20
1155.2527918371490614
 30
0.0
 11
3414.0249569178608908
 21
1945.2390388371429708
 31
0.0
  0
INSERT
  5
1E98
  8
0
  6
CONTINUOUS
 62
     2
  2
YA
 10
3414.0249569178608908
 20
1115.2527918371490614
 30
0.0
 41
40.0
 42
40.0
 43
40.0
 50
270.0
  0
INSERT
  5
1E99
  8
0
  6
CONTINUOUS
 62
     2
  2
YA
 10
3414.0249569178608908
 20
1985.2390388371429708
 30
0.0
 41
40.0
 42
40.0
 43
40.0
 50
90.0
  0
INSERT
  5
1E9A
  8
0
 62
     7
  2
*U130
 10
0.0
 20
0.0
 30
0.0
  0
POINT
  5
1E9B
  8
DEFPOINTS
  6
CONTINUOUS
 62
     0
 10
3844.0249569169268398
 20
1115.2527918371490614
 30
0.0
  0
POINT
  5
1E9C
  8
DEFPOINTS
  6
CONTINUOUS
 62
     0
 10
3654.0249509169398152
 20
1985.2390388371429708
 30
0.0
  0
POINT
  5
1E9D
  8
DEFPOINTS
  6
CONTINUOUS
 62
     0
 10
3414.0249569178608908
 20
1985.2390388371429708
 30
0.0
  0
ENDBLK
  5
1AEE
  8
0
 62
     7
  0
BLOCK
  8
0
 62
     7
  2
*D102
 70
     1
 10
0.0
 20
0.0
 30
0.0
  3
*D102
  1

  0
LINE
  5
1E9E
  8
0
  6
CONTINUOUS
 62
     2
 10
4022.2746249169008479
 20
2365.2528020206959809
 30
0.0
 11
3244.0249569178599813
 21
2365.2528020206959809
 31
0.0
  0
LINE
  5
1E9F
  8
0
  6
CONTINUOUS
 62
     2
 10
3824.0249569169268398
 20
1115.2527918371490614
 30
0.0
 11
3244.0249569178599813
 21
1115.2527918371490614
 31
0.0
  0
LINE
  5
1EA0
  8
0
  6
CONTINUOUS
 62
     2
 10
3264.0249569178608908
 20
2325.2528020206959809
 30
0.0
 11
3264.0249569178608908
 21
1155.2527918371490614
 31
0.0
  0
INSERT
  5
1EA1
  8
0
  6
CONTINUOUS
 62
     2
  2
YA
 10
3264.0249569178608908
 20
2365.2528020206959809
 30
0.0
 41
40.0
 42
40.0
 43
40.0
 50
90.0
  0
INSERT
  5
1EA2
  8
0
  6
CONTINUOUS
 62
     2
  2
YA
 10
3264.0249569178608908
 20
1115.2527918371490614
 30
0.0
 41
40.0
 42
40.0
 43
40.0
 50
270.0
  0
INSERT
  5
1EA3
  8
0
 62
     7
  2
*U131
 10
0.0
 20
0.0
 30
0.0
  0
POINT
  5
1EA4
  8
DEFPOINTS
  6
CONTINUOUS
 62
     0
 10
4042.2746249169022121
 20
2365.2528020206959809
 30
0.0
  0
POINT
  5
1EA5
  8
DEFPOINTS
  6
CONTINUOUS
 62
     0
 10
3844.0249569169268398
 20
1115.2527918371490614
 30
0.0
  0
POINT
  5
1EA6
  8
DEFPOINTS
  6
CONTINUOUS
 62
     0
 10
3264.0249569178608908
 20
1115.2527918371490614
 30
0.0
  0
ENDBLK
  5
1AFA
  8
0
 62
     7
  0
BLOCK
  8
0
 62
     7
  2
*D103
 70
     1
 10
0.0
 20
0.0
 30
0.0
  3
*D103
  1

  0
LINE
  5
1EA7
  8
0
  6
CONTINUOUS
 62
     2
 10
3824.0249569169268398
 20
1115.2527918371490614
 30
0.0
 11
3544.0249569178608908
 21
1115.2527918371490614
 31
0.0
  0
LINE
  5
1EA8
  8
0
  6
CONTINUOUS
 62
     2
 10
3814.0249569169259303
 20
1465.2527918371490614
 30
0.0
 11
3544.0249569178608908
 21
1465.2527918371490614
 31
0.0
  0
LINE
  5
1EA9
  8
0
  6
CONTINUOUS
 62
     2
 10
3564.0249569178608908
 20
1155.2527918371490614
 30
0.0
 11
3564.0249569178608908
 21
1425.2527918371490614
 31
0.0
  0
INSERT
  5
1EAA
  8
0
  6
CONTINUOUS
 62
     2
  2
YA
 10
3564.0249569178608908
 20
1115.2527918371490614
 30
0.0
 41
40.0
 42
40.0
 43
40.0
 50
270.0
  0
INSERT
  5
1EAB
  8
0
  6
CONTINUOUS
 62
     2
  2
YA
 10
3564.0249569178608908
 20
1465.2527918371490614
 30
0.0
 41
40.0
 42
40.0
 43
40.0
 50
90.0
  0
INSERT
  5
1EAC
  8
0
 62
     7
  2
*U132
 10
0.0
 20
0.0
 30
0.0
  0
POINT
  5
1EAD
  8
DEFPOINTS
  6
CONTINUOUS
 62
     0
 10
3844.0249569169268398
 20
1115.2527918371490614
 30
0.0
  0
POINT
  5
1EAE
  8
DEFPOINTS
  6
CONTINUOUS
 62
     0
 10
3834.0249569169268398
 20
1465.2527918371490614
 30
0.0
  0
POINT
  5
1EAF
  8
DEFPOINTS
  6
CONTINUOUS
 62
     0
 10
3564.0249569178608908
 20
1465.2527918371490614
 30
0.0
  0
ENDBLK
  5
1B06
  8
0
 62
     7
  0
BLOCK
  8
0
 62
     7
  2
*D104
 70
     1
 10
0.0
 20
0.0
 30
0.0
  3
*D104
  1

  0
LINE
  5
1EB0
  8
0
  6
CONTINUOUS
 62
     2
 10
4504.024956916926385
 20
1115.2527918371490614
 30
0.0
 11
4766.3868788860900167
 21
1115.2527918371490614
 31
0.0
  0
LINE
  5
1EB1
  8
0
  6
CONTINUOUS
 62
     2
 10
4640.6701962038068814
 20
1315.2526698371520979
 30
0.0
 11
4766.3868788860900167
 21
1315.2526698371520979
 31
0.0
  0
LINE
  5
1EB2
  8
0
  6
CONTINUOUS
 62
     2
 10
4746.3868788860909262
 20
1155.2527918371490614
 30
0.0
 11
4746.3868788860909262
 21
1275.2526698371520979
 31
0.0
  0
INSERT
  5
1EB3
  8
0
  6
CONTINUOUS
 62
     2
  2
YA
 10
4746.3868788860909262
 20
1115.2527918371490614
 30
0.0
 41
40.0
 42
40.0
 43
40.0
 50
270.0
  0
INSERT
  5
1EB4
  8
0
  6
CONTINUOUS
 62
     2
  2
YA
 10
4746.3868788860909262
 20
1315.2526698371520979
 30
0.0
 41
40.0
 42
40.0
 43
40.0
 50
90.0
  0
INSERT
  5
1EB5
  8
0
 62
     7
  2
*U133
 10
0.0
 20
0.0
 30
0.0
  0
POINT
  5
1EB6
  8
DEFPOINTS
  6
CONTINUOUS
 62
     0
 10
4484.024956916926385
 20
1115.2527918371490614
 30
0.0
  0
POINT
  5
1EB7
  8
DEFPOINTS
  6
CONTINUOUS
 62
     0
 10
4620.6701962038077909
 20
1315.2526698371520979
 30
0.0
  0
POINT
  5
1EB8
  8
DEFPOINTS
  6
CONTINUOUS
 62
     0
 10
4746.3868788860909262
 20
1315.2526698371520979
 30
0.0
  0
ENDBLK
  5
1B12
  8
0
 62
     7
  0
BLOCK
  8
0
 62
     7
  2
*D105
 70
     1
 10
0.0
 20
0.0
 30
0.0
  3
*D105
  1

  0
LINE
  5
1EB9
  8
0
  6
CONTINUOUS
 62
     2
 10
4304.024956916924566
 20
3165.252791837148834
 30
0.0
 11
4304.024956916924566
 21
3324.0081922453250627
 31
0.0
  0
LINE
  5
1EBA
  8
0
  6
CONTINUOUS
 62
     2
 10
4344.0249569169236565
 20
3304.0081922453250627
 30
0.0
 11
4444.024956916924566
 21
3304.0081922453250627
 31
0.0
  0
INSERT
  5
1EBB
  8
0
  6
CONTINUOUS
 62
     2
  2
YA
 10
4304.024956916924566
 20
3304.0081922453250627
 30
0.0
 41
40.0
 42
40.0
 43
40.0
 50
180.0
  0
INSERT
  5
1EBC
  8
0
  6
CONTINUOUS
 62
     2
  2
YA
 10
4484.024956916924566
 20
3304.0081922453250627
 30
0.0
 41
40.0
 42
40.0
 43
40.0
  0
INSERT
  5
1EBD
  8
0
 62
     7
  2
*U134
 10
0.0
 20
0.0
 30
0.0
  0
POINT
  5
1EBE
  8
DEFPOINTS
  6
CONTINUOUS
 62
     0
 10
4304.024956916924566
 20
3145.252791837148834
 30
0.0
  0
POINT
  5
1EBF
  8
DEFPOINTS
  6
CONTINUOUS
 62
     0
 10
4484.024956916924566
 20
3304.0081922453250627
 30
0.0
  0
POINT
  5
1EC0
  8
DEFPOINTS
  6
CONTINUOUS
 62
     0
 10
4484.024956916924566
 20
3304.0081922453250627
 30
0.0
  0
ENDBLK
  5
1B1E
  8
0
 62
     7
  0
BLOCK
  8
0
 62
     7
  2
*U106
 70
     1
 10
0.0
 20
0.0
 30
0.0
  3
*U106
  1

  0
INSERT
  5
23D9
  8
0
  6
CONTINUOUS
 62
     2
  2
YA
 10
1503.4904741005739197
 20
2370.002791837148834
 30
0.0
 41
40.0
 42
40.0
 43
40.0
 50
24.8076485447727784
  0
POLYLINE
  5
23DA
  8
0
  6
CONTINUOUS
 62
     2
 66
     1
 10
0.0
 20
0.0
 30
0.0
  0
VERTEX
  5
23DB
  8
0
  6
CONTINUOUS
 62
     2
 10
1467.1816150275349173
 20
2353.2198614370599898
 30
0.0
  0
VERTEX
  5
23DC
  8
0
  6
CONTINUOUS
 62
     2
 10
982.0849774080561474
 20
2128.9951594130261583
 30
0.0
  0
SEQEND
  5
23DD
  8
0
  6
CONTINUOUS
 62
     2
  0
ENDBLK
  5
23DF
  8
0
 62
     7
  0
BLOCK
  8
0
 62
     7
  2
*U107
 70
     1
 10
0.0
 20
0.0
 30
0.0
  3
*U107
  1

  0
INSERT
  5
23E1
  8
0
  6
CONTINUOUS
 62
     2
  2
YA
 10
1435.7404741005739197
 20
1360.2527918371490614
 30
0.0
 41
40.0
 42
40.0
 43
40.0
 50
323.5944244002018877
  0
POLYLINE
  5
23E2
  8
0
  6
CONTINUOUS
 62
     2
 66
     1
 10
0.0
 20
0.0
 30
0.0
  0
VERTEX
  5
23E3
  8
0
  6
CONTINUOUS
 62
     2
 10
1403.5470322435548951
 20
1383.9926802403979309
 30
0.0
  0
VERTEX
  5
23E4
  8
0
  6
CONTINUOUS
 62
     2
 10
1046.2991206003350726
 20
1647.4322215100401081
 30
0.0
  0
SEQEND
  5
23E5
  8
0
  6
CONTINUOUS
 62
     2
  0
ENDBLK
  5
23E7
  8
0
 62
     7
  0
BLOCK
  8
0
 62
     7
  2
*U108
 70
     1
 10
0.0
 20
0.0
 30
0.0
  3
*U108
  1

  0
INSERT
  5
23E9
  8
0
  6
CONTINUOUS
 62
     2
  2
YA
 10
1451.2652453766199869
 20
2825.2408099615718129
 30
0.0
 41
40.0
 42
40.0
 43
40.0
 50
336.6188364125978865
  0
POLYLINE
  5
23EA
  8
0
  6
CONTINUOUS
 62
     2
 66
     1
 10
0.0
 20
0.0
 30
0.0
  0
VERTEX
  5
23EB
  8
0
  6
CONTINUOUS
 62
     2
 10
1414.5498397205790297
 20
2841.1146559830090155
 30
0.0
  0
VERTEX
  5
23EC
  8
0
  6
CONTINUOUS
 62
     2
 10
982.5931606367812492
 20
3027.8704248268632
 30
0.0
  0
SEQEND
  5
23ED
  8
0
  6
CONTINUOUS
 62
     2
  0
ENDBLK
  5
23EF
  8
0
 62
     7
  0
BLOCK
  8
0
 62
     7
  2
*U109
 70
     1
 10
0.0
 20
0.0
 30
0.0
  3
*U109
  1

  0
INSERT
  5
23F1
  8
0
  6
CONTINUOUS
 62
     2
  2
YA
 10
1770.7404741005739197
 20
3000.1962270159278887
 30
0.0
 41
40.0
 42
40.0
 43
40.0
 50
177.8735649735920958
  0
POLYLINE
  5
23F2
  8
0
  6
CONTINUOUS
 62
     2
 66
     1
 10
0.0
 20
0.0
 30
0.0
  0
VERTEX
  5
23F3
  8
0
  6
CONTINUOUS
 62
     2
 10
1810.7129293327989217
 20
2998.7120360889598487
 30
0.0
  0
VERTEX
  5
23F4
  8
0
  6
CONTINUOUS
 62
     2
 10
2110.1039260246329832
 20
2987.595546037890017
 30
0.0
  0
SEQEND
  5
23F5
  8
0
  6
CONTINUOUS
 62
     2
  0
ENDBLK
  5
23F7
  8
0
 62
     7
  0
BLOCK
  8
0
 62
     7
  2
*U110
 70
     1
 10
0.0
 20
0.0
 30
0.0
  3
*U110
  1

  0
INSERT
  5
23F9
  8
0
  6
CONTINUOUS
 62
     2
  2
YA
 10
1871.7404741005739197
 20
3089.0938952352739761
 30
0.0
 41
40.0
 42
40.0
 43
40.0
 50
180.8068310296499988
  0
POLYLINE
  5
23FA
  8
0
  6
CONTINUOUS
 62
     2
 66
     1
 10
0.0
 20
0.0
 30
0.0
  0
VERTEX
  5
23FB
  8
0
  6
CONTINUOUS
 62
     2
 10
1911.7365081916300369
 20
3089.6571509383479679
 30
0.0
  0
VERTEX
  5
23FC
  8
0
  6
CONTINUOUS
 62
     2
 10
2110.340536431468081
 20
3092.4540495334658772
 30
0.0
  0
SEQEND
  5
23FD
  8
0
  6
CONTINUOUS
 62
     2
  0
ENDBLK
  5
23FF
  8
0
 62
     7
  0
BLOCK
  8
0
 62
     7
  2
*U111
 70
     1
 10
0.0
 20
0.0
 30
0.0
  3
*U111
  1

  0
INSERT
  5
2401
  8
0
  6
CONTINUOUS
 62
     2
  2
YA
 10
1739.719045792938914
 20
2529.0674110471741187
 30
0.0
 41
40.0
 42
40.0
 43
40.0
 50
182.2027200912031049
  0
POLYLINE
  5
2402
  8
0
  6
CONTINUOUS
 62
     2
 66
     1
 10
0.0
 20
0.0
 30
0.0
  0
VERTEX
  5
2403
  8
0
  6
CONTINUOUS
 62
     2
 10
1779.6894895065659057
 20
2530.6048209911327831
 30
0.0
  0
VERTEX
  5
2404
  8
0
  6
CONTINUOUS
 62
     2
 10
2111.3419773261989576
 20
2543.3613927311380394
 30
0.0
  0
SEQEND
  5
2405
  8
0
  6
CONTINUOUS
 62
     2
  0
ENDBLK
  5
2407
  8
0
 62
     7
  0
BLOCK
  8
0
 62
     7
  2
*U112
 70
     1
 10
0.0
 20
0.0
 30
0.0
  3
*U112
  1

  0
INSERT
  5
2409
  8
0
  6
CONTINUOUS
 62
     2
  2
YA
 10
4559.0249569169236565
 20
1315.2527140515160227
 30
0.0
 41
40.0
 42
40.0
 43
40.0
 50
236.2572242490284111
  0
POLYLINE
  5
240A
  8
0
  6
CONTINUOUS
 62
     2
 66
     1
 10
0.0
 20
0.0
 30
0.0
  0
VERTEX
  5
240B
  8
0
  6
CONTINUOUS
 62
     2
 10
4581.2435725629884473
 20
1348.5143002850750236
 30
0.0
  0
VERTEX
  5
240C
  8
0
  6
CONTINUOUS
 62
     2
 10
4726.4548209923077593
 20
1565.897621489885978
 30
0.0
  0
SEQEND
  5
240D
  8
0
  6
CONTINUOUS
 62
     2
  0
ENDBLK
  5
240F
  8
0
 62
     7
  0
BLOCK
  8
0
 62
     7
  2
*U113
 70
     1
 10
0.0
 20
0.0
 30
0.0
  3
*U113
  1

  0
INSERT
  5
2411
  8
0
  6
CONTINUOUS
 62
     2
  2
YA
 10
1700.1976088142830577
 20
1390.2525638371009791
 30
0.0
 41
40.0
 42
40.0
 43
40.0
 50
210.9871801380126897
  0
POLYLINE
  5
2412
  8
0
  6
CONTINUOUS
 62
     2
 66
     1
 10
0.0
 20
0.0
 30
0.0
  0
VERTEX
  5
2413
  8
0
  6
CONTINUOUS
 62
     2
 10
1734.4889095501489464
 20
1410.8464147116310414
 30
0.0
  0
VERTEX
  5
2414
  8
0
  6
CONTINUOUS
 62
     2
 10
2117.2398001046390164
 20
1640.7098084302849657
 30
0.0
  0
SEQEND
  5
2415
  8
0
  6
CONTINUOUS
 62
     2
  0
ENDBLK
  5
2417
  8
0
 62
     7
  0
BLOCK
  8
0
 62
     7
  2
*U114
 70
     1
 10
0.0
 20
0.0
 30
0.0
  3
*U114
  1

  0
INSERT
  5
2419
  8
0
  6
CONTINUOUS
 62
     2
  2
YA
 10
1595.7404741005739197
 20
1165.2527918372070417
 30
0.0
 41
40.0
 42
40.0
 43
40.0
 50
138.7491378113626013
  0
POLYLINE
  5
241A
  8
0
  6
CONTINUOUS
 62
     2
 66
     1
 10
0.0
 20
0.0
 30
0.0
  0
VERTEX
  5
241B
  8
0
  6
CONTINUOUS
 62
     2
 10
1625.8136695220910042
 20
1138.8785066878560883
 30
0.0
  0
VERTEX
  5
241C
  8
0
  6
CONTINUOUS
 62
     2
 10
2092.1084766930430305
 20
729.9365224519860931
 30
0.0
  0
SEQEND
  5
241D
  8
0
  6
CONTINUOUS
 62
     2
  0
ENDBLK
  5
241F
  8
0
 62
     7
  0
BLOCK
  8
0
 62
     7
  2
*U115
 70
     1
 10
0.0
 20
0.0
 30
0.0
  3
*U115
  1

  0
INSERT
  5
2421
  8
0
  6
CONTINUOUS
 62
     2
  2
YA
 10
1325.7404741005739197
 20
1115.2527918371490614
 30
0.0
 41
40.0
 42
40.0
 43
40.0
 50
56.0546968798038421
  0
POLYLINE
  5
2422
  8
0
  6
CONTINUOUS
 62
     2
 66
     1
 10
0.0
 20
0.0
 30
0.0
  0
VERTEX
  5
2423
  8
0
  6
CONTINUOUS
 62
     2
 10
1303.404425467675992
 20
1082.0699509179501092
 30
0.0
  0
VERTEX
  5
2424
  8
0
  6
CONTINUOUS
 62
     2
 10
1178.7696584587679354
 20
896.9102696049958467
 30
0.0
  0
SEQEND
  5
2425
  8
0
  6
CONTINUOUS
 62
     2
  0
ENDBLK
  5
2427
  8
0
 62
     7
  0
BLOCK
  8
0
 62
     7
  2
*U116
 70
     1
 10
0.0
 20
0.0
 30
0.0
  3
*U116
  1

  0
INSERT
  5
2429
  8
0
  6
CONTINUOUS
 62
     2
  2
YA
 10
1795.7404741005739197
 20
1165.2527918371490614
 30
0.0
 41
40.0
 42
40.0
 43
40.0
 50
141.5693171486815061
  0
POLYLINE
  5
242A
  8
0
  6
CONTINUOUS
 62
     2
 66
     1
 10
0.0
 20
0.0
 30
0.0
  0
VERTEX
  5
242B
  8
0
  6
CONTINUOUS
 62
     2
 10
1827.0749024969659331
 20
1140.3900969495989557
 30
0.0
  0
VERTEX
  5
242C
  8
0
  6
CONTINUOUS
 62
     2
 10
2096.6639920954480658
 20
926.4812553742085584
 30
0.0
  0
SEQEND
  5
242D
  8
0
  6
CONTINUOUS
 62
     2
  0
ENDBLK
  5
242F
  8
0
 62
     7
  0
BLOCK
  8
0
 62
     7
  2
*U117
 70
     1
 10
0.0
 20
0.0
 30
0.0
  3
*U117
  1

  0
INSERT
  5
2431
  8
0
  6
CONTINUOUS
 62
     2
  2
YA
 10
1719.2018068230820518
 20
2814.9329018502608051
 30
0.0
 41
40.0
 42
40.0
 43
40.0
 50
189.2090827796590986
  0
POLYLINE
  5
2432
  8
0
  6
CONTINUOUS
 62
     2
 66
     1
 10
0.0
 20
0.0
 30
0.0
  0
VERTEX
  5
2433
  8
0
  6
CONTINUOUS
 62
     2
 10
1758.6862431270319576
 20
2821.3344086853239787
 30
0.0
  0
VERTEX
  5
2434
  8
0
  6
CONTINUOUS
 62
     2
 10
2110.592328644007921
 20
2878.388008093344979
 30
0.0
  0
SEQEND
  5
2435
  8
0
  6
CONTINUOUS
 62
     2
  0
ENDBLK
  5
2437
  8
0
 62
     7
  0
BLOCK
  8
0
 62
     7
  2
*U118
 70
     1
 10
0.0
 20
0.0
 30
0.0
  3
*U118
  1

  0
INSERT
  5
2439
  8
0
  6
CONTINUOUS
 62
     2
  2
YA
 10
1709.233979451237019
 20
2799.2554928320460021
 30
0.0
 41
40.0
 42
40.0
 43
40.0
 50
176.2292023502077996
  0
POLYLINE
  5
243A
  8
0
  6
CONTINUOUS
 62
     2
 66
     1
 10
0.0
 20
0.0
 30
0.0
  0
VERTEX
  5
243B
  8
0
  6
CONTINUOUS
 62
     2
 10
1749.1473841306010399
 20
2796.6248794242478652
 30
0.0
  0
VERTEX
  5
243C
  8
0
  6
CONTINUOUS
 62
     2
 10
2112.0387804008792045
 20
2772.7074266218119192
 30
0.0
  0
SEQEND
  5
243D
  8
0
  6
CONTINUOUS
 62
     2
  0
ENDBLK
  5
243F
  8
0
 62
     7
  0
BLOCK
  8
0
 62
     7
  2
*U119
 70
     1
 10
0.0
 20
0.0
 30
0.0
  3
*U119
  1

  0
INSERT
  5
2441
  8
0
  6
CONTINUOUS
 62
     2
  2
YA
 10
1719.56146964238701
 20
2604.7388564879661317
 30
0.0
 41
40.0
 42
40.0
 43
40.0
 50
188.5809725708392932
  0
POLYLINE
  5
2442
  8
0
  6
CONTINUOUS
 62
     2
 66
     1
 10
0.0
 20
0.0
 30
0.0
  0
VERTEX
  5
2443
  8
0
  6
CONTINUOUS
 62
     2
 10
1759.1137090787249235
 20
2610.7071356009601004
 30
0.0
  0
VERTEX
  5
2444
  8
0
  6
CONTINUOUS
 62
     2
 10
2107.9673558166828116
 20
2663.3477942081522087
 30
0.0
  0
SEQEND
  5
2445
  8
0
  6
CONTINUOUS
 62
     2
  0
ENDBLK
  5
2447
  8
0
 62
     7
  0
BLOCK
  8
0
 62
     7
  2
*U120
 70
     1
 10
0.0
 20
0.0
 30
0.0
  3
*U120
  1

  0
INSERT
  5
2449
  8
0
  6
CONTINUOUS
 62
     2
  2
YA
 10
1894.2404741005739197
 20
2485.8330205421671053
 30
0.0
 41
40.0
 42
40.0
 43
40.0
 50
172.1408111436323907
  0
POLYLINE
  5
244A
  8
0
  6
CONTINUOUS
 62
     2
 66
     1
 10
0.0
 20
0.0
 30
0.0
  0
VERTEX
  5
244B
  8
0
  6
CONTINUOUS
 62
     2
 10
1933.8647585875530694
 20
2480.3634612459418349
 30
0.0
  0
VERTEX
  5
244C
  8
0
  6
CONTINUOUS
 62
     2
 10
2110.5735704157268628
 20
2455.9713659192198065
 30
0.0
  0
SEQEND
  5
244D
  8
0
  6
CONTINUOUS
 62
     2
  0
ENDBLK
  5
244F
  8
0
 62
     7
  0
BLOCK
  8
0
 62
     7
  2
*U121
 70
     1
 10
0.0
 20
0.0
 30
0.0
  3
*U121
  1

  0
INSERT
  5
2451
  8
0
  6
CONTINUOUS
 62
     2
  2
YA
 10
5141.5777104977169074
 20
5073.0115714772246065
 30
0.0
 41
40.0
 42
40.0
 43
40.0
 50
328.0673830451822823
  0
POLYLINE
  5
2452
  8
0
  6
CONTINUOUS
 62
     2
 66
     1
 10
0.0
 20
0.0
 30
0.0
  0
VERTEX
  5
2453
  8
0
  6
CONTINUOUS
 62
     2
 10
5107.6308815268648686
 20
5094.1684333150251405
 30
0.0
  0
VERTEX
  5
2454
  8
0
  6
CONTINUOUS
 62
     2
 10
5043.4760533893722823
 20
5134.1519863089779392
 30
0.0
  0
SEQEND
  5
2455
  8
0
  6
CONTINUOUS
 62
     2
  0
ENDBLK
  5
2457
  8
0
 62
     7
  0
BLOCK
  8
0
 62
     7
  2
*U122
 70
     1
 10
0.0
 20
0.0
 30
0.0
  3
*U122
  1

  0
INSERT
  5
2459
  8
0
  6
CONTINUOUS
 62
     2
  2
YA
 10
4939.957471594971139
 20
4783.2436606835690327
 30
0.0
 41
40.0
 42
40.0
 43
40.0
 50
160.9489416803691029
  0
POLYLINE
  5
245A
  8
0
  6
CONTINUOUS
 62
     2
 66
     1
 10
0.0
 20
0.0
 30
0.0
  0
VERTEX
  5
245B
  8
0
  6
CONTINUOUS
 62
     2
 10
4977.7665945859644125
 20
4770.1872362629255804
 30
0.0
  0
VERTEX
  5
245C
  8
0
  6
CONTINUOUS
 62
     2
 10
5065.2467417092993855
 20
4739.9781798535841517
 30
0.0
  0
SEQEND
  5
245D
  8
0
  6
CONTINUOUS
 62
     2
  0
ENDBLK
  5
245F
  8
0
 62
     7
  0
BLOCK
  8
0
 62
     7
  2
*U123
 70
     1
 10
0.0
 20
0.0
 30
0.0
  3
*U123
  1

  0
INSERT
  5
2461
  8
0
  6
CONTINUOUS
 62
     2
  2
YA
 10
4929.164353324043077
 20
4577.323440430570372
 30
0.0
 41
40.0
 42
40.0
 43
40.0
 50
174.6141435747838955
  0
POLYLINE
  5
2462
  8
0
  6
CONTINUOUS
 62
     2
 66
     1
 10
0.0
 20
0.0
 30
0.0
  0
VERTEX
  5
2463
  8
0
  6
CONTINUOUS
 62
     2
 10
4968.9877599276651381
 20
4573.5689382688333353
 30
0.0
  0
VERTEX
  5
2464
  8
0
  6
CONTINUOUS
 62
     2
 10
5069.1100309911416844
 20
4564.1295327732796068
 30
0.0
  0
SEQEND
  5
2465
  8
0
  6
CONTINUOUS
 62
     2
  0
ENDBLK
  5
2467
  8
0
 62
     7
  0
BLOCK
  8
0
 62
     7
  2
*U124
 70
     1
 10
0.0
 20
0.0
 30
0.0
  3
*U124
  1

  0
TEXT
  5
2479
  8
0
 62
     2
 10
2379.9171609529898888
 20
4484.0249430887142807
 30
0.0
 40
50.0
  1
840
 50
90.0
 41
0.8
  0
ENDBLK
  5
247B
  8
0
 62
     7
  0
BLOCK
  8
0
 62
     7
  2
*U125
 70
     1
 10
0.0
 20
0.0
 30
0.0
  3
*U125
  1

  0
TEXT
  5
247D
  8
0
 62
     2
 10
2394.9171609529889793
 20
2059.7766013609589208
 30
0.0
 40
50.0
  1
2030
 50
90.0
 41
0.8
  0
ENDBLK
  5
247F
  8
0
 62
     7
  0
BLOCK
  8
0
 62
     7
  2
*U126
 70
     1
 10
0.0
 20
0.0
 30
0.0
  3
*U126
  1

  0
TEXT
  5
2481
  8
0
 62
     2
 10
1479.3119026720019065
 20
3426.0311746010561365
 30
0.0
 40
50.0
  1
890
 41
0.8
  0
ENDBLK
  5
2483
  8
0
 62
     7
  0
BLOCK
  8
0
 62
     7
  2
*U127
 70
     1
 10
0.0
 20
0.0
 30
0.0
  3
*U127
  1

  0
TEXT
  5
2485
  8
0
 62
     2
 10
1209.3119026720019065
 20
5229.1312653836803293
 30
0.0
 40
50.0
  1
350
 41
0.8
  0
ENDBLK
  5
2487
  8
0
 62
     7
  0
BLOCK
  8
0
 62
     7
  2
*U128
 70
     1
 10
0.0
 20
0.0
 30
0.0
  3
*U128
  1

  0
TEXT
  5
2489
  8
0
 62
     2
 10
1654.3118416720039932
 20
5229.1312653836803293
 30
0.0
 40
50.0
  1
540
 41
0.8
  0
ENDBLK
  5
248B
  8
0
 62
     7
  0
BLOCK
  8
0
 62
     7
  2
*U129
 70
     1
 10
0.0
 20
0.0
 30
0.0
  3
*U129
  1

  0
TEXT
  5
248D
  8
0
 62
     2
 10
1531.3728859230689068
 20
4092.3089330130142116
 30
0.0
 40
50.0
  1
R595.7
 50
275.5524491617330227
 41
0.8
  0
ENDBLK
  5
248F
  8
0
 62
     7
  0
BLOCK
  8
0
 62
     7
  2
*U130
 70
     1
 10
0.0
 20
0.0
 30
0.0
  3
*U130
  1

  0
TEXT
  5
2491
  8
0
 62
     2
 10
3394.0249569178599813
 20
1498.8173439085730934
 30
0.0
 40
50.0
  1
870
 50
90.0
 41
0.8
  0
ENDBLK
  5
2493
  8
0
 62
     7
  0
BLOCK
  8
0
 62
     7
  2
*U131
 70
     1
 10
0.0
 20
0.0
 30
0.0
  3
*U131
  1

  0
TEXT
  5
2495
  8
0
 62
     2
 10
3244.0249569178599813
 20
1673.5861302622549829
 30
0.0
 40
50.0
  1
1250
 50
90.0
 41
0.8
  0
ENDBLK
  5
2497
  8
0
 62
     7
  0
BLOCK
  8
0
 62
     7
  2
*U132
 70
     1
 10
0.0
 20
0.0
 30
0.0
  3
*U132
  1

  0
TEXT
  5
2499
  8
0
 62
     2
 10
3544.0249569178599813
 20
1238.8242204085770481
 30
0.0
 40
50.0
  1
350
 50
90.0
 41
0.8
  0
ENDBLK
  5
249B
  8
0
 62
     7
  0
BLOCK
  8
0
 62
     7
  2
*U133
 70
     1
 10
0.0
 20
0.0
 30
0.0
  3
*U133
  1

  0
TEXT
  5
249D
  8
0
 62
     2
 10
4726.3868788860900167
 20
1163.8241594085770885
 30
0.0
 40
50.0
  1
200
 50
90.0
 41
0.8
  0
ENDBLK
  5
249F
  8
0
 62
     7
  0
BLOCK
  8
0
 62
     7
  2
*U134
 70
     1
 10
0.0
 20
0.0
 30
0.0
  3
*U134
  1

  0
TEXT
  5
24A1
  8
0
 62
     2
 10
4346.4059092978768604
 20
3324.0081922453250627
 30
0.0
 40
50.0
  1
180
 41
0.8
  0
ENDBLK
  5
24A3
  8
0
 62
     7
  0
BLOCK
  8
0
 62
     7
  2
*U135
 70
     1
 10
0.0
 20
0.0
 30
0.0
  3
*U135
  1

  0
TEXT
  5
24A5
  8
0
 62
     2
 10
1599.3119026720019065
 20
631.290680765057914
 30
0.0
 40
50.0
  1
650
 41
0.8
  0
ENDBLK
  5
24A7
  8
0
 62
     7
  0
BLOCK
  8
0
 62
     7
  2
*U136
 70
     1
 10
0.0
 20
0.0
 30
0.0
  3
*U136
  1

  0
TEXT
  5
24A9
  8
0
 62
     2
 10
1824.3119026720019065
 20
781.290680765057914
 30
0.0
 40
50.0
  1
200
 41
0.8
  0
ENDBLK
  5
24AB
  8
0
 62
     7
  0
BLOCK
  8
0
 62
     7
  2
*U137
 70
     1
 10
0.0
 20
0.0
 30
0.0
  3
*U137
  1

  0
TEXT
  5
24AD
  8
0
 62
     2
 10
1624.3119026720019065
 20
781.290680765057914
 30
0.0
 40
50.0
  1
200
 41
0.8
  0
ENDBLK
  5
24AF
  8
0
 62
     7
  0
BLOCK
  8
0
 62
     7
  2
*U138
 70
     1
 10
0.0
 20
0.0
 30
0.0
  3
*U138
  1

  0
TEXT
  5
24B1
  8
0
 62
     2
 10
4012.5963854883530075
 20
658.4985626445850357
 30
0.0
 40
50.0
  1
840
 41
0.8
  0
ENDBLK
  5
24B3
  8
0
 62
     7
  0
BLOCK
  8
0
 62
     7
  2
*U139
 70
     1
 10
0.0
 20
0.0
 30
0.0
  3
*U139
  1

  0
TEXT
  5
24B5
  8
0
 62
     2
 10
4112.5963854883530075
 20
808.4985626445851494
 30
0.0
 40
50.0
  1
640
 41
0.8
  0
ENDBLK
  5
24B7
  8
0
 62
     7
  0
BLOCK
  8
0
 62
     7
  2
*U140
 70
     1
 10
0.0
 20
0.0
 30
0.0
  3
*U140
  1

  0
TEXT
  5
24B9
  8
0
 62
     2
 10
4188.9955054724068759
 20
958.4985626445851494
 30
0.0
 40
50.0
  1
50
 41
0.8
  0
ENDBLK
  5
24BB
  8
0
 62
     7
  0
BLOCK
  8
0
 62
     7
  2
*U141
 70
     1
 10
0.0
 20
0.0
 30
0.0
  3
*U141
  1

  0
TEXT
  5
24BD
  8
0
 62
     2
 10
4361.4059092978768604
 20
958.4985626445851494
 30
0.0
 40
50.0
  1
150
 41
0.8
  0
ENDBLK
  5
24BF
  8
0
 62
     7
  0
BLOCK
  8
0
 62
     7
  2
*U142
 70
     1
 10
0.0
 20
0.0
 30
0.0
  3
*U142
  1

  0
TEXT
  5
24C1
  8
0
 62
     2
 10
989.1907566304440707
 20
1163.8242204085770481
 30
0.0
 40
50.0
  1
200
 50
90.0
 41
0.8
  0
ENDBLK
  5
24C3
  8
0
 62
     7
  0
BLOCK
  8
0
 62
     7
  2
*U143
 70
     1
 10
0.0
 20
0.0
 30
0.0
  3
*U143
  1

  0
TEXT
  5
24C5
  8
0
 62
     2
 10
4135.0960666492537712
 20
2157.5524203627142015
 30
0.0
 40
50.0
  1
235
 41
0.8
  0
ENDBLK
  5
24C7
  8
0
 62
     7
  0
ENDSEC
  0
SECTION
  2
ENTITIES
  0
LINE
  5
1146
  8
0
 62
     3
 10
1518.2404741005150299
 20
4715.4535145172840203
 30
0.0
 11
1164.0154743909370154
 21
4715.4535145172840203
 31
0.0
  0
LINE
  5
1147
  8
0
 62
     3
 10
1543.2404741005159394
 20
4715.4535145173431374
 30
0.0
 11
1821.1950195550450644
 21
4715.4535145173431374
 31
0.0
  0
ARC
  5
1148
  8
0
 62
     3
 10
1897.8528519545220661
 20
4697.4582018894725479
 30
0.0
 40
17.9994842407971909
 50
353.6054322508130099
 51
88.766418081731544
  0
LINE
  5
1149
  8
0
 62
     3
 10
1915.7403521005760467
 20
4695.4535145172849298
 30
0.0
 11
1915.7403521005760467
 21
4245.4535145172849298
 31
0.0
  0
LINE
  5
114A
  8
0
  6
CONTINUOUS
 62
     7
 10
5909.2857142856810242
 20
580.0003399999694693
 30
0.0
 11
3669.2857142856810242
 21
580.0003399999694693
 31
0.0
  0
LINE
  5
114B
  8
0
  6
CONTINUOUS
 62
     2
 10
3669.2857142856810242
 20
340.0002999999560984
 30
0.0
 11
7809.2857142856819337
 21
340.000339999969583
 31
0.0
  0
LINE
  5
114C
  8
0
  6
CONTINUOUS
 62
     2
 10
3669.2857142856810242
 20
460.0003399999695262
 30
0.0
 11
7809.2857142856819337
 21
460.0003399999695262
 31
0.0
  0
LINE
  5
114D
  8
0
  6
CONTINUOUS
 62
     2
 10
3669.2857142856810242
 20
220.0003199999918877
 30
0.0
 11
7809.2857142856819337
 21
220.0003399999696114
 31
0.0
  0
LINE
  5
114E
  8
0
  6
CONTINUOUS
 62
     2
 10
5909.2857142856810242
 20
100.0003399999695972
 30
0.0
 11
3669.2857142856810242
 21
100.0001799999735965
 31
0.0
  0
LINE
  5
114F
  8
0
  6
CONTINUOUS
 62
     2
 10
5669.2857142856810242
 20
100.0002999999559989
 30
0.0
 11
5669.2857142856810242
 21
580.0003399999694693
 31
0.0
  0
LINE
  5
1150
  8
0
  6
CONTINUOUS
 62
     3
 10
3719.2857142856810242
 20
360.0003999999607913
 30
0.0
 11
3819.2857142856810242
 21
360.0003999999607913
 31
0.0
  0
LINE
  5
1151
  8
0
  6
CONTINUOUS
 62
     3
 10
3819.2857142856810242
 20
360.0003999999607913
 30
0.0
 11
3769.2857142856810242
 21
446.6029400000115857
 31
0.0
  0
LINE
  5
1152
  8
0
  6
CONTINUOUS
 62
     3
 10
3769.2857142856810242
 20
446.6029400000115857
 30
0.0
 11
3719.2857142856810242
 21
360.0003600000055144
 31
0.0
  0
LINE
  5
1153
  8
0
  6
CONTINUOUS
 62
     7
 10
3669.2857142856810242
 20
0.000339999969583
 30
0.0
 11
3669.2857142856810242
 21
580.0003399999694693
 31
0.0
  0
LINE
  5
1154
  8
0
  6
CONTINUOUS
 62
     2
 10
5269.2857142856810242
 20
100.0002999999559989
 30
0.0
 11
5269.2857142856810242
 21
580.0003399999694693
 31
0.0
  0
LINE
  5
1155
  8
0
  6
CONTINUOUS
 62
     2
 10
4869.2857142856801147
 20
100.0002600000006936
 30
0.0
 11
4869.2857142856801147
 21
580.0003399999694693
 31
0.0
  0
LINE
  5
1156
  8
0
  6
CONTINUOUS
 62
     2
 10
4469.2857142856810242
 20
100.0002199999870953
 30
0.0
 11
4469.2857142856810242
 21
580.0003399999694693
 31
0.0
  0
LINE
  5
1157
  8
0
  6
CONTINUOUS
 62
     2
 10
3869.2857142856810242
 20
100.0001799999735965
 30
0.0
 11
3869.2857142856810242
 21
580.0003399999694693
 31
0.0
  0
TEXT
  5
1158
  8
0
  6
CONTINUOUS
 62
     3
 10
4503.8157342857448384
 20
20.5690999999642408
 30
0.0
 40
60.0
  1
REVISIONS
  0
TEXT
  5
1159
  8
0
  6
CONTINUOUS
 62
     3
 10
4509.2857142856801147
 20
140.0002000000094995
 30
0.0
 40
40.0
  1
APPROVED
  0
TEXT
  5
115A
  8
0
  6
CONTINUOUS
 62
     3
 10
3731.6714113780758453
 20
140.0001799999735965
 30
0.0
 40
40.0
  1
NO,
  0
LINE
  5
115B
  8
0
  6
CONTINUOUS
 62
     3
 10
3719.2857142856810242
 20
240.0003199999918877
 30
0.0
 11
3819.2857142856810242
 21
240.0003199999918877
 31
0.0
  0
LINE
  5
115C
  8
0
  6
CONTINUOUS
 62
     3
 10
3819.2857142856810242
 20
240.0003199999918877
 30
0.0
 11
3769.2857142856810242
 21
326.6028599999845028
 31
0.0
  0
LINE
  5
115D
  8
0
  6
CONTINUOUS
 62
     3
 10
3769.2857142856810242
 20
326.6028599999845028
 30
0.0
 11
3719.2857142856810242
 21
240.0002799999784031
 31
0.0
  0
TEXT
  5
115E
  8
0
  6
CONTINUOUS
 62
     3
 10
3949.2857142856810242
 20
140.0001599999959012
 30
0.0
 40
40.0
  1
DESCRIPTION
  0
TEXT
  5
115F
  8
0
  6
CONTINUOUS
 62
     3
 10
4929.2857142856810242
 20
140.0002000000094995
 30
0.0
 40
40.0
  1
CHECKED
  0
TEXT
  5
1160
  8
0
  6
CONTINUOUS
 62
     3
 10
5329.2857142856810242
 20
140.0002799999782894
 30
0.0
 40
40.0
  1
REVISED
  0
TEXT
  5
1161
  8
0
  6
CONTINUOUS
 62
     3
 10
5709.2857142856810242
 20
140.0002799999782894
 30
0.0
 40
40.0
  1
DATE
  0
LINE
  5
1162
  8
0
  6
CONTINUOUS
 62
     3
 10
3719.2857142856810242
 20
480.0003999999606776
 30
0.0
 11
3819.2857142856810242
 21
480.0003999999606776
 31
0.0
  0
LINE
  5
1163
  8
0
  6
CONTINUOUS
 62
     3
 10
3819.2857142856810242
 20
480.0003999999606776
 30
0.0
 11
3769.2857142856810242
 21
566.602940000011472
 31
0.0
  0
LINE
  5
1164
  8
0
  6
CONTINUOUS
 62
     3
 10
3769.2857142856810242
 20
566.602940000011472
 30
0.0
 11
3719.2857142856810242
 21
480.0003600000054007
 31
0.0
  0
LINE
  5
1165
  8
0
  6
CONTINUOUS
 62
     2
 10
6859.2857142856819337
 20
580.0002600000007078
 30
0.0
 11
6859.2857142856819337
 21
220.0003399999696114
 31
0.0
  0
LINE
  5
1166
  8
0
  6
CONTINUOUS
 62
     7
 10
5909.2850942857330665
 20
1100.0002999999560416
 30
0.0
 11
5909.2857142856810242
 21
0.000339999969583
 31
0.0
  0
TEXT
  5
1167
  8
0
  6
CONTINUOUS
 62
     3
 10
6413.5239942857288042
 20
29.2501000000047497
 30
0.0
 40
120.0
  1
3-RO-17179
 41
0.8
  0
TEXT
  5
1168
  8
0
  6
CONTINUOUS
 62
     3
 10
6879.2857142856819337
 20
260.0003199999919161
 30
0.0
 40
40.0
  1
DRAWN BY
  0
TEXT
  5
1169
  8
0
  6
CONTINUOUS
 62
     3
 10
5929.2857142856810242
 20
260.000339999969583
 30
0.0
 40
40.0
  1
CHECKED BY
  0
TEXT
  5
116A
  8
0
  6
CONTINUOUS
 62
     3
 10
5929.2857142856810242
 20
160.0003399999696114
 30
0.0
 40
40.0
  1
DWG.NO,
  0
TEXT
  5
116B
  8
0
  6
CONTINUOUS
 62
     3
 10
7355.3619178411327084
 20
251.9075237654614909
 30
0.0
 40
60.0
  1
M.TAKAHASHI
 41
0.7
  0
TEXT
  5
116C
  8
0
  6
CONTINUOUS
 62
     3
 10
6879.2857142856819337
 20
380.000339999969583
 30
0.0
 40
40.0
  1
DESIGNED BY
  0
LINE
  5
116D
  8
0
  6
CONTINUOUS
 62
     7
 10
7809.2857142856819337
 20
1100.0003799999828971
 30
0.0
 11
5909.2857142856810242
 21
1100.0003799999828971
 31
0.0
  0
LINE
  5
116E
  8
0
  6
CONTINUOUS
 62
     2
 10
5909.2857142856810242
 20
900.0003799999831244
 30
0.0
 11
7809.2857142856819337
 21
900.0003799999831244
 31
0.0
  0
LINE
  5
116F
  8
0
  6
CONTINUOUS
 62
     2
 10
5909.2857142856810242
 20
580.0003399999694693
 30
0.0
 11
7809.2857142856819337
 21
580.0003399999694693
 31
0.0
  0
TEXT
  5
1170
  8
0
  6
CONTINUOUS
 62
     3
 10
6456.8168121696216986
 20
484.8637616562190829
 30
0.0
 40
60.0
  1
1/20
  0
TEXT
  5
1171
  8
0
  6
CONTINUOUS
 62
     3
 10
5929.2857142856810242
 20
380.000339999969583
 30
0.0
 40
40.0
  1
APPROVED BY
  0
TEXT
  5
1172
  8
0
  6
CONTINUOUS
 62
     3
 10
5929.2857142856810242
 20
500.0002999999559847
 30
0.0
 40
40.0
  1
SCALE
  0
TEXT
  5
1173
  8
0
  6
CONTINUOUS
 62
     3
 10
6879.2857142856819337
 20
500.0002999999559847
 30
0.0
 40
40.0
  1
DATE
  0
DIMENSION
  5
1174
  8
0
  6
CONTINUOUS
 62
     2
  2
*D95
 10
2399.9171609529889793
 20
4955.4535145172867487
 30
0.0
 11
2354.9171609529889793
 21
4535.4535145172858392
 31
0.0
 70
     0
 13
1975.7404741005739197
 23
4115.4535145172849298
 33
0.0
 14
1975.7404741005739197
 24
4955.4535145172849298
 34
0.0
 50
90.0000049992448936
1001
ACAD
1000
DSTYLE
1002
{
1070
   340
1005
F
1002
}
  0
DIMENSION
  5
1175
  8
0
  6
CONTINUOUS
 62
     2
  2
*D96
 10
2414.9171609529889793
 20
3145.2527918371511078
 30
0.0
 11
2369.9171609529889793
 21
2130.252791837148834
 31
0.0
 70
     0
 13
2233.9568900989252143
 23
1115.2527918371490614
 33
0.0
 14
1975.7404741005739197
 24
3145.252791837148834
 34
0.0
 50
90.0
1001
ACAD
1000
DSTYLE
1002
{
1070
   340
1005
F
1002
}
  0
DIMENSION
  5
1176
  8
0
  6
CONTINUOUS
 62
     2
  2
*D97
 10
1975.7404741005739197
 20
3406.0311746010561365
 30
0.0
 11
1530.7404741005739197
 21
3451.0311746010561365
 31
0.0
 70
     0
 13
1085.7404741005739197
 23
3145.252791837148834
 33
0.0
 14
1975.7404741005739197
 24
3145.252791837148834
 34
0.0
1001
ACAD
1000
DSTYLE
1002
{
1070
   340
1005
F
1002
}
  0
LINE
  5
1177
  8
0
  6
CONTINUOUS
 62
     2
 10
1918.2115641412090099
 20
1143.2920463868649676
 30
0.0
 11
2129.1716681232210249
 21
1411.2083676817130709
 31
0.0
  0
LINE
  5
1178
  8
0
 62
     3
 10
1530.7404741005739197
 20
1170.252669837150961
 30
0.0
 11
1530.7404741005739197
 21
1465.2529138371460249
 31
0.0
  0
LINE
  5
1179
  8
0
 62
     3
 10
1875.7404741005739197
 20
1115.2527918371490614
 30
0.0
 11
1875.7404741005739197
 21
1465.2530358371438979
 31
0.0
  0
LINE
  5
117A
  8
0
 62
     3
 10
1185.7404741005739197
 20
1115.2527918371490614
 30
0.0
 11
1185.7404741005739197
 21
1465.2527918371490614
 31
0.0
  0
LINE
  5
117B
  8
壁
 62
     5
 10
1085.7404741005739197
 20
1115.2527918371490614
 30
0.0
 11
823.1542581005487591
 21
1115.2527918371490614
 31
0.0
  0
LINE
  5
117C
  8
壁
 62
     1
 10
821.1076611005701125
 20
1065.2527918371490614
 30
0.0
 11
871.1076611005701125
 21
1115.2527918371490614
 31
0.0
  0
LINE
  5
117D
  8
壁
 62
     1
 10
962.5295361005701125
 20
1065.2527918371490614
 30
0.0
 11
1012.5295361005699988
 21
1115.2527918371490614
 31
0.0
  0
LINE
  5
117E
  8
壁
 62
     1
 10
891.8185991005739197
 20
1065.2527918371490614
 30
0.0
 11
941.8185991005739197
 21
1115.2527918371490614
 31
0.0
  0
LINE
  5
117F
  8
壁
 62
     1
 10
1033.2404741005739197
 20
1065.2527918371490614
 30
0.0
 11
1083.2404741005739197
 21
1115.2527918371490614
 31
0.0
  0
LINE
  5
1180
  8
0
 62
     3
 10
1185.7404741005739197
 20
1170.2527918371490614
 30
0.0
 11
1875.7404741005739197
 21
1170.2527918371490614
 31
0.0
  0
LINE
  5
1181
  8
壁
 62
     1
 10
2102.2791728778979632
 20
1065.2527918371490614
 30
0.0
 11
2152.2791728778979632
 21
1115.2527918371490614
 31
0.0
  0
LINE
  5
1182
  8
壁
 62
     1
 10
2031.5682348778939286
 20
1065.2527918371490614
 30
0.0
 11
2081.5682348778941559
 21
1115.2527918371490614
 31
0.0
  0
LINE
  5
1183
  8
壁
 62
     1
 10
2172.9901098778941559
 20
1065.2527918371490614
 30
0.0
 11
2222.9901098778941559
 21
1115.2527918371490614
 31
0.0
  0
LINE
  5
1184
  8
0
 62
     3
 10
1975.7404741005739197
 20
1465.2530351555910784
 30
0.0
 11
1085.7404741005739197
 21
1465.2527925187021083
 31
0.0
  0
LINE
  5
1185
  8
0
 62
     3
 10
1975.7404741005739197
 20
1893.7047345580069759
 30
0.0
 11
1085.7404741005739197
 21
1893.7047345580069759
 31
0.0
  0
LINE
  5
1186
  8
0
 62
     3
 10
1085.7404741005739197
 20
1985.2527918371490614
 30
0.0
 11
1975.7404741005739197
 21
1985.2527918371490614
 31
0.0
  0
LINE
  5
1187
  8
0
 62
     3
 10
1975.7404741005739197
 20
2059.5007028371328488
 30
0.0
 11
1085.7404741005739197
 21
2059.5007028371910565
 31
0.0
  0
INSERT
  5
1188
  8
0
 62
     7
  2
*U106
 10
0.0
 20
0.0
 30
0.0
1001
ACAD
1000
DSTYLE
1002
{
1070
   340
1005
F
1002
}
  0
INSERT
  5
1189
  8
0
 62
     7
  2
*U107
 10
0.0
 20
0.0
 30
0.0
1001
ACAD
1000
DSTYLE
1002
{
1070
   340
1005
F
1002
}
  0
LINE
  5
118A
  8
0
 62
     3
 10
1145.7403521005760467
 20
1985.2527918371490614
 30
0.0
 11
1145.7403521005760467
 21
2039.5007028371910565
 31
0.0
  0
CIRCLE
  5
118B
  8
0
  6
CONTINUOUS
 62
     2
 10
936.6989035667502321
 20
2108.0164964129221516
 30
0.0
 40
49.9999999999799911
  0
TEXT
  5
118C
  8
0
  6
CONTINUOUS
 62
     2
 10
920.6989035667502321
 20
2078.0164964129221516
 30
0.0
 40
60.0
  1
5
 41
0.8
 72
     1
 11
936.6989035667502321
 21
2108.0164964129221516
 31
0.0
 73
     2
  0
LINE
  5
118D
  8
0
  6
CONTINUOUS
 62
     2
 10
1817.2768620782881044
 20
1677.2816352547959013
 30
0.0
 11
2113.9084627863489914
 21
1800.12346494389908
 31
0.0
  0
CIRCLE
  5
118E
  8
0
  6
CONTINUOUS
 62
     2
 10
2160.1039260244579054
 20
1450.4918937598699813
 30
0.0
 40
50.0
  0
TEXT
  5
118F
  8
0
  6
CONTINUOUS
 62
     2
 10
2125.8182117387441394
 20
1420.4918937598699813
 30
0.0
 40
60.0
  1
17
 41
0.8
 72
     1
 11
2160.1039260244579054
 21
1450.4918937598699813
 31
0.0
 73
     2
  0
LINE
  5
1190
  8
0
  6
CONTINUOUS
 62
     2
 10
1811.325557100585911
 20
2022.7158816477749497
 30
0.0
 11
2113.7810828187498373
 21
2083.2865296140080318
 31
0.0
  0
CIRCLE
  5
1191
  8
0
  6
CONTINUOUS
 62
     2
 10
2160.1039260244579054
 20
1819.2540471676040852
 30
0.0
 40
50.0
  0
TEXT
  5
1192
  8
0
  6
CONTINUOUS
 62
     2
 10
2126.9610688816001129
 20
1789.2540471676040852
 30
0.0
 40
60.0
  1
16
 41
0.8
 72
     1
 11
2160.1039260244579054
 21
1819.2540471676040852
 31
0.0
 73
     2
  0
LINE
  5
1193
  8
0
 62
     3
 10
1915.7404741005739197
 20
1985.2527918371490614
 30
0.0
 11
1915.7404741005739197
 21
2039.5007028371910565
 31
0.0
  0
CIRCLE
  5
1194
  8
0
  6
CONTINUOUS
 62
     2
 10
2160.1039260244579054
 20
2102.1065773646701018
 30
0.0
 40
49.999999999999801
  0
TEXT
  5
1195
  8
0
  6
CONTINUOUS
 62
     2
 10
2154.3896403101721262
 20
2072.1065773646701018
 30
0.0
 40
60.0
  1
1
 41
0.8
 72
     1
 11
2160.1039260244579054
 21
2102.1065773646701018
 31
0.0
 73
     2
  0
INSERT
  5
1196
  8
0
 62
     7
  2
*U108
 10
0.0
 20
0.0
 30
0.0
1001
ACAD
1000
DSTYLE
1002
{
1070
   340
1005
F
1002
}
  0
CIRCLE
  5
1197
  8
0
  6
CONTINUOUS
 62
     2
 10
936.6989035667502321
 20
3047.7127323536560652
 30
0.0
 40
50.0
  0
TEXT
  5
1198
  8
0
  6
CONTINUOUS
 62
     2
 10
919.5560464238932354
 20
3017.7127323536551557
 30
0.0
 40
60.0
  1
4
 41
0.8
 72
     1
 11
936.6989035667502321
 21
3047.7127323536560652
 31
0.0
 73
     2
  0
INSERT
  5
1199
  8
0
 62
     7
  2
*U109
 10
0.0
 20
0.0
 30
0.0
1001
ACAD
1000
DSTYLE
1002
{
1070
   340
1005
F
1002
}
  0
TEXT
  5
119A
  8
0
  6
CONTINUOUS
 62
     2
 10
2144.1039260244579054
 20
3057.5955460376571864
 30
0.0
 40
60.0
  1
2
 41
0.8
 72
     1
 11
2160.1039260244579054
 21
3087.5955460376580959
 31
0.0
 73
     2
  0
CIRCLE
  5
119B
  8
0
  6
CONTINUOUS
 62
     2
 10
2160.1039260244579054
 20
3087.5955460376580959
 30
0.0
 40
49.9999999999980105
  0
CIRCLE
  5
119C
  8
0
  6
CONTINUOUS
 62
     2
 10
2160.1039260244579054
 20
2987.595546037890017
 30
0.0
 40
49.9999999998000035
  0
TEXT
  5
119D
  8
0
  6
CONTINUOUS
 62
     2
 10
2144.1039260244579054
 20
2957.595546037890017
 30
0.0
 40
60.0
  1
3
 41
0.8
 72
     1
 11
2160.1039260244579054
 21
2987.595546037890017
 31
0.0
 73
     2
  0
INSERT
  5
119E
  8
0
 62
     7
  2
*U110
 10
0.0
 20
0.0
 30
0.0
1001
ACAD
1000
DSTYLE
1002
{
1070
   340
1005
F
1002
}
  0
LINE
  5
119F
  8
0
 62
     3
 10
1085.7404741005739197
 20
4775.4535145172849298
 30
0.0
 11
1975.7404741005739197
 21
4775.4535145172849298
 31
0.0
  0
DIMENSION
  5
11A0
  8
0
  6
CONTINUOUS
 62
     2
  2
*D98
 10
1435.7404741005739197
 20
5209.1312653836794198
 30
0.0
 11
1260.7404741005739197
 21
5254.1312653836803293
 31
0.0
 70
     0
 13
1085.7404741005739197
 23
4955.4535145172849298
 33
0.0
 14
1435.7404741005739197
 24
5069.531864789489191
 34
0.0
1001
ACAD
1000
DSTYLE
1002
{
1070
   340
1005
F
1002
}
  0
DIMENSION
  5
11A1
  8
0
  6
CONTINUOUS
 62
     2
  2
*D99
 10
1975.7403521005760467
 20
5209.1312653836794198
 30
0.0
 11
1705.7404131005750969
 21
5254.1312653836803293
 31
0.0
 70
     0
 13
1435.7404741005739197
 23
5069.531864789489191
 33
0.0
 14
1975.7403521005760467
 24
4955.4535145172849298
 34
0.0
1001
ACAD
1000
DSTYLE
1002
{
1070
   340
1005
F
1002
}
  0
LINE
  5
11A2
  8
壁
 62
     1
 10
1840.7408687005508909
 20
4955.4535145172849298
 30
0.0
 11
1920.0123527005200685
 21
5034.7254875172511674
 31
0.0
  0
LINE
  5
11A3
  8
壁
 62
     1
 10
1755.8878407005679492
 20
4955.4535145172849298
 30
0.0
 11
1835.1598137005350964
 21
5034.7254875172511674
 31
0.0
  0
LINE
  5
11A4
  8
壁
 62
     1
 10
1671.0353017005249967
 20
4955.4535145172849298
 30
0.0
 11
1750.3072747005498968
 21
5034.7254875172511674
 31
0.0
  0
LINE
  5
11A5
  8
壁
 62
     1
 10
1586.1827627005400245
 20
4955.4535145172849298
 30
0.0
 11
1665.4547357005069443
 21
5034.7254875172511674
 31
0.0
  0
LINE
  5
11A6
  8
壁
 62
     1
 10
1501.3302237005550523
 20
4955.4535145172849298
 30
0.0
 11
1580.6021967005219722
 21
5034.7254875172511674
 31
0.0
  0
ARC
  5
11A7
  8
0
  6
CONTINUOUS
 62
     2
 10
1442.0772504338528961
 20
2843.4637073681810762
 30
0.0
 40
21.2610647790409999
 50
286.7292792953895741
 51
48.2460212607567129
  0
ARC
  5
11A8
  8
0
  6
CONTINUOUS
 62
     2
 10
1454.3172432526480407
 20
2802.7413047137670219
 30
0.0
 40
21.2610647790434015
 50
106.7292792953896026
 51
228.2460212607566916
  0
ARC
  5
11A9
  8
0
  6
CONTINUOUS
 62
     2
 10
1903.3438256772349177
 20
1144.2371120816089842
 30
0.0
 40
14.8827453453283205
 50
358.1805313400848831
 51
119.6972733027229054
  0
ARC
  5
11AA
  8
0
  6
CONTINUOUS
 62
     2
 10
1933.0943094865069725
 20
1143.2920463868649676
 30
0.0
 40
14.8827453453220304
 50
178.1805313400849968
 51
299.6972733027229197
  0
ARC
  5
11AB
  8
0
  6
CONTINUOUS
 62
     2
 10
1805.3003637812801117
 20
1686.116769523999892
 30
0.0
 40
14.8827453453328804
 50
323.5835825222400786
 51
85.1003244878983196
  0
ARC
  5
11AC
  8
0
  6
CONTINUOUS
 62
     2
 10
1829.2533603752960971
 20
1668.4465009855339304
 30
0.0
 40
14.8827453453308198
 50
143.583582522240107
 51
265.1003244878983196
  0
ARC
  5
11AD
  8
0
  6
CONTINUOUS
 62
     2
 10
1799.349058803519938
 20
2031.5510159170369207
 30
0.0
 40
14.8827453453328804
 50
323.5835825222400786
 51
85.1003244878983196
  0
ARC
  5
11AE
  8
0
  6
CONTINUOUS
 62
     2
 10
1823.3020553975950406
 20
2013.880747378570959
 30
0.0
 40
14.8827453453308198
 50
143.583582522240107
 51
265.1003244878983196
  0
ARC
  5
11AF
  8
0
 62
     3
 10
1165.7403521005760467
 20
2039.5007028371910565
 30
0.0
 40
20.0
 50
90.0
 51
180.0
  0
ARC
  5
11B0
  8
0
 62
     3
 10
1895.7404741005739197
 20
2039.5007028371910565
 30
0.0
 40
20.0
 50
0.0
 51
90.0
  0
INSERT
  5
11B1
  8
0
 62
     7
  2
*U111
 10
0.0
 20
0.0
 30
0.0
1001
ACAD
1000
DSTYLE
1002
{
1070
   340
1005
F
1002
}
  0
CIRCLE
  5
11B2
  8
0
  6
CONTINUOUS
 62
     2
 10
2160.1039260244579054
 20
2554.4190759944622187
 30
0.0
 40
50.0
  0
LINE
  5
11B3
  8
壁
 62
     1
 10
1280.5163479222680962
 20
4955.4535145172849298
 30
0.0
 11
1359.7883209222929963
 21
5034.7254875172511674
 31
0.0
  0
LINE
  5
11B4
  8
壁
 62
     1
 10
1113.3112699222979245
 20
4955.4535145172849298
 30
0.0
 11
1190.0832429222639348
 21
5034.7254875172511674
 31
0.0
  0
LINE
  5
11B5
  8
壁
 62
     1
 10
1195.6638089222828967
 20
4955.4535145172849298
 30
0.0
 11
1274.935781922248907
 21
5034.7254875172511674
 31
0.0
  0
LINE
  5
11B6
  8
壁
 62
     5
 10
1975.7404741005739197
 20
1115.2527918371490614
 30
0.0
 11
2233.9568900989252143
 21
1115.2527918371490614
 31
0.0
  0
LINE
  5
11B7
  8
0
 62
     3
 10
1518.2404741005150299
 20
4665.4535145172849298
 30
0.0
 11
1248.2404741005739197
 21
4665.4535145172849298
 31
0.0
  0
ARC
  5
11B8
  8
0
 62
     3
 10
1248.2404741005739197
 20
4655.4535145172849298
 30
0.0
 40
10.0
 50
90.0
 51
180.0
  0
LINE
  5
11B9
  8
0
 62
     3
 10
1238.2404741005739197
 20
4655.4535145172849298
 30
0.0
 11
1238.2404741005739197
 21
4370.453270517288729
 31
0.0
  0
ARC
  5
11BA
  8
0
 62
     3
 10
1248.2404741005739197
 20
4370.453270517288729
 30
0.0
 40
10.0
 50
180.0
 51
270.0
  0
LINE
  5
11BB
  8
0
 62
     3
 10
1248.2404741005739197
 20
4360.4532705172896385
 30
0.0
 11
1813.2403521005760467
 21
4360.4532705172896385
 31
0.0
  0
ARC
  5
11BC
  8
0
 62
     3
 10
1813.2403521005760467
 20
4370.453270517288729
 30
0.0
 40
10.0
 50
270.0
 51
0.0
  0
LINE
  5
11BD
  8
0
 62
     3
 10
1823.2403521005760467
 20
4370.453270517288729
 30
0.0
 11
1823.2403521005760467
 21
4655.4535145172849298
 31
0.0
  0
ARC
  5
11BE
  8
0
 62
     3
 10
1813.2403521005760467
 20
4655.4535145172849298
 30
0.0
 40
10.0
 50
0.0
 51
90.0
  0
LINE
  5
11BF
  8
0
 62
     3
 10
1813.2403521005760467
 20
4665.4535145172849298
 30
0.0
 11
1543.2404741005159394
 21
4665.4535145172849298
 31
0.0
  0
LINE
  5
11C0
  8
0
 62
     1
 10
1281.601963646942977
 20
1985.2527918371490614
 30
0.0
 11
1281.601963646942977
 21
1893.7047345580069759
 31
0.0
  0
LINE
  5
11C1
  8
0
 62
     1
 10
1779.8789950262289494
 20
1985.2527918371490614
 30
0.0
 11
1779.8789950262289494
 21
1893.7047345580069759
 31
0.0
  0
LINE
  5
11C2
  8
0
  6
CONTINUOUS
 62
     3
 10
1975.7404741005739197
 20
4115.4535145172849298
 30
0.0
 11
1779.8789950261120794
 21
4115.4535145172849298
 31
0.0
  0
ARC
  5
11C3
  8
0
  6
CONTINUOUS
 62
     3
 10
1779.8789950261120794
 20
4165.4535145173431374
 30
0.0
 40
50.0000000000618527
 50
247.303945054061586
 51
270.0
  0
ARC
  5
11C4
  8
0
  6
CONTINUOUS
 62
     3
 10
1530.7404793365280966
 20
3568.8320009024469073
 30
0.0
 40
596.5502618545317546
 50
67.3380947967053629
 51
112.6619052032945945
  0
ARC
  5
11C5
  8
0
  6
CONTINUOUS
 62
     3
 10
1281.601963646942977
 20
4165.4535145172849298
 30
0.0
 40
49.9999999999892779
 50
270.0
 51
292.6960549459383856
  0
LINE
  5
11C6
  8
0
  6
CONTINUOUS
 62
     3
 10
1281.601963646942977
 20
4115.4535145172849298
 30
0.0
 11
1085.7404741005739197
 21
4115.4534900699509308
 31
0.0
  0
LINE
  5
11C7
  8
0
  6
CONTINUOUS
 62
     3
 10
1085.7404741005739197
 20
4115.4534900699509308
 30
0.0
 11
1085.7404741005739197
 21
4955.4535145172849298
 31
0.0
  0
LINE
  5
11C8
  8
0
  6
CONTINUOUS
 62
     3
 10
1085.7404741005739197
 20
4955.4535145172849298
 30
0.0
 11
1975.7404741005739197
 21
4955.4535145172849298
 31
0.0
  0
LINE
  5
11C9
  8
0
  6
CONTINUOUS
 62
     3
 10
1975.7404741005739197
 20
4955.4535145172849298
 30
0.0
 11
1975.7404741005739197
 21
4115.4535145172849298
 31
0.0
  0
DIMENSION
  5
11CA
  8
0
  6
CONTINUOUS
 62
     2
  2
*D100
 10
1530.7404793363539284
 20
3866.0425977943828002
 30
0.0
 11
1565.931277843541011
 21
3995.1970514131248819
 31
0.0
 70
   132
  1
R595.7
 15
1501.7026794221019372
 25
4164.7453599872551422
 35
0.0
 40
0.0
1001
ACAD
1000
DSTYLE
1002
{
1070
   340
1005
F
1002
}
  0
DIMENSION
  5
11CB
  8
0
  6
CONTINUOUS
 62
     2
  2
*D101
 10
3414.0249569178608908
 20
1985.2390388371429708
 30
0.0
 11
3369.0249569178599813
 21
1550.2459153371451066
 31
0.0
 70
     0
  1
870
 13
3844.0249569169250208
 23
1115.2527918371490614
 33
0.0
 14
3654.0249509169370867
 24
1985.2390388371420613
 34
0.0
 50
90.0
1001
ACAD
1000
DSTYLE
1002
{
1070
   340
1005
F
1002
}
  0
DIMENSION
  5
11CC
  8
0
  6
CONTINUOUS
 62
     2
  2
*D102
 10
3264.0249569178608908
 20
1115.2527918371490614
 30
0.0
 11
3219.0249569178599813
 21
1740.2527969289219527
 31
0.0
 70
     0
 13
4042.2746249168990289
 23
2365.2528020206950714
 33
0.0
 14
3844.0249569169250208
 24
1115.2527918371490614
 34
0.0
 50
90.0
1001
ACAD
1000
DSTYLE
1002
{
1070
   340
1005
F
1002
}
  0
DIMENSION
  5
11CD
  8
0
  6
CONTINUOUS
 62
     2
  2
*D103
 10
3564.0249569178608908
 20
1465.2527918371490614
 30
0.0
 11
3519.0249569178599813
 21
1290.2527918371479245
 31
0.0
 70
     0
 13
3844.0249569169250208
 23
1115.2527918371490614
 33
0.0
 14
3834.0249569169250208
 24
1465.2527918371490614
 34
0.0
 50
90.0
1001
ACAD
1000
DSTYLE
1002
{
1070
   340
1005
F
1002
}
  0
DIMENSION
  5
11CE
  8
0
  6
CONTINUOUS
 62
     2
  2
*D104
 10
4746.3868788860909262
 20
1315.2526698371520979
 30
0.0
 11
4701.3868788860900167
 21
1215.2527308371491017
 31
0.0
 70
     0
 13
4484.024956916924566
 23
1115.2527918371490614
 33
0.0
 14
4620.6701962038059719
 24
1315.252669837150961
 34
0.0
 50
90.0
1001
ACAD
1000
DSTYLE
1002
{
1070
   340
1005
F
1002
}
  0
INSERT
  5
11CF
  8
0
 62
     7
  2
*U112
 10
0.0
 20
0.0
 30
0.0
1001
ACAD
1000
DSTYLE
1002
{
1070
   340
1005
F
1002
}
  0
DIMENSION
  5
11D0
  8
0
  6
CONTINUOUS
 62
     2
  2
*D105
 10
4484.024956916924566
 20
3304.0081922453250627
 30
0.0
 11
4394.024956916924566
 21
3349.0081922453250627
 31
0.0
 70
     0
 13
4304.024956916924566
 23
3145.252791837148834
 33
0.0
 14
4484.024956916924566
 24
3304.0081922453250627
 34
0.0
1001
ACAD
1000
DSTYLE
1002
{
1070
   340
1005
F
1002
}
  0
LINE
  5
11D1
  8
壁
 62
     5
 10
4484.024956916924566
 20
3145.2526968371821567
 30
0.0
 11
4484.024956916924566
 21
3606.9903408371610567
 31
0.0
  0
LINE
  5
11D2
  8
壁
 62
     1
 10
4484.024956916924566
 20
3328.8256995462579653
 30
0.0
 11
4554.0242249169386923
 21
3398.8249665462649318
 31
0.0
  0
LINE
  5
11D3
  8
壁
 62
     1
 10
4484.024956916924566
 20
1185.9634858371568953
 30
0.0
 11
4554.0242249169386923
 21
1255.9628748371610527
 31
0.0
  0
LINE
  5
11D4
  8
壁
 62
     1
 10
4484.024956916924566
 20
1115.2527918371490614
 30
0.0
 11
4554.0242249169386923
 21
1185.2521818371599238
 31
0.0
  0
LINE
  5
11D5
  8
壁
 62
     1
 10
4484.024956916924566
 20
2833.8508455462870188
 30
0.0
 11
4554.0242249169386923
 21
2903.8503575462377739
 31
0.0
  0
LINE
  5
11D6
  8
壁
 62
     1
 10
4484.024956916924566
 20
3045.9829255462391302
 30
0.0
 11
4554.0242249169386923
 21
3115.9821935462528018
 31
0.0
  0
LINE
  5
11D7
  8
壁
 62
     1
 10
4484.024956916924566
 20
2904.5615395462377819
 30
0.0
 11
4554.0242249169386923
 21
2974.5610505462391302
 31
0.0
  0
LINE
  5
11D8
  8
壁
 62
     1
 10
4484.024956916924566
 20
2975.2722325462377739
 30
0.0
 11
4554.0242249169386923
 21
3045.271744546248101
 31
0.0
  0
LINE
  5
11D9
  8
壁
 62
     1
 10
4484.024956916924566
 20
3258.115005546249904
 30
0.0
 11
4554.0242249169386923
 21
3328.1142735462640303
 31
0.0
  0
LINE
  5
11DA
  8
壁
 62
     1
 10
4484.024956916924566
 20
3116.693619546248101
 30
0.0
 11
4554.0242249169386923
 21
3186.692886546254158
 31
0.0
  0
LINE
  5
11DB
  8
壁
 62
     1
 10
4484.024956916924566
 20
3187.4043125462490025
 30
0.0
 11
4554.0242249169386923
 21
3257.4035805462631288
 31
0.0
  0
LINE
  5
11DC
  8
壁
 62
     1
 10
4484.024956916924566
 20
3540.9575355462729931
 30
0.0
 11
4554.0242249169386923
 21
3610.9570465462747961
 31
0.0
  0
LINE
  5
11DD
  8
壁
 62
     1
 10
4484.024956916924566
 20
3399.5361485462640303
 30
0.0
 11
4554.0242249169386923
 21
3469.5356605462729931
 31
0.0
  0
LINE
  5
11DE
  8
壁
 62
     1
 10
4484.024956916924566
 20
3470.2468415462649318
 30
0.0
 11
4554.0242249169386923
 21
3540.2463535462738946
 31
0.0
  0
LINE
  5
11DF
  8
壁
 62
     1
 10
4126.8687069169236565
 20
1065.2527918371490614
 30
0.0
 11
4176.8687069169236565
 21
1115.2527918371490614
 31
0.0
  0
LINE
  5
11E0
  8
壁
 62
     1
 10
3844.0249569169250208
 20
1065.2527918371490614
 30
0.0
 11
3894.0249569169250208
 21
1115.2527918371490614
 31
0.0
  0
LINE
  5
11E1
  8
壁
 62
     1
 10
4056.1577699169279185
 20
1065.2527918371490614
 30
0.0
 11
4106.1577699169283733
 21
1115.2527918371490614
 31
0.0
  0
LINE
  5
11E2
  8
壁
 62
     1
 10
3914.735894916928828
 20
1065.2527918371490614
 30
0.0
 11
3964.735894916928828
 21
1115.2527918371490614
 31
0.0
  0
LINE
  5
11E3
  8
壁
 62
     1
 10
3985.4468319169250208
 20
1065.2527918371490614
 30
0.0
 11
4035.4468319169241113
 21
1115.2527918371490614
 31
0.0
  0
LINE
  5
11E4
  8
0
  6
PHANTOM2
 62
     4
 10
1185.7404741005739197
 20
1465.2527918371490614
 30
0.0
 11
1530.7404741005739197
 21
1170.252669837150961
 31
0.0
  0
LINE
  5
11E5
  8
0
  6
PHANTOM2
 62
     4
 10
1185.7404741005739197
 20
1170.2527918371490614
 30
0.0
 11
1530.7404741005739197
 21
1465.2529138371460249
 31
0.0
  0
LINE
  5
11E6
  8
0
  6
PHANTOM2
 62
     4
 10
1875.7404741005739197
 20
1465.2530078930431046
 30
0.0
 11
1530.7404741005739197
 21
1170.252669837150961
 31
0.0
  0
LINE
  5
11E7
  8
0
  6
PHANTOM2
 62
     4
 10
1875.7404741005739197
 20
1170.2527918371490614
 30
0.0
 11
1530.7404741005739197
 21
1465.2529138371460249
 31
0.0
  0
ARC
  5
11E8
  8
0
 62
     3
 10
1897.8528520103429855
 20
4243.448827036365401
 30
0.0
 40
17.9994841974095507
 50
271.2335915788228249
 51
6.3945681148753293
  0
LINE
  5
11E9
  8
0
 62
     3
 10
1898.2403551891909501
 20
4225.4535145172849298
 30
0.0
 11
1163.2404771891890505
 21
4225.4532705172896385
 31
0.0
  0
ARC
  5
11EA
  8
0
 62
     3
 10
1163.6279743024499567
 20
4243.4485832537748138
 30
0.0
 40
17.999484284184831
 50
173.6054326132558003
 51
268.7664277422836108
  0
LINE
  5
11EB
  8
0
 62
     3
 10
1145.7404741005739197
 20
4245.453270517288729
 30
0.0
 11
1145.7404741005739197
 21
4695.4535145172849298
 31
0.0
  0
ARC
  5
11EC
  8
0
 62
     3
 10
1163.6279742466279004
 20
4697.4582018894725479
 30
0.0
 40
17.9994842407970417
 50
91.233581918268456
 51
186.3945677491869901
  0
TEXT
  5
11ED
  8
0
  6
CONTINUOUS
 62
     3
 10
7190.2591436670054463
 20
491.341743787226676
 30
0.0
 40
59.9999999993999893
  1
2009. 9. 1
  0
TEXT
  5
11EE
  8
0
  6
CONTINUOUS
 62
     7
 10
5953.4264154984839479
 20
952.2267199904889594
 30
0.0
 40
99.9999999989999964
  1
MITSUBISHI CHEMICAL AQUA SOLUTIONS CO.,LTD.
 41
0.51
  0
INSERT
  5
1358
  8
0
 62
     3
  2
A$C3FE03FDA
 10
1894.2404255595758968
 20
2296.7527935625407736
 30
0.0
 41
-1.0
  0
INSERT
  5
1359
  8
0
 62
     7
  2
A$C014B713B
 10
1530.7404741005739197
 20
3142.252791837148834
 30
0.0
  0
TEXT
  5
135A
  8
0
  6
CONTINUOUS
 62
     2
 10
2145.2467831673161527
 20
2524.4190759944622187
 30
0.0
 40
60.0
  1
9
 41
0.8
 72
     1
 11
2160.1039260244579054
 21
2554.4190759944622187
 31
0.0
 73
     2
  0
LINE
  5
136A
  8
壁
 62
     1
 10
4484.024956916924566
 20
2621.719009546271991
 30
0.0
 11
4554.0242249169386923
 21
2691.7185215462809538
 31
0.0
  0
LINE
  5
136B
  8
壁
 62
     1
 10
4484.024956916924566
 20
2692.4297035462809617
 30
0.0
 11
4554.0242249169386923
 21
2762.4292145462818553
 31
0.0
  0
LINE
  5
136C
  8
壁
 62
     1
 10
4484.024956916924566
 20
2763.1403965462818633
 30
0.0
 11
4554.0242249169386923
 21
2833.1399085462330731
 31
0.0
  0
LINE
  5
136D
  8
壁
 62
     1
 10
4484.024956916924566
 20
2409.5871735462569632
 30
0.0
 11
4554.0242249169386923
 21
2479.586685546265926
 31
0.0
  0
LINE
  5
136E
  8
壁
 62
     1
 10
4484.024956916924566
 20
2480.2978675462659339
 30
0.0
 11
4554.0242249169386923
 21
2550.2973785462668275
 31
0.0
  0
LINE
  5
136F
  8
壁
 62
     1
 10
4484.024956916924566
 20
2551.0085605462668354
 30
0.0
 11
4554.0242249169386923
 21
2621.0080725462757982
 31
0.0
  0
LINE
  5
1370
  8
壁
 62
     1
 10
4484.024956916924566
 20
2197.4553375462419353
 30
0.0
 11
4554.0242249169386923
 21
2267.4548495462508981
 31
0.0
  0
LINE
  5
1371
  8
壁
 62
     1
 10
4484.024956916924566
 20
2268.1660315462499966
 30
0.0
 11
4554.0242249169386923
 21
2338.1655425462517996
 31
0.0
  0
LINE
  5
1372
  8
壁
 62
     1
 10
4484.024956916924566
 20
2338.8767245462508981
 30
0.0
 11
4554.0242249169386923
 21
2408.8762365462612252
 31
0.0
  0
LINE
  5
1373
  8
壁
 62
     1
 10
4484.024956916924566
 20
1985.3235015462848878
 30
0.0
 11
4554.0242249169386923
 21
2055.3230135462949875
 31
0.0
  0
LINE
  5
1374
  8
壁
 62
     1
 10
4484.024956916924566
 20
2056.0341955462940859
 30
0.0
 11
4554.0242249169386923
 21
2126.033706546295889
 31
0.0
  0
LINE
  5
1375
  8
壁
 62
     1
 10
4484.024956916924566
 20
2126.7448885462949875
 30
0.0
 11
4554.0242249169386923
 21
2196.7444005462461973
 31
0.0
  0
LINE
  5
1376
  8
壁
 62
     1
 10
4484.024956916924566
 20
1843.902114546275925
 30
0.0
 11
4554.0242249169386923
 21
1913.9016265462848878
 31
0.0
  0
LINE
  5
1377
  8
壁
 62
     1
 10
4484.024956916924566
 20
1914.6128085462839863
 30
0.0
 11
4554.0242249169386923
 21
1984.6123195462860167
 31
0.0
  0
TEXT
  5
13B0
  8
0
  6
CONTINUOUS
 62
     3
 10
7348.6701603581886957
 20
373.8013180616543991
 30
0.0
 40
60.0
  1
Y.NAGASAKA
 41
0.7
  0
DIMENSION
  5
13C6
  8
0
  6
CONTINUOUS
 62
     2
  2
*D88
 10
1975.7404741005739197
 20
611.290680765057914
 30
0.0
 11
1650.7404741005739197
 21
656.290680765057914
 31
0.0
 70
     0
 13
1325.7404741005739197
 23
1115.2527918371490614
 33
0.0
 14
1975.7404741005739197
 24
1115.2527918371490614
 34
0.0
1001
ACAD
1000
DSTYLE
1002
{
1070
   340
1005
F
1002
}
  0
DIMENSION
  5
13C7
  8
0
  6
CONTINUOUS
 62
     2
  2
*D89
 10
1975.7404741005739197
 20
761.290680765057914
 30
0.0
 11
1875.7404741005739197
 21
806.290680765057914
 31
0.0
 70
     0
 13
1775.7404741005739197
 23
1115.2527918371490614
 33
0.0
 14
1975.7404741005739197
 24
1115.2527918371490614
 34
0.0
1001
ACAD
1000
DSTYLE
1002
{
1070
   340
1005
F
1002
}
  0
TEXT
  5
13C8
  8
0
  6
CONTINUOUS
 62
     2
 10
2125.8182117387441394
 20
1636.4521220234450993
 30
0.0
 40
60.0
  1
10
 41
0.8
 72
     1
 11
2160.1039260244579054
 21
1666.4521220234450993
 31
0.0
 73
     2
  0
CIRCLE
  5
13C9
  8
0
  6
CONTINUOUS
 62
     2
 10
2160.1039260244579054
 20
1666.4521220234450993
 30
0.0
 40
49.9999999999799911
  0
INSERT
  5
13CA
  8
0
 62
     7
  2
*U113
 10
0.0
 20
0.0
 30
0.0
1001
ACAD
1000
DSTYLE
1002
{
1070
   340
1005
F
1002
}
  0
INSERT
  5
13CB
  8
0
 62
     7
  2
*U114
 10
0.0
 20
0.0
 30
0.0
1001
ACAD
1000
DSTYLE
1002
{
1070
   340
1005
F
1002
}
  0
INSERT
  5
13CC
  8
0
 62
     7
  2
*U115
 10
0.0
 20
0.0
 30
0.0
1001
ACAD
1000
DSTYLE
1002
{
1070
   340
1005
F
1002
}
  0
INSERT
  5
13CD
  8
0
 62
     7
  2
*U116
 10
0.0
 20
0.0
 30
0.0
1001
ACAD
1000
DSTYLE
1002
{
1070
   340
1005
F
1002
}
  0
DIMENSION
  5
13CE
  8
0
  6
CONTINUOUS
 62
     2
  2
*D90
 10
1775.7404741005739197
 20
761.290680765057914
 30
0.0
 11
1675.7404741005739197
 21
806.290680765057914
 31
0.0
 70
     0
 13
1575.7404741005739197
 23
1115.2527918371490614
 33
0.0
 14
1775.7404741005739197
 24
1120.2527918371490614
 34
0.0
1001
ACAD
1000
DSTYLE
1002
{
1070
   340
1005
F
1002
}
  0
TEXT
  5
13CF
  8
0
  6
CONTINUOUS
 62
     2
 10
4728.2214206336057032
 20
1581.479100592551049
 30
0.0
 40
49.9999999999999929
  1
電源コンセント AC100V 150VA
 41
0.7
  0
LINE
  5
13D0
  8
0
  6
CONTINUOUS
 62
     2
 10
5444.2799547008471563
 20
1565.897621489885978
 30
0.0
 11
4726.4548209923077593
 21
1565.897621489885978
 31
0.0
  0
TEXT
  5
13D1
  8
0
  6
CONTINUOUS
 62
     2
 10
4812.4632019817363471
 20
1498.8134390243790222
 30
0.0
 40
49.9999999999999929
  1
D種接地要 （別途工事）
 41
0.8
  0
DIMENSION
  5
13DD
  8
0
  6
CONTINUOUS
 62
     2
  2
*D91
 10
4484.024956916924566
 20
638.4985626445850357
 30
0.0
 11
4064.0249569169250208
 21
683.4985626445850357
 31
0.0
 70
     0
 13
3644.0249569169250208
 23
1115.2527918371490614
 33
0.0
 14
4484.024956916924566
 24
1115.2527918371490614
 34
0.0
1001
ACAD
1000
DSTYLE
1002
{
1070
   340
1005
F
1002
}
  0
DIMENSION
  5
13DE
  8
0
  6
CONTINUOUS
 62
     2
  2
*D92
 10
4484.024956916924566
 20
788.4985626445850357
 30
0.0
 11
4164.0249569169236565
 21
833.4985626445851494
 31
0.0
 70
     0
 13
3844.0249569169250208
 23
1115.2527918371490614
 33
0.0
 14
4484.024956916924566
 24
1115.2527918371490614
 34
0.0
1001
ACAD
1000
DSTYLE
1002
{
1070
   340
1005
F
1002
}
  0
DIMENSION
  5
13DF
  8
0
  6
CONTINUOUS
 62
     2
  2
*D93
 10
4334.0249569169236565
 20
938.4985626445850357
 30
0.0
 11
4221.3764578533591703
 21
983.4985626445851494
 31
0.0
 70
   128
 13
4284.0249569169236565
 23
1115.2527918371490614
 33
0.0
 14
4334.0249569169236565
 24
1115.2527918371490614
 34
0.0
1001
ACAD
1000
DSTYLE
1002
{
1070
   340
1005
F
1002
}
  0
DIMENSION
  5
13E0
  8
0
  6
CONTINUOUS
 62
     2
  2
*D94
 10
4484.024956916924566
 20
938.4985626445850357
 30
0.0
 11
4409.0249569169236565
 21
983.4985626445851494
 31
0.0
 70
     0
 13
4334.0249569169236565
 23
1115.2527918371490614
 33
0.0
 14
4484.024956916924566
 24
1115.2527918371490614
 34
0.0
1001
ACAD
1000
DSTYLE
1002
{
1070
   340
1005
F
1070
    75
1070
     1
1002
}
  0
DIMENSION
  5
13FE
  8
0
  6
CONTINUOUS
 62
     2
  2
*D87
 10
1009.190756630443957
 20
1115.2527918371490614
 30
0.0
 11
964.1907566304440707
 21
1215.2527918371490614
 31
0.0
 70
     0
 13
1385.7404741005739197
 23
1315.2527918371490614
 33
0.0
 14
1009.1907566295119523
 24
1115.2527918371490614
 34
0.0
 50
270.0
1001
ACAD
1000
DSTYLE
1002
{
1070
   340
1005
F
1002
}
  0
LINE
  5
13FF
  8
0
  6
CONTINUOUS
 62
     2
 10
1868.0153239221540389
 20
2202.0282814896199852
 30
0.0
 11
2114.4994247473077849
 21
2250.513372622488987
 31
0.0
  0
CIRCLE
  5
1400
  8
0
  6
CONTINUOUS
 62
     2
 10
2160.1039260244579054
 20
2271.0128717203619999
 30
0.0
 40
50.0
  0
TEXT
  5
1401
  8
0
  6
CONTINUOUS
 62
     2
 10
2125.8182117387441394
 20
2241.0128717203629094
 30
0.0
 40
60.0
  1
18
 41
0.8
 72
     1
 11
2160.1039260244579054
 21
2271.0128717203619999
 31
0.0
 73
     2
  0
ARC
  5
1402
  8
0
  6
CONTINUOUS
 62
     2
 10
1856.0388256251460461
 20
2210.8634157588821836
 30
0.0
 40
14.8827453453328804
 50
323.5835825222400786
 51
85.1003244878983196
  0
ARC
  5
1403
  8
0
  6
CONTINUOUS
 62
     2
 10
1879.9918222191629411
 20
2193.1931472204159945
 30
0.0
 40
14.8827453453308198
 50
143.583582522240107
 51
265.1003244878983196
  0
INSERT
  5
1404
  8
0
  2
A$C51C070DC
 10
1385.7405582990609219
 20
1240.0909666123920942
 30
0.0
  0
INSERT
  5
1407
  8
0
  2
A$C5756186B
 10
1295.7403465175880228
 20
1115.2527481277938932
 30
0.0
  0
INSERT
  5
140A
  8
0
  2
A$C4E7F6CC5
 10
1555.7405695998459123
 20
1115.2528348239140996
 30
0.0
  0
INSERT
  5
140B
  8
0
  2
A$C4E7F6CC5
 10
1755.7405695998450028
 20
1115.2528348239140996
 30
0.0
  0
LINE
  5
1410
  8
0
  6
CONTINUOUS
 62
     3
 10
1975.7404741005739197
 20
1115.2527918371490614
 30
0.0
 11
1085.7404741005739197
 21
1115.2527918371490614
 31
0.0
  0
LINE
  5
1411
  8
0
  6
CONTINUOUS
 62
     3
 10
1085.7404741005739197
 20
1115.2527918371490614
 30
0.0
 11
1085.7404741005739197
 21
3145.252791837148834
 31
0.0
  0
LINE
  5
1412
  8
0
  6
CONTINUOUS
 62
     3
 10
1085.7404741005739197
 20
3145.252791837148834
 30
0.0
 11
1975.7404741005739197
 21
3145.252791837148834
 31
0.0
  0
LINE
  5
1413
  8
0
  6
CONTINUOUS
 62
     3
 10
1975.7404741005739197
 20
3145.252791837148834
 30
0.0
 11
1975.7404741005739197
 21
1115.2527918371490614
 31
0.0
  0
INSERT
  5
141C
  8
0
  2
A$C24BB75B8
 10
1385.7405136806189603
 20
4890.7123208232796969
 30
0.0
  0
INSERT
  5
141F
  8
0
  2
A$C1AEA2420
 10
4450.5731681775059769
 20
1270.2528204425470904
 30
0.0
  0
INSERT
  5
1420
  8
0
  2
A$C5756186B
 10
4254.0248293339973316
 20
1115.2527481277938932
 30
0.0
  0
INSERT
  5
1421
  8
0
  2
A$C4E7F6CC5
 10
4314.0250524162538568
 20
1115.2528348239140996
 30
0.0
  0
INSERT
  5
1422
  8
0
  2
A$C615207BD
 10
4299.7674620889592916
 20
3038.2527315743500367
 30
0.0
  0
TEXT
  5
142E
  8
0
  6
CONTINUOUS
 62
     2
 10
743.9931264702463523
 20
1585.8315929288510233
 30
0.0
 40
49.9999999998000035
  1
（別途工事）
 41
0.8
  0
LINE
  5
142F
  8
0
  6
CONTINUOUS
 62
     2
 10
713.4122195015661418
 20
1647.4322215100401081
 30
0.0
 11
1046.2991206003350726
 21
1647.4322215100401081
 31
0.0
  0
TEXT
  5
1430
  8
0
  6
CONTINUOUS
 62
     2
 10
713.4122195015661418
 20
1666.769892405543942
 30
0.0
 40
49.9999999998000035
  1
電源コンセント
 41
0.8
  0
LINE
  5
1431
  8
0
  6
CONTINUOUS
 62
     2
 10
657.3176949601620436
 20
896.9102696049958467
 30
0.0
 11
1178.7696584587679354
 21
896.9102696049958467
 31
0.0
  0
TEXT
  5
1432
  8
0
  6
CONTINUOUS
 62
     2
 10
675.421572875697052
 20
835.0685101541457698
 30
0.0
 40
49.999999999999801
  1
FL+50mm（別途工事）
 41
0.7
  0
TEXT
  5
1433
  8
0
  6
CONTINUOUS
 62
     2
 10
690.8945666293730028
 20
913.6478227580082603
 30
0.0
 40
49.999999999999801
  1
排水40Aソケット止
 41
0.8
  0
TEXT
  5
1434
  8
0
  6
CONTINUOUS
 62
     2
 10
2118.8708227187162265
 20
664.3760810664389282
 30
0.0
 40
49.999999999999801
  1
FL+100mm（別途工事）
 41
0.7
  0
LINE
  5
1435
  8
0
  6
CONTINUOUS
 62
     2
 10
2092.1084766930430305
 20
729.9365224519860931
 30
0.0
 11
2667.4272978826202234
 21
729.9365224519860931
 31
0.0
  0
TEXT
  5
1436
  8
0
  6
CONTINUOUS
 62
     2
 10
2149.5986786167491118
 20
742.0228404219960794
 30
0.0
 40
49.999999999999801
  1
給湯 15A バルブ止
 41
0.8
  0
TEXT
  5
1437
  8
0
  6
CONTINUOUS
 62
     2
 10
2134.1691854411042186
 20
938.5675733442185447
 30
0.0
 40
50.0
  1
給水 15A バルブ止
 41
0.8
  0
TEXT
  5
1438
  8
0
  6
CONTINUOUS
 62
     2
 10
2123.6609405692429391
 20
860.9208139886613935
 30
0.0
 40
50.0
  1
FL+100mm（別途工事）
 41
0.7
  0
LINE
  5
1439
  8
0
  6
CONTINUOUS
 62
     2
 10
2096.6639920954480658
 20
926.4812553742085584
 30
0.0
 11
2646.9141032814518439
 21
926.4812553742085584
 31
0.0
  0
TEXT
  5
143A
  8
壁
  6
CONTINUOUS
 62
     2
 10
2100.1793873811839148
 20
1217.1921403134469983
 30
0.0
 40
50.0
  1
F.L
 41
0.8
  0
LINE
  5
143B
  8
壁
  6
CONTINUOUS
 62
     2
 10
2081.5682348778941559
 20
1198.5119620486509575
 30
0.0
 11
2195.5254995997529477
 21
1198.5119620486509575
 31
0.0
  0
LINE
  5
143C
  8
壁
  6
CONTINUOUS
 62
     2
 10
2081.5682348778941559
 20
1154.2240443371699712
 30
0.0
 11
2081.5682348778941559
 21
1198.5119620486509575
 31
0.0
  0
LINE
  5
143D
  8
壁
  6
CONTINUOUS
 62
     2
 10
2059.0682348778941559
 20
1154.2240443371699712
 30
0.0
 11
2104.0682348778941559
 21
1154.2240443371699712
 31
0.0
  0
LINE
  5
143E
  8
壁
  6
CONTINUOUS
 62
     2
 10
2081.5682348778941559
 20
1115.2527918371490614
 30
0.0
 11
2104.0682348778941559
 21
1154.2240443371699712
 31
0.0
  0
LINE
  5
143F
  8
壁
  6
CONTINUOUS
 62
     2
 10
2081.5682348778941559
 20
1115.2527918371490614
 30
0.0
 11
2059.0682348778941559
 21
1154.2240443371699712
 31
0.0
  0
TEXT
  5
1464
  8
壁
  6
CONTINUOUS
 62
     2
 10
4298.7899662469271789
 20
3506.0380940493778326
 30
0.0
 40
49.9999999998000035
  1
壁 面
 41
0.8
  0
LINE
  5
1465
  8
壁
  6
CONTINUOUS
 62
     2
 10
4484.024956916924566
 20
3490.1204785352460931
 30
0.0
 11
4442.4558161169397863
 21
3466.1204785352460931
 31
0.0
  0
LINE
  5
1466
  8
壁
  6
CONTINUOUS
 62
     2
 10
4484.024956916924566
 20
3490.1204785352460931
 30
0.0
 11
4442.4558161169397863
 21
3514.1204785352460931
 31
0.0
  0
LINE
  5
1467
  8
壁
  6
CONTINUOUS
 62
     2
 10
4278.7036818282786044
 20
3490.1204785352460931
 30
0.0
 11
4442.4558161169397863
 21
3490.1204785352460931
 31
0.0
  0
LINE
  5
1468
  8
壁
  6
CONTINUOUS
 62
     2
 10
4442.4558161169397863
 20
3514.1204785352460931
 30
0.0
 11
4442.4558161169397863
 21
3466.1204785352460931
 31
0.0
  0
LINE
  5
1517
  8
0
  6
CONTINUOUS
 62
     3
 10
5919.4224555558757856
 20
5164.7999593400745653
 30
0.0
 11
7669.4224555558757856
 21
5164.7999593400745653
 31
0.0
  0
LINE
  5
1518
  8
0
  6
CONTINUOUS
 62
     3
 10
5919.4224555558757856
 20
5084.7999593400736558
 30
0.0
 11
7669.4224555558757856
 21
5084.7999593400736558
 31
0.0
  0
LINE
  5
1519
  8
0
  6
CONTINUOUS
 62
     3
 10
5919.4224555558757856
 20
5004.7999593400745653
 30
0.0
 11
7669.4224555558757856
 21
5004.7999593400745653
 31
0.0
  0
LINE
  5
151A
  8
0
  6
CONTINUOUS
 62
     3
 10
5919.4224555558757856
 20
4924.7999593400745653
 30
0.0
 11
7669.4224555558757856
 21
4924.7999593400745653
 31
0.0
  0
LINE
  5
151B
  8
0
  6
CONTINUOUS
 62
     3
 10
5919.4224555558757856
 20
4844.7999593400745653
 30
0.0
 11
7669.4224555558757856
 21
4844.7999593400745653
 31
0.0
  0
LINE
  5
151C
  8
0
  6
CONTINUOUS
 62
     3
 10
5919.4224555558757856
 20
4764.7999593400736558
 30
0.0
 11
7669.4224555558757856
 21
4764.7999593400736558
 31
0.0
  0
LINE
  5
151D
  8
0
  6
CONTINUOUS
 62
     3
 10
5919.4224555558757856
 20
4684.7999593400736558
 30
0.0
 11
7669.4224555558757856
 21
4684.7999593400736558
 31
0.0
  0
LINE
  5
151E
  8
0
  6
CONTINUOUS
 62
     3
 10
5919.4224555558757856
 20
4604.7999593400736558
 30
0.0
 11
7669.4224555558757856
 21
4604.7999593400736558
 31
0.0
  0
LINE
  5
151F
  8
0
  6
CONTINUOUS
 62
     3
 10
5919.4224555558757856
 20
4524.7999593400736558
 30
0.0
 11
7669.4224555558757856
 21
4524.7999593400736558
 31
0.0
  0
LINE
  5
1520
  8
0
  6
CONTINUOUS
 62
     3
 10
5919.4224555558757856
 20
4444.7999593400736558
 30
0.0
 11
7669.4224555558757856
 21
4444.7999593400736558
 31
0.0
  0
LINE
  5
1521
  8
0
  6
CONTINUOUS
 62
     3
 10
5919.4224555558757856
 20
4364.7999593400736558
 30
0.0
 11
7669.4224555558757856
 21
4364.7999593400736558
 31
0.0
  0
LINE
  5
1522
  8
0
  6
CONTINUOUS
 62
     3
 10
5919.4224555558757856
 20
4284.7999593400736558
 30
0.0
 11
7669.4224555558757856
 21
4284.7999593400736558
 31
0.0
  0
LINE
  5
1523
  8
0
  6
CONTINUOUS
 62
     3
 10
5919.4224555558757856
 20
4204.7999593400736558
 30
0.0
 11
7669.4224555558757856
 21
4204.7999593400736558
 31
0.0
  0
LINE
  5
1524
  8
0
  6
CONTINUOUS
 62
     3
 10
5919.4224555558757856
 20
4124.7999593400745653
 30
0.0
 11
7669.4224555558757856
 21
4124.7999593400745653
 31
0.0
  0
LINE
  5
1525
  8
0
  6
CONTINUOUS
 62
     3
 10
5919.4224555558757856
 20
3964.79995934007502
 30
0.0
 11
7669.4224555558757856
 21
3964.79995934007502
 31
0.0
  0
LINE
  5
1526
  8
0
  6
CONTINUOUS
 62
     3
 10
5919.4224555558757856
 20
4044.7999593400741105
 30
0.0
 11
7669.4224555558757856
 21
4044.7999593400741105
 31
0.0
  0
LINE
  5
1527
  8
0
  6
CONTINUOUS
 62
     3
 10
5919.4224555558757856
 20
3884.79995934007502
 30
0.0
 11
7669.4224555558757856
 21
3884.79995934007502
 31
0.0
  0
LINE
  5
1528
  8
0
  6
CONTINUOUS
 62
     3
 10
5919.4224555558757856
 20
3724.79995934007502
 30
0.0
 11
7669.4224555558757856
 21
3724.79995934007502
 31
0.0
  0
LINE
  5
1529
  8
0
  6
CONTINUOUS
 62
     3
 10
5919.4224555558757856
 20
5244.7999593400736558
 30
0.0
 11
7669.4224555558757856
 21
5244.7999593400736558
 31
0.0
  0
LINE
  5
152A
  8
0
  6
CONTINUOUS
 62
     3
 10
7669.4224555558757856
 20
5244.7999593400736558
 30
0.0
 11
7669.4224555558757856
 21
3724.79995934007502
 31
0.0
  0
TEXT
  5
152B
  8
0
  6
CONTINUOUS
 62
     2
 10
6074.4224555558748762
 20
4859.7999593400736558
 30
0.0
 40
49.9999999999999929
  1
　　鏡
  0
TEXT
  5
152C
  8
0
  6
CONTINUOUS
 62
     2
 10
6074.4224555558748762
 20
4459.7999593400736558
 30
0.0
 40
49.9999999999999929
  1
光電スイッチ
  0
TEXT
  5
152D
  8
0
  6
CONTINUOUS
 62
     2
 10
6074.4224555558748762
 20
4539.7999593400745653
 30
0.0
 40
49.9999999999999929
  1
蛍光灯スイッチ
  0
TEXT
  5
152E
  8
0
  6
CONTINUOUS
 62
     2
 10
6074.4224555558748762
 20
5103.1332926733894055
 30
0.0
 40
49.9999999999999929
  1
シ　ン　ク
  0
TEXT
  5
152F
  8
0
  6
CONTINUOUS
 62
     2
 10
6074.4224555558748762
 20
5019.7999593400736558
 30
0.0
 40
49.9999999999999929
  1
蛍　光　灯
  0
TEXT
  5
1530
  8
0
  6
CONTINUOUS
 62
     2
 10
6074.4224555558748762
 20
4939.7999593400736558
 30
0.0
 40
49.9999999999999929
  1
前面カバー
  0
TEXT
  5
1531
  8
0
  6
CONTINUOUS
 62
     2
 10
6074.4224555558748762
 20
4779.7999593400736558
 30
0.0
 40
49.9999999999999929
  1
逆汚染防止蛇口
  0
TEXT
  5
1532
  8
0
  6
CONTINUOUS
 62
     2
 10
7074.4224555558748762
 20
4299.7999593400745653
 30
0.0
 40
49.9999999999999929
  1
光電スイッチ付
 41
0.8
  0
TEXT
  5
1533
  8
0
  6
CONTINUOUS
 62
     2
 10
7074.4224555558748762
 20
5019.7999593400736558
 30
0.0
 40
49.9999999999999929
  1
LED10W
  0
TEXT
  5
1534
  8
0
  6
CONTINUOUS
 62
     2
 10
6074.4224555558748762
 20
4059.7999593400741105
 30
0.0
 40
49.9999999999999929
  1
ストップバルブ
  0
LINE
  5
1535
  8
0
  6
CONTINUOUS
 62
     3
 10
6044.4224555558757856
 20
3724.79995934007502
 30
0.0
 11
6044.4224555558757856
 21
5244.7999593400736558
 31
0.0
  0
LINE
  5
1536
  8
0
  6
CONTINUOUS
 62
     3
 10
6669.4224555558757856
 20
3724.79995934007502
 30
0.0
 11
6669.4224555558757856
 21
5244.7999593400736558
 31
0.0
  0
LINE
  5
1537
  8
0
  6
CONTINUOUS
 62
     3
 10
6794.4224555558757856
 20
3724.79995934007502
 30
0.0
 11
6794.4224555558757856
 21
5244.7999593400736558
 31
0.0
  0
LINE
  5
1538
  8
0
  6
CONTINUOUS
 62
     3
 10
7044.4224555558757856
 20
3724.79995934007502
 30
0.0
 11
7044.4224555558757856
 21
5244.7999593400736558
 31
0.0
  0
LINE
  5
1539
  8
0
  6
CONTINUOUS
 62
     3
 10
5919.4224555558757856
 20
3724.79995934007502
 30
0.0
 11
5919.4224555558757856
 21
5244.7999593400736558
 31
0.0
  0
TEXT
  5
153A
  8
0
  6
CONTINUOUS
 62
     2
 10
5939.2557888892088158
 20
5179.7999593400736558
 30
0.0
 40
49.9999999999999929
  1
符号
 41
0.8
 72
     4
 11
5981.9224555558757856
 21
5204.7999593400745653
 31
0.0
  0
TEXT
  5
153B
  8
0
  6
CONTINUOUS
 62
     2
 10
6242.2557888892088158
 20
5179.7999593400736558
 30
0.0
 40
49.9999999999999929
  1
名　　　称
 41
0.8
 72
     4
 11
6356.9224555558757856
 21
5204.7999593400745653
 31
0.0
  0
TEXT
  5
153C
  8
0
  6
CONTINUOUS
 62
     2
 10
6689.2557888892088158
 20
5179.7999593400736558
 30
0.0
 40
49.9999999999999929
  1
数量
 41
0.8
 72
     4
 11
6731.9224555558757856
 21
5204.7999593400745653
 31
0.0
  0
TEXT
  5
153D
  8
0
  6
CONTINUOUS
 62
     2
 10
6852.7557888892088158
 20
5179.7999593400736558
 30
0.0
 40
49.9999999999999929
  1
材　質
 41
0.8
 72
     4
 11
6919.4224555558757856
 21
5204.7999593400745653
 31
0.0
  0
TEXT
  5
153E
  8
0
  6
CONTINUOUS
 62
     2
 10
7242.2557888892088158
 20
5179.7999593400736558
 30
0.0
 40
49.9999999999999929
  1
備　　　考
 41
0.8
 72
     4
 11
7356.9224555558757856
 21
5204.7999593400745653
 31
0.0
  0
TEXT
  5
153F
  8
0
  6
CONTINUOUS
 62
     2
 10
5977.160550793971197
 20
5099.7999593400736558
 30
0.0
 40
49.9999999999999929
  1
1
 41
0.8
 72
     4
 11
5981.9224555558757856
 21
5124.7999593400745653
 31
0.0
  0
TEXT
  5
1540
  8
0
  6
CONTINUOUS
 62
     2
 10
5968.589122222541846
 20
5019.7999593400736558
 30
0.0
 40
49.9999999999999929
  1
2
 41
0.8
 72
     4
 11
5981.9224555558757856
 21
5044.7999593400745653
 31
0.0
  0
TEXT
  5
1541
  8
0
  6
CONTINUOUS
 62
     2
 10
5968.589122222541846
 20
4939.7999593400736558
 30
0.0
 40
49.9999999999999929
  1
3
 41
0.8
 72
     4
 11
5981.9224555558757856
 21
4964.7999593400745653
 31
0.0
  0
TEXT
  5
1542
  8
0
  6
CONTINUOUS
 62
     2
 10
5967.6367412701611102
 20
4859.7999593400736558
 30
0.0
 40
49.9999999999999929
  1
4
 41
0.8
 72
     4
 11
5981.9224555558757856
 21
4884.7999593400745653
 31
0.0
  0
TEXT
  5
1543
  8
0
  6
CONTINUOUS
 62
     2
 10
5968.589122222541846
 20
4779.7999593400736558
 30
0.0
 40
49.9999999999999929
  1
5
 41
0.8
 72
     4
 11
5981.9224555558757856
 21
4804.7999593400736558
 31
0.0
  0
TEXT
  5
1544
  8
0
  6
CONTINUOUS
 62
     2
 10
5969.5415031749225818
 20
4699.7999593400745653
 30
0.0
 40
49.9999999999999929
  1
6
 41
0.8
 72
     4
 11
5981.9224555558757856
 21
4724.7999593400736558
 31
0.0
  0
TEXT
  5
1545
  8
0
  6
CONTINUOUS
 62
     2
 10
5968.589122222541846
 20
4619.7999593400736558
 30
0.0
 40
49.9999999999999929
  1
7
 41
0.8
 72
     4
 11
5981.9224555558757856
 21
4644.7999593400736558
 31
0.0
  0
TEXT
  5
1546
  8
0
  6
CONTINUOUS
 62
     2
 10
5968.589122222541846
 20
4539.7999593400745653
 30
0.0
 40
49.9999999999999929
  1
8
 41
0.8
 72
     4
 11
5981.9224555558757856
 21
4564.7999593400736558
 31
0.0
  0
TEXT
  5
1547
  8
0
  6
CONTINUOUS
 62
     2
 10
5969.5415031749225818
 20
4459.7999593400736558
 30
0.0
 40
49.9999999999999929
  1
9
 41
0.8
 72
     4
 11
5981.9224555558757856
 21
4484.7999593400736558
 31
0.0
  0
TEXT
  5
1548
  8
0
  6
CONTINUOUS
 62
     2
 10
5953.3510269844482536
 20
4379.7999593400745653
 30
0.0
 40
49.9999999999999929
  1
10
 41
0.8
 72
     4
 11
5981.9224555558757856
 21
4404.7999593400736558
 31
0.0
  0
TEXT
  5
1549
  8
0
  6
CONTINUOUS
 62
     2
 10
5961.9224555558757856
 20
4299.7999593400745653
 30
0.0
 40
49.9999999999999929
  1
11
 41
0.8
 72
     4
 11
5981.9224555558757856
 21
4324.7999593400745653
 31
0.0
  0
TEXT
  5
154A
  8
0
  6
CONTINUOUS
 62
     2
 10
5953.3510269844482536
 20
4219.7999593400745653
 30
0.0
 40
49.9999999999999929
  1
12
 41
0.8
 72
     4
 11
5981.9224555558757856
 21
4244.7999593400736558
 31
0.0
  0
TEXT
  5
154B
  8
0
  6
CONTINUOUS
 62
     2
 10
5953.3510269844482536
 20
4139.7999593400736558
 30
0.0
 40
49.9999999999999929
  1
13
 41
0.8
 72
     4
 11
5981.9224555558757856
 21
4164.7999593400745653
 31
0.0
  0
TEXT
  5
154C
  8
0
  6
CONTINUOUS
 62
     2
 10
5952.3986460320656988
 20
4059.7999593400741105
 30
0.0
 40
49.9999999999999929
  1
14
 41
0.8
 72
     4
 11
5981.9224555558757856
 21
4084.7999593400741105
 31
0.0
  0
TEXT
  5
154D
  8
0
  6
CONTINUOUS
 62
     2
 10
5953.3510269844482536
 20
3979.79995934007502
 30
0.0
 40
49.9999999999999929
  1
15
 41
0.8
 72
     4
 11
5981.9224555558757856
 21
4004.79995934007502
 31
0.0
  0
TEXT
  5
154E
  8
0
  6
CONTINUOUS
 62
     2
 10
5954.30340793682808
 20
3899.79995934007502
 30
0.0
 40
49.9999999999999929
  1
16
 41
0.8
 72
     4
 11
5981.9224555558757856
 21
3924.79995934007502
 31
0.0
  0
TEXT
  5
154F
  8
0
  6
CONTINUOUS
 62
     2
 10
5953.3510269844482536
 20
3819.79995934007502
 30
0.0
 40
49.9999999999999929
  1
17
 41
0.8
 72
     4
 11
5981.9224555558757856
 21
3844.79995934007502
 31
0.0
  0
TEXT
  5
1550
  8
0
  6
CONTINUOUS
 62
     2
 10
6727.160550793971197
 20
5099.7999593400736558
 30
0.0
 40
49.9999999999999929
  1
1
 41
0.8
 72
     4
 11
6731.9224555558757856
 21
5124.7999593400745653
 31
0.0
  0
TEXT
  5
1551
  8
0
  6
CONTINUOUS
 62
     2
 10
6727.160550793971197
 20
5019.7999593400736558
 30
0.0
 40
49.9999999999999929
  1
1
 41
0.8
 72
     4
 11
6731.9224555558757856
 21
5044.7999593400745653
 31
0.0
  0
TEXT
  5
1552
  8
0
  6
CONTINUOUS
 62
     2
 10
6727.160550793971197
 20
4939.7999593400736558
 30
0.0
 40
49.9999999999999929
  1
1
 41
0.8
 72
     4
 11
6731.9224555558757856
 21
4964.7999593400745653
 31
0.0
  0
TEXT
  5
1553
  8
0
  6
CONTINUOUS
 62
     2
 10
6727.160550793971197
 20
4859.7999593400736558
 30
0.0
 40
49.9999999999999929
  1
1
 41
0.8
 72
     4
 11
6731.9224555558757856
 21
4884.7999593400745653
 31
0.0
  0
TEXT
  5
1554
  8
0
  6
CONTINUOUS
 62
     2
 10
6727.160550793971197
 20
4779.7999593400736558
 30
0.0
 40
49.9999999999999929
  1
1
 41
0.8
 72
     4
 11
6731.9224555558757856
 21
4804.7999593400736558
 31
0.0
  0
TEXT
  5
1555
  8
0
  6
CONTINUOUS
 62
     2
 10
6727.160550793971197
 20
4539.7999593400745653
 30
0.0
 40
49.9999999999999929
  1
1
 41
0.8
 72
     4
 11
6731.9224555558757856
 21
4564.7999593400736558
 31
0.0
  0
TEXT
  5
1556
  8
0
  6
CONTINUOUS
 62
     2
 10
6727.160550793971197
 20
4459.7999593400736558
 30
0.0
 40
49.9999999999999929
  1
1
 41
0.8
 72
     4
 11
6731.9224555558757856
 21
4484.7999593400736558
 31
0.0
  0
TEXT
  5
1557
  8
0
  6
CONTINUOUS
 62
     2
 10
6727.160550793971197
 20
4299.7999593400745653
 30
0.0
 40
49.9999999999999929
  1
1
 41
0.8
 72
     4
 11
6731.9224555558757856
 21
4324.7999593400745653
 31
0.0
  0
TEXT
  5
1558
  8
0
  6
CONTINUOUS
 62
     2
 10
6718.589122222541846
 20
4059.7999593400741105
 30
0.0
 40
49.9999999999999929
  1
2
 41
0.8
 72
     4
 11
6731.9224555558757856
 21
4084.7999593400741105
 31
0.0
  0
TEXT
  5
1559
  8
0
  6
CONTINUOUS
 62
     2
 10
6800.7557888892088158
 20
5104.7999593400736558
 30
0.0
 40
40.0
  1
アクリル系人工大理石
 41
0.5
 72
     4
 11
6919.4224555558757856
 21
5124.7999593400745653
 31
0.0
  0
TEXT
  5
155A
  8
0
  6
CONTINUOUS
 62
     2
 10
6074.4224555558748762
 20
3739.79995934007502
 30
0.0
 40
49.9999999999999929
  1
上部パネル
  0
TEXT
  5
155B
  8
0
  6
CONTINUOUS
 62
     2
 10
6800.7557888892088158
 20
3744.7999593400741105
 30
0.0
 40
40.0
  1
アクリル系人工大理石
 41
0.5
 72
     4
 11
6919.4224555558757856
 21
3764.79995934007502
 31
0.0
  0
TEXT
  5
155C
  8
0
  6
CONTINUOUS
 62
     2
 10
6074.4224555558748762
 20
3819.79995934007502
 30
0.0
 40
49.9999999999999929
  1
下部パネル
  0
TEXT
  5
155D
  8
0
  6
CONTINUOUS
 62
     2
 10
6800.7557888892088158
 20
3824.79995934007502
 30
0.0
 40
40.0
  1
アクリル系人工大理石
 41
0.5
 72
     4
 11
6919.4224555558757856
 21
3844.79995934007502
 31
0.0
  0
TEXT
  5
155E
  8
0
  6
CONTINUOUS
 62
     2
 10
6074.4224555558748762
 20
3899.79995934007502
 30
0.0
 40
49.9999999999999929
  1
シンク下部
  0
TEXT
  5
155F
  8
0
  6
CONTINUOUS
 62
     2
 10
6800.7557888892088158
 20
3904.7999593400741105
 30
0.0
 40
40.0
  1
アクリル系人工大理石
 41
0.5
 72
     4
 11
6919.4224555558757856
 21
3924.79995934007502
 31
0.0
  0
TEXT
  5
1560
  8
0
  6
CONTINUOUS
 62
     2
 10
6074.4224555558748762
 20
4376.466626006759725
 30
0.0
 40
49.9999999999999929
  1
ミキシングバルブ
  0
TEXT
  5
1561
  8
0
  6
CONTINUOUS
 62
     2
 10
6727.160550793971197
 20
4379.7999593400745653
 30
0.0
 40
49.9999999999999929
  1
1
 41
0.8
 72
     4
 11
6731.9224555558757856
 21
4404.7999593400736558
 31
0.0
  0
TEXT
  5
1562
  8
0
  6
CONTINUOUS
 62
     2
 10
7074.4224555558748762
 20
4059.7999593400741105
 30
0.0
 40
49.9999999999999929
  1
別途工事（給水／給湯用）
 41
0.8
  0
TEXT
  5
1563
  8
0
  6
CONTINUOUS
 62
     2
 10
6727.160550793971197
 20
3899.79995934007502
 30
0.0
 40
49.9999999999999929
  1
1
 41
0.8
 72
     4
 11
6731.9224555558757856
 21
3924.79995934007502
 31
0.0
  0
TEXT
  5
1564
  8
0
  6
CONTINUOUS
 62
     2
 10
6727.160550793971197
 20
3819.79995934007502
 30
0.0
 40
49.9999999999999929
  1
1
 41
0.8
 72
     4
 11
6731.9224555558757856
 21
3844.79995934007502
 31
0.0
  0
TEXT
  5
1565
  8
0
  6
CONTINUOUS
 62
     2
 10
6727.160550793971197
 20
3739.79995934007502
 30
0.0
 40
49.9999999999999929
  1
1
 41
0.8
 72
     4
 11
6731.9224555558757856
 21
3764.79995934007502
 31
0.0
  0
TEXT
  5
1566
  8
0
  6
CONTINUOUS
 62
     2
 10
6074.4224555558748762
 20
3976.4666260067610892
 30
0.0
 40
49.9999999999999929
  1
ボールバルブ
  0
TEXT
  5
1567
  8
0
  6
CONTINUOUS
 62
     2
 10
6727.160550793971197
 20
3979.79995934007502
 30
0.0
 40
49.9999999999999929
  1
1
 41
0.8
 72
     4
 11
6731.9224555558757856
 21
4004.79995934007502
 31
0.0
  0
TEXT
  5
1568
  8
0
  6
CONTINUOUS
 62
     2
 10
6885.1367412701602007
 20
3979.79995934007502
 30
0.0
 40
49.9999999999999929
  1
BC
 41
0.8
 72
     4
 11
6919.4224555558757856
 21
4004.79995934007502
 31
0.0
  0
CIRCLE
  5
1569
  8
0
  6
CONTINUOUS
 62
     2
 10
2160.2991590595338494
 20
2883.794579099747807
 30
0.0
 40
50.0
  0
TEXT
  5
156A
  8
0
  6
CONTINUOUS
 62
     2
 10
2145.4420162023911871
 20
2853.7945790997468976
 30
0.0
 40
60.0
  1
6
 41
0.8
 72
     1
 11
2160.2991590595338494
 21
2883.794579099747807
 31
0.0
 73
     2
  0
INSERT
  5
156B
  8
0
 62
     7
  2
*U117
 10
0.0
 20
0.0
 30
0.0
1001
ACAD
1000
DSTYLE
1002
{
1070
   340
1005
F
1002
}
  0
CIRCLE
  5
156C
  8
0
  6
CONTINUOUS
 62
     2
 10
2161.7456108164042234
 20
2778.1139976282138377
 30
0.0
 40
50.0
  0
TEXT
  5
156D
  8
0
  6
CONTINUOUS
 62
     2
 10
2145.7456108164042234
 20
2748.1139976282138377
 30
0.0
 40
60.0
  1
7
 41
0.8
 72
     1
 11
2161.7456108164042234
 21
2778.1139976282138377
 31
0.0
 73
     2
  0
INSERT
  5
156E
  8
0
 62
     7
  2
*U118
 10
0.0
 20
0.0
 30
0.0
1001
ACAD
1000
DSTYLE
1002
{
1070
   340
1005
F
1002
}
  0
CIRCLE
  5
156F
  8
0
  6
CONTINUOUS
 62
     2
 10
2157.4076551120961085
 20
2670.8081430994211587
 30
0.0
 40
50.0
  0
TEXT
  5
1570
  8
0
  6
CONTINUOUS
 62
     2
 10
2141.4076551120961085
 20
2640.8081430994211587
 30
0.0
 40
60.0
  1
8
 41
0.8
 72
     1
 11
2157.4076551120961085
 21
2670.8081430994211587
 31
0.0
 73
     2
  0
INSERT
  5
1571
  8
0
 62
     7
  2
*U119
 10
0.0
 20
0.0
 30
0.0
1001
ACAD
1000
DSTYLE
1002
{
1070
   340
1005
F
1002
}
  0
INSERT
  5
1572
  8
0
 62
     7
  2
*U120
 10
0.0
 20
0.0
 30
0.0
1001
ACAD
1000
DSTYLE
1002
{
1070
   340
1005
F
1002
}
  0
CIRCLE
  5
1573
  8
0
  6
CONTINUOUS
 62
     2
 10
2160.1039260244579054
 20
2449.1344167989450398
 30
0.0
 40
50.0
  0
TEXT
  5
1574
  8
0
  6
CONTINUOUS
 62
     2
 10
2136.1039260244579054
 20
2419.1344167989450398
 30
0.0
 40
60.0
  1
11
 41
0.8
 72
     1
 11
2160.1039260244579054
 21
2449.1344167989450398
 31
0.0
 73
     2
  0
LINE
  5
1575
  8
0
  6
CONTINUOUS
 62
     3
 10
5919.4224555558757856
 20
3804.79995934007502
 30
0.0
 11
7669.4224555558757856
 21
3804.79995934007502
 31
0.0
  0
TEXT
  5
1576
  8
0
  6
CONTINUOUS
 62
     2
 10
5953.3510269844482536
 20
3739.79995934007502
 30
0.0
 40
49.9999999999999929
  1
18
 41
0.8
 72
     4
 11
5981.9224555558757856
 21
3764.79995934007502
 31
0.0
  0
TEXT
  5
1577
  8
0
  6
CONTINUOUS
 62
     2
 10
6718.589122222541846
 20
4699.7999593400745653
 30
0.0
 40
49.9999999999999929
  1
2
 41
0.8
 72
     4
 11
6731.9224555558757856
 21
4724.7999593400736558
 31
0.0
  0
TEXT
  5
1578
  8
0
  6
CONTINUOUS
 62
     2
 10
6727.160550793971197
 20
4619.7999593400736558
 30
0.0
 40
49.9999999999999929
  1
1
 41
0.8
 72
     4
 11
6731.9224555558757856
 21
4644.7999593400736558
 31
0.0
  0
TEXT
  5
1579
  8
0
  6
CONTINUOUS
 62
     2
 10
6074.4224555558748762
 20
4699.7999593400745653
 30
0.0
 40
49.9999999999999929
  1
殺菌灯時間計
  0
TEXT
  5
157A
  8
0
  6
CONTINUOUS
 62
     2
 10
6074.4224555558748762
 20
4619.7999593400736558
 30
0.0
 40
49.9999999999999929
  1
時間計リセットスイッチ
 41
0.85
  0
LINE
  5
159F
  8
0
  6
CONTINUOUS
 62
     2
 10
6198.6598015046329238
 20
2278.0139541326789185
 30
0.0
 11
7654.8318179208426955
 21
2278.0139541326789185
 31
0.0
  0
TEXT
  5
15A0
  8
0
  6
CONTINUOUS
 62
     2
 10
6229.5736753208329901
 20
2292.7622010629270335
 30
0.0
 40
49.9999999998000035
  1
特記）鏡以外の本体材質は、全てアクリル系人工大理石製のこと。
 41
0.8
  0
LINE
  5
15A1
  8
0
  6
CONTINUOUS
 62
     2
 10
5497.1859486370813102
 20
4422.4839398751491899
 30
0.0
 11
5138.5295419467729516
 21
4422.4839398751491899
 31
0.0
  0
TEXT
  5
15A2
  8
0
  6
CONTINUOUS
 62
     2
 10
5138.5295419467729516
 20
4434.2186294718985664
 30
0.0
 40
49.9999999999999787
  1
フローシート
  0
LINE
  5
15A3
  8
0
  6
PHANTOM
 62
     3
 10
4787.8356831995770335
 20
4649.15898157626998
 30
0.0
 11
5719.422455562162213
 21
4649.15898157626998
 31
0.0
  0
LINE
  5
15A4
  8
0
  6
PHANTOM
 62
     3
 10
5719.422455562162213
 20
4649.15898157626998
 30
0.0
 11
5719.422455562162213
 21
5244.7999593400736558
 31
0.0
  0
LINE
  5
15A5
  8
0
  6
PHANTOM
 62
     3
 10
5719.422455562162213
 20
5244.7999593400736558
 30
0.0
 11
4787.8356831995770335
 21
5244.7999593400736558
 31
0.0
  0
LINE
  5
15A6
  8
0
  6
PHANTOM
 62
     3
 10
4787.8356831995770335
 20
5244.7999593400736558
 30
0.0
 11
4787.8356831995770335
 21
4649.15898157626998
 31
0.0
  0
LINE
  5
15A7
  8
0
  6
CONTINUOUS
 62
     3
 10
4939.957471594971139
 20
4749.0648284992203116
 30
0.0
 11
4939.957471594971139
 21
4817.4224928679177538
 31
0.0
  0
LINE
  5
15A8
  8
0
  6
CONTINUOUS
 62
     3
 10
4839.957471594971139
 20
4817.4224928679177538
 30
0.0
 11
4839.957471594971139
 21
4749.0648284992203116
 31
0.0
  0
CIRCLE
  5
15A9
  8
0
  6
CONTINUOUS
 62
     3
 10
4889.957471594971139
 20
4783.2436606835690327
 30
0.0
 40
20.0
  0
LINE
  5
15AA
  8
0
 62
     7
 10
4863.2908049282850698
 20
4749.0648284992203116
 30
0.0
 11
4863.2908049282850698
 21
4602.323440430568553
 31
0.0
  0
LINE
  5
15AB
  8
0
 62
     7
 10
4916.6241382616572082
 20
4749.0648284992203116
 30
0.0
 11
4916.6241382616572082
 21
4602.323440430568553
 31
0.0
  0
LINE
  5
15AC
  8
0
  6
CONTINUOUS
 62
     3
 10
4931.6241382616572082
 20
4602.323440430568553
 30
0.0
 11
4901.6241382616572082
 21
4552.323440430568553
 31
0.0
  0
LINE
  5
15AD
  8
0
  6
CONTINUOUS
 62
     3
 10
4901.6241382616572082
 20
4602.323440430568553
 30
0.0
 11
4931.6241382616572082
 21
4552.323440430568553
 31
0.0
  0
LINE
  5
15AE
  8
0
  6
CONTINUOUS
 62
     3
 10
4841.3363867136058616
 20
4562.323440430570372
 30
0.0
 11
4841.3363867136058616
 21
4592.323440430568553
 31
0.0
  0
LINE
  5
15AF
  8
0
  6
CONTINUOUS
 62
     3
 10
4894.6697200469207019
 20
4562.323440430570372
 30
0.0
 11
4894.6697200469207019
 21
4592.323440430568553
 31
0.0
  0
LINE
  5
15B0
  8
0
  6
CONTINUOUS
 62
     3
 10
4878.2908049282850698
 20
4602.323440430568553
 30
0.0
 11
4848.2908049282859793
 21
4552.323440430568553
 31
0.0
  0
LINE
  5
15B1
  8
0
  6
CONTINUOUS
 62
     3
 10
4848.2908049282859793
 20
4602.323440430568553
 30
0.0
 11
4878.2908049282850698
 21
4552.323440430568553
 31
0.0
  0
LINE
  5
15B2
  8
0
  6
CONTINUOUS
 62
     3
 10
4863.2908049282850698
 20
4552.323440430568553
 30
0.0
 11
4863.2908049282850698
 21
4532.323440430568553
 31
0.0
  0
LINE
  5
15B3
  8
0
  6
CONTINUOUS
 62
     3
 10
4848.2908049282859793
 20
4552.323440430568553
 30
0.0
 11
4878.2908049282850698
 21
4552.323440430568553
 31
0.0
  0
LINE
  5
15B4
  8
0
  6
CONTINUOUS
 62
     3
 10
4916.6241382616572082
 20
4552.323440430568553
 30
0.0
 11
4916.6241382616572082
 21
4532.323440430568553
 31
0.0
  0
LINE
  5
15B5
  8
0
  6
CONTINUOUS
 62
     3
 10
4901.6241382616572082
 20
4552.323440430568553
 30
0.0
 11
4931.6241382616572082
 21
4552.323440430568553
 31
0.0
  0
LINE
  5
15B6
  8
0
  6
CONTINUOUS
 62
     3
 10
4916.6241382616572082
 20
4577.323440430570372
 30
0.0
 11
4894.6697200469207019
 21
4577.323440430570372
 31
0.0
  0
LINE
  5
15B7
  8
0
  6
CONTINUOUS
 62
     3
 10
4863.2908049282850698
 20
4577.323440430570372
 30
0.0
 11
4841.3363867136058616
 21
4577.323440430570372
 31
0.0
  0
LINE
  5
15B8
  8
0
  6
CONTINUOUS
 62
     3
 10
4878.2908049282850698
 20
4602.323440430568553
 30
0.0
 11
4848.2908049282859793
 21
4602.323440430568553
 31
0.0
  0
LINE
  5
15B9
  8
0
  6
CONTINUOUS
 62
     3
 10
4931.6241382616572082
 20
4602.323440430568553
 30
0.0
 11
4901.6241382616572082
 21
4602.323440430568553
 31
0.0
  0
LINE
  5
15BA
  8
0
  6
CONTINUOUS
 62
     3
 10
4839.957471594971139
 20
4749.0648284992203116
 30
0.0
 11
4939.957471594971139
 21
4749.0648284992203116
 31
0.0
  0
LINE
  5
15BB
  8
0
 62
     7
 10
4889.957471594971139
 20
4817.4224928679177538
 30
0.0
 11
4889.957471594971139
 21
5054.3798002163530327
 31
0.0
  0
LINE
  5
15BC
  8
0
  6
CONTINUOUS
 62
     3
 10
4939.957471594971139
 20
4817.4224928679177538
 30
0.0
 11
4839.957471594971139
 21
4817.4224928679177538
 31
0.0
  0
LINE
  5
15BD
  8
0
 62
     7
 10
4889.957471594971139
 20
5054.3798002163530327
 30
0.0
 11
5141.3831149523612112
 21
5054.3798002163530327
 31
0.0
  0
LINE
  5
15BE
  8
0
 62
     7
 10
5622.2086955106933601
 20
5054.3798002163530327
 30
0.0
 11
5622.2086955106933601
 21
4977.5119816560181789
 31
0.0
  0
LINE
  5
15BF
  8
0
  6
CONTINUOUS
 62
     3
 10
5622.2086955106933601
 20
4898.6696149893095935
 30
0.0
 11
5622.2086955106933601
 21
4871.5122258226620033
 31
0.0
  0
LINE
  5
15C0
  8
0
  6
CONTINUOUS
 62
     3
 10
5636.8831746773794293
 20
4897.8936549893105621
 30
0.0
 11
5646.1942913440288976
 21
4876.1679874893743545
 31
0.0
  0
LINE
  5
15C1
  8
0
  6
CONTINUOUS
 62
     3
 10
5607.5342163440072909
 20
4897.8936549893105621
 30
0.0
 11
5598.2230996773578227
 21
4876.1679874893743545
 31
0.0
  0
LINE
  5
15C2
  8
0
  6
CONTINUOUS
 62
     3
 10
5622.2086955106933601
 20
4940.0119816560181789
 30
0.0
 11
5640.9586955106933601
 21
4907.5359883226919919
 31
0.0
  0
LINE
  5
15C3
  8
0
  6
CONTINUOUS
 62
     3
 10
5603.4586955106933601
 20
4907.5359883226919919
 30
0.0
 11
5640.9586955106933601
 21
4907.5359883226919919
 31
0.0
  0
LINE
  5
15C4
  8
0
  6
CONTINUOUS
 62
     3
 10
5603.4586955106933601
 20
4940.0119816560181789
 30
0.0
 11
5640.9586955106933601
 21
4940.0119816560181789
 31
0.0
  0
LINE
  5
15C5
  8
0
  6
CONTINUOUS
 62
     3
 10
5640.9586955106933601
 20
4977.5119816560181789
 30
0.0
 11
5603.4586955106933601
 21
4977.5119816560181789
 31
0.0
  0
LINE
  5
15C6
  8
0
  6
CONTINUOUS
 62
     3
 10
5603.4586955106933601
 20
4907.5359883226919919
 30
0.0
 11
5622.2086955106933601
 21
4940.0119816560181789
 31
0.0
  0
LINE
  5
15C7
  8
0
  6
CONTINUOUS
 62
     3
 10
5611.7920288440072909
 20
4969.1786483227042481
 30
0.0
 11
5611.7920288440072909
 21
4948.3453149893321097
 31
0.0
  0
LINE
  5
15C8
  8
0
  6
CONTINUOUS
 62
     3
 10
5632.6253621773794293
 20
4948.3453149893321097
 30
0.0
 11
5632.6253621773794293
 21
4969.1786483227042481
 31
0.0
  0
LINE
  5
15C9
  8
0
  6
CONTINUOUS
 62
     3
 10
5611.7920288440072909
 20
4948.3453149893321097
 30
0.0
 11
5632.6253621773794293
 21
4948.3453149893321097
 31
0.0
  0
LINE
  5
15CA
  8
0
  6
CONTINUOUS
 62
     3
 10
5632.6253621773794293
 20
4969.1786483227042481
 30
0.0
 11
5611.7920288440072909
 21
4969.1786483227042481
 31
0.0
  0
LINE
  5
15CB
  8
0
  6
CONTINUOUS
 62
     3
 10
5603.4586955106933601
 20
4977.5119816560181789
 30
0.0
 11
5603.4586955106933601
 21
4940.0119816560181789
 31
0.0
  0
LINE
  5
15CC
  8
0
  6
CONTINUOUS
 62
     3
 10
5640.9586955106933601
 20
4940.0119816560181789
 30
0.0
 11
5640.9586955106933601
 21
4977.5119816560181789
 31
0.0
  0
LINE
  5
15CD
  8
0
 62
     7
 10
5622.2086955106933601
 20
5054.3798002163530327
 30
0.0
 11
5459.13189103663899
 21
5054.3798002163530327
 31
0.0
  0
CIRCLE
  5
15CE
  8
0
  6
CONTINUOUS
 62
     3
 10
5427.88189103663899
 20
5108.8006341485888697
 30
0.0
 40
24.9999999999999893
  0
LINE
  5
15CF
  8
0
  6
CONTINUOUS
 62
     3
 10
5396.63189103663899
 20
5073.1298002163530327
 30
0.0
 11
5459.13189103663899
 21
5035.6298002163530327
 31
0.0
  0
LINE
  5
15D0
  8
0
  6
CONTINUOUS
 62
     3
 10
5396.63189103663899
 20
5035.6298002163530327
 30
0.0
 11
5459.13189103663899
 21
5073.1298002163530327
 31
0.0
  0
LINE
  5
15D1
  8
0
  6
CONTINUOUS
 62
     3
 10
5396.63189103663899
 20
5073.1298002163530327
 30
0.0
 11
5396.63189103663899
 21
5035.6298002163530327
 31
0.0
  0
LINE
  5
15D2
  8
0
  6
CONTINUOUS
 62
     3
 10
5459.13189103663899
 20
5035.6298002163530327
 30
0.0
 11
5459.13189103663899
 21
5073.1298002163530327
 31
0.0
  0
LINE
  5
15D3
  8
0
  6
CONTINUOUS
 62
     3
 10
5427.88189103663899
 20
5054.3798002163530327
 30
0.0
 11
5427.88189103663899
 21
5083.8006341485879602
 31
0.0
  0
TEXT
  5
15D4
  8
0
  6
CONTINUOUS
 62
     2
 10
5420.1041132588616165
 20
5094.2173008152549301
 30
0.0
 40
29.1666666666666607
  1
S
 41
0.8
 72
     4
 11
5427.88189103663899
 21
5108.8006341485888697
 31
0.0
  0
LINE
  5
15D5
  8
0
  6
CONTINUOUS
 62
     3
 10
5141.3831149523612112
 20
5073.1298002163530327
 30
0.0
 11
5203.8831149523612112
 21
5035.6298002163530327
 31
0.0
  0
LINE
  5
15D6
  8
0
  6
CONTINUOUS
 62
     3
 10
5141.3831149523612112
 20
5035.6298002163530327
 30
0.0
 11
5203.8831149523612112
 21
5073.1298002163530327
 31
0.0
  0
LINE
  5
15D7
  8
0
  6
CONTINUOUS
 62
     3
 10
5141.3831149523612112
 20
5073.1298002163530327
 30
0.0
 11
5141.3831149523612112
 21
5035.6298002163530327
 31
0.0
  0
LINE
  5
15D8
  8
0
  6
CONTINUOUS
 62
     3
 10
5203.8831149523612112
 20
5035.6298002163530327
 30
0.0
 11
5203.8831149523612112
 21
5073.1298002163530327
 31
0.0
  0
LINE
  5
15D9
  8
0
  6
CONTINUOUS
 62
     3
 10
5172.6331149523612112
 20
5054.3798002163530327
 30
0.0
 11
5172.6331149523612112
 21
5092.0894174371496774
 31
0.0
  0
LINE
  5
15DA
  8
0
  6
CONTINUOUS
 62
     3
 10
5142.6331149523612112
 20
5092.0894174371496774
 30
0.0
 11
5172.6331149523612112
 21
5092.0894174371496774
 31
0.0
  0
CIRCLE
  5
15DB
  8
0
  6
CONTINUOUS
 62
     3
 10
5172.6331149523612112
 20
5054.3798002163530327
 30
0.0
 40
12.0
  0
TEXT
  5
15DC
  8
0
  6
CONTINUOUS
 62
     2
 10
5379.1355362373278695
 20
4969.5566807428258471
 30
0.0
 40
49.9999999999999929
  1
電磁弁
 41
0.65
  0
TEXT
  5
15DD
  8
0
  6
CONTINUOUS
 62
     2
 10
5450.0862018136540428
 20
4798.5122912777578676
 30
0.0
 40
49.9999999999999929
  1
逆汚染防止蛇口
 41
0.6
  0
TEXT
  5
15DE
  8
0
  6
CONTINUOUS
 62
     2
 10
4898.8684502202086151
 20
4457.9867785783126237
 30
0.0
 40
49.9999999999999929
  1
給水
 41
0.65
  0
TEXT
  5
15DF
  8
0
  6
CONTINUOUS
 62
     2
 10
4800.1559004518203437
 20
4459.028897163459078
 30
0.0
 40
49.9999999999999929
  1
給湯
 41
0.65
  0
INSERT
  5
15E0
  8
0
 62
     7
  2
*U121
 10
0.0
 20
0.0
 30
0.0
1001
ACAD
1000
DSTYLE
1002
{
1070
   340
1005
F
1002
}
  0
CIRCLE
  5
15E1
  8
0
  6
CONTINUOUS
 62
     2
 10
5002.3626685556946541
 20
5162.6070313365198672
 30
0.0
 40
49.9999999999999787
  0
TEXT
  5
15E2
  8
0
  6
CONTINUOUS
 62
     2
 10
4968.0769542699808881
 20
5132.6070313365198672
 30
0.0
 40
59.9999999999999787
  1
15
 41
0.8
 72
     1
 11
5002.3626685556946541
 21
5162.6070313365198672
 31
0.0
 73
     2
  0
INSERT
  5
15E3
  8
0
 62
     7
  2
*U122
 10
0.0
 20
0.0
 30
0.0
1001
ACAD
1000
DSTYLE
1002
{
1070
   340
1005
F
1002
}
  0
CIRCLE
  5
15E4
  8
0
  6
CONTINUOUS
 62
     2
 10
5112.508145447995048
 20
4723.6576493277680129
 30
0.0
 40
49.9999999999999787
  0
TEXT
  5
15E5
  8
0
  6
CONTINUOUS
 62
     2
 10
5078.222431162281282
 20
4693.6576493277680129
 30
0.0
 40
59.9999999999999787
  1
10
 41
0.8
 72
     1
 11
5112.508145447995048
 21
4723.6576493277680129
 31
0.0
 73
     2
  0
INSERT
  5
15E6
  8
0
 62
     7
  2
*U123
 10
0.0
 20
0.0
 30
0.0
1001
ACAD
1000
DSTYLE
1002
{
1070
   340
1005
F
1002
}
  0
CIRCLE
  5
15E7
  8
0
  6
CONTINUOUS
 62
     2
 10
5118.7840930252568796
 20
4558.4297467222777414
 30
0.0
 40
49.9999999999999787
  0
TEXT
  5
15E8
  8
0
  6
CONTINUOUS
 62
     2
 10
5083.3555215966853211
 20
4528.4297467222777414
 30
0.0
 40
59.9999999999999787
  1
14
 41
0.8
 72
     1
 11
5118.7840930252568796
 21
4558.4297467222777414
 31
0.0
 73
     2
  0
LINE
  5
15E9
  8
0
 10
5396.63189103663899
 20
5054.3798002163530327
 30
0.0
 11
5203.8831149523612112
 21
5054.3798002163530327
 31
0.0
  0
TEXT
  5
16E1
  8
0
  6
CONTINUOUS
 62
     3
 10
5984.3588590031968124
 20
610.1859779204824008
 30
0.0
 40
100.0
  1
1人用手洗装置（水道水対応）外形図
 41
0.9
 72
     4
 11
6867.6445732889123974
 21
660.1859779204824008
 31
0.0
  0
INSERT
  5
16E3
  8
0
 62
     6
  2
A$C4CD329FB
 10
4484.024956916924566
 20
1115.2527918371490614
 30
0.0
  0
POLYLINE
  5
16E7
  8
0
 62
     7
 66
     1
 10
0.0
 20
0.0
 30
0.0
 70
     1
  0
VERTEX
  5
2468
  8
0
 62
     7
 10
0.0
 20
0.0
 30
0.0
  0
VERTEX
  5
2469
  8
0
 62
     7
 10
7809.2857142857392319
 20
0.0
 30
0.0
  0
VERTEX
  5
246A
  8
0
 62
     7
 10
7809.2857142857392319
 20
5446.4761904762126505
 30
0.0
  0
VERTEX
  5
246B
  8
0
 62
     7
 10
0.0
 20
5446.4761904762126505
 30
0.0
  0
SEQEND
  5
246C
  8
0
 62
     7
  0
LINE
  5
16EA
  8
0
  6
CONTINUOUS
 62
     3
 10
4302.0246329169021919
 20
2695.2526988371978405
 30
0.0
 11
4304.0246329169021919
 21
2695.2526988371978405
 31
0.0
  0
LINE
  5
16EB
  8
0
  6
CONTINUOUS
 62
     3
 10
4298.0246329169012824
 20
2705.2526988371978405
 30
0.0
 11
4302.0246329169021919
 21
2705.2526988371978405
 31
0.0
  0
LINE
  5
16EC
  8
0
  6
CONTINUOUS
 62
     3
 10
4293.0246329169021919
 20
2706.7526988372560481
 30
0.0
 11
4298.0246329169012824
 21
2706.7526988372560481
 31
0.0
  0
LINE
  5
16ED
  8
0
  6
CONTINUOUS
 62
     3
 10
4298.0246329169012824
 20
2706.7526988372560481
 30
0.0
 11
4298.0246329169012824
 21
2705.2526988371978405
 31
0.0
  0
LINE
  5
16EE
  8
0
  6
CONTINUOUS
 62
     3
 10
4293.0246329169021919
 20
2706.7526988372560481
 30
0.0
 11
4293.0246329169021919
 21
2705.163297800347209
 31
0.0
  0
LINE
  5
16EF
  8
0
  6
CONTINUOUS
 62
     3
 10
4302.0246329169021919
 20
2705.2526988371978405
 30
0.0
 11
4302.0246329169021919
 21
2492.1288886604597792
 31
0.0
  0
LINE
  5
16F0
  8
0
  6
CONTINUOUS
 62
     3
 10
4270.0246329169031014
 20
2303.252698837196931
 30
0.0
 11
4285.908590916893445
 21
2303.252698837196931
 31
0.0
  0
LINE
  5
16F1
  8
0
  6
CONTINUOUS
 62
     3
 10
4222.0246329169021919
 20
2302.2526988371978405
 30
0.0
 11
4295.0246329169021919
 21
2302.2526988371978405
 31
0.0
  0
LINE
  5
16F2
  8
0
  6
CONTINUOUS
 62
     3
 10
4222.0246329169021919
 20
2303.252698837196931
 30
0.0
 11
4240.0246329169021919
 21
2303.252698837196931
 31
0.0
  0
LINE
  5
16F3
  8
0
  6
CONTINUOUS
 62
     3
 10
4222.0246329169021919
 20
2303.252698837196931
 30
0.0
 11
4222.0246329169021919
 21
2302.2526988371978405
 31
0.0
  0
LINE
  5
16F4
  8
0
  6
CONTINUOUS
 62
     3
 10
4268.0246329169021919
 20
2308.3859358371701092
 30
0.0
 11
4242.0246329169021919
 21
2308.3859358371701092
 31
0.0
  0
LINE
  5
16F5
  8
0
  6
CONTINUOUS
 62
     3
 10
4240.0246329169021919
 20
2306.3859358371701092
 30
0.0
 11
4240.0246329169021919
 21
2302.2526988371978405
 31
0.0
  0
LINE
  5
16F6
  8
0
  6
CONTINUOUS
 62
     3
 10
4245.0246329169021919
 20
2302.2526988371978405
 30
0.0
 11
4245.0246329169021919
 21
2297.752698837196931
 31
0.0
  0
LINE
  5
16F7
  8
0
  6
CONTINUOUS
 62
     3
 10
4270.0246329169031014
 20
2306.3859358371701092
 30
0.0
 11
4270.0246329169031014
 21
2302.2526988371978405
 31
0.0
  0
LINE
  5
16F8
  8
0
  6
CONTINUOUS
 62
     3
 10
4286.6146569169359282
 20
2302.3627268371637911
 30
0.0
 11
4291.0246329169021919
 21
2307.7526988371978405
 31
0.0
  0
LINE
  5
16F9
  8
0
  6
CONTINUOUS
 62
     3
 10
4286.1407779168803245
 20
2303.3627268371637911
 30
0.0
 11
4290.2506759169045836
 21
2308.3859358371701092
 31
0.0
  0
LINE
  5
16FA
  8
0
  6
CONTINUOUS
 62
     3
 10
4285.0246329169021919
 20
2299.252698837196931
 30
0.0
 11
4296.0246329169021919
 21
2299.252698837196931
 31
0.0
  0
LINE
  5
16FB
  8
0
  6
CONTINUOUS
 62
     3
 10
4285.0246329169021919
 20
2302.2526988371978405
 30
0.0
 11
4285.0246329169021919
 21
2297.752698837196931
 31
0.0
  0
LINE
  5
16FC
  8
0
  6
CONTINUOUS
 62
     3
 10
4290.2506759169045836
 20
2308.3859358371701092
 30
0.0
 11
4291.0246329169021919
 21
2307.7526988371978405
 31
0.0
  0
LINE
  5
16FD
  8
0
  6
CONTINUOUS
 62
     3
 10
4299.0781203042715788
 20
2484.2526988372560481
 30
0.0
 11
4304.0246329169021919
 21
2484.2526988371978405
 31
0.0
  0
LINE
  5
16FE
  8
0
  6
CONTINUOUS
 62
     3
 10
4295.0246329169021919
 20
2481.220176545844879
 30
0.0
 11
4295.0246329169021919
 21
2302.2526988371391781
 31
0.0
  0
LINE
  5
16FF
  8
0
  6
CONTINUOUS
 62
     3
 10
4298.0246329169012824
 20
2483.1846167505718768
 30
0.0
 11
4298.0246329169012824
 21
2301.252698837196931
 31
0.0
  0
LINE
  5
1700
  8
0
  6
CONTINUOUS
 62
     3
 10
4211.4993975309189409
 20
2511.2526988371391781
 30
0.0
 11
4218.2056739795953035
 21
2511.2526988371391781
 31
0.0
  0
LINE
  5
1701
  8
0
  6
CONTINUOUS
 62
     3
 10
4211.4993975309771486
 20
2537.2526988373720087
 30
0.0
 11
4218.4993975309771486
 21
2537.2526988371391781
 31
0.0
  0
LINE
  5
1702
  8
0
  6
CONTINUOUS
 62
     3
 10
4125.0255571984453127
 20
2481.252698837196931
 30
0.0
 11
4125.0255571984453127
 21
2460.252698837196931
 31
0.0
  0
LINE
  5
1703
  8
0
  6
CONTINUOUS
 62
     3
 10
4015.0255571985030656
 20
2455.2526988371978405
 30
0.0
 11
4120.0255571984453127
 21
2455.2526988371978405
 31
0.0
  0
LINE
  5
1704
  8
0
  6
CONTINUOUS
 62
     3
 10
4015.0255571985030656
 20
2493.7526988371978405
 30
0.0
 11
4015.0255571985030656
 21
2455.2526988371978405
 31
0.0
  0
LINE
  5
1705
  8
0
  6
CONTINUOUS
 62
     3
 10
4056.0255571984448579
 20
2496.2526988372560481
 30
0.0
 11
4056.0255571985039751
 21
2455.2526988371978405
 31
0.0
  0
LINE
  5
1706
  8
0
  6
CONTINUOUS
 62
     3
 10
4055.5877438254537992
 20
2505.4555811933241785
 30
0.0
 11
4053.7317149033769965
 21
2510.5549787465138252
 31
0.0
  0
LINE
  5
1707
  8
0
  6
CONTINUOUS
 62
     3
 10
4031.5246329169021919
 20
2455.2526988371978405
 30
0.0
 11
4031.5246329169021919
 21
2450.2526988371400876
 31
0.0
  0
LINE
  5
1708
  8
0
  6
CONTINUOUS
 62
     3
 10
4031.5246329169021919
 20
2450.2526988371400876
 30
0.0
 11
4038.5246329169021919
 21
2450.2526988371400876
 31
0.0
  0
LINE
  5
1709
  8
0
  6
CONTINUOUS
 62
     3
 10
4038.5246329169021919
 20
2455.2526988371978405
 30
0.0
 11
4038.5246329169021919
 21
2450.2526988371400876
 31
0.0
  0
LINE
  5
170A
  8
0
  6
CONTINUOUS
 62
     3
 10
4224.1065034781931899
 20
2502.7526988373138011
 30
0.0
 11
4224.1065034782513976
 21
2497.7526988373138011
 31
0.0
  0
LINE
  5
170B
  8
0
  6
CONTINUOUS
 62
     3
 10
4139.0255571984453127
 20
2495.2526988371978405
 30
0.0
 11
4223.4065034782970542
 21
2495.2526988371978405
 31
0.0
  0
LINE
  5
170C
  8
0
  6
CONTINUOUS
 62
     3
 10
4060.6952544185910483
 20
2504.2526988371978405
 30
0.0
 11
4223.96650348266121
 21
2504.2526988371978405
 31
0.0
  0
LINE
  5
170D
  8
0
  6
CONTINUOUS
 62
     3
 10
4218.1570907349805566
 20
2505.252698837196931
 30
0.0
 11
4223.4065034782397561
 21
2505.252698837196931
 31
0.0
  0
LINE
  5
170E
  8
0
  6
CONTINUOUS
 62
     3
 10
4218.6887385317822918
 20
2549.7526988371391781
 30
0.0
 11
4220.6890074987895787
 21
2549.7526988367321792
 31
0.0
  0
LINE
  5
170F
  8
0
  6
CONTINUOUS
 62
     3
 10
4254.9953319169580936
 20
2456.2767559970379807
 30
0.0
 11
4260.4835239169187844
 21
2470.4305139970388154
 31
0.0
  0
LINE
  5
1710
  8
0
  6
CONTINUOUS
 62
     3
 10
4248.9349829169223085
 20
2458.6266869970709195
 30
0.0
 11
4255.4615129169542342
 21
2456.095991997047804
 31
0.0
  0
LINE
  5
1711
  8
0
  6
CONTINUOUS
 62
     3
 10
4249.4011639169184491
 20
2458.445922997082107
 30
0.0
 11
4254.8893559169373475
 21
2472.5996809970820323
 31
0.0
  0
LINE
  5
1712
  8
0
  6
CONTINUOUS
 62
     3
 10
4261.0246329169603996
 20
2473.32273699704092
 30
0.0
 11
4261.0246329169021919
 21
2478.32273699704092
 31
0.0
  0
LINE
  5
1713
  8
0
  6
CONTINUOUS
 62
     3
 10
4255.0246329166111536
 20
2478.0617092780889834
 30
0.0
 11
4255.0246329169603996
 21
2473.32273699704092
 31
0.0
  0
LINE
  5
1714
  8
0
  6
CONTINUOUS
 62
     3
 10
4246.0246329169021919
 20
2296.7526988371978405
 30
0.0
 11
4284.0246329169021919
 21
2296.7526988371978405
 31
0.0
  0
LINE
  5
1715
  8
0
  6
CONTINUOUS
 62
     3
 10
4196.3249248040956445
 20
2322.948111520322982
 30
0.0
 11
4248.9349829169223085
 21
2458.6266869970709195
 31
0.0
  0
LINE
  5
1716
  8
0
  6
CONTINUOUS
 62
     3
 10
4202.8514512467663735
 20
2320.4174174893410054
 30
0.0
 11
4255.4615129169542342
 21
2456.095991997047804
 31
0.0
  0
LINE
  5
1717
  8
0
  6
CONTINUOUS
 62
     3
 10
4196.3249248040956445
 20
2322.948111520322982
 30
0.0
 11
4202.8514512467663735
 21
2320.4174174893410054
 31
0.0
  0
CIRCLE
  5
1718
  8
0
  6
CONTINUOUS
 62
     3
 10
4295.5246329169021919
 20
2508.2526988371978405
 30
0.0
 40
2.5000000000040918
  0
CIRCLE
  5
1719
  8
0
  6
CONTINUOUS
 62
     3
 10
4282.0246329169021919
 20
2497.2526988373720087
 30
0.0
 40
7.0
  0
CIRCLE
  5
171A
  8
0
  6
CONTINUOUS
 62
     3
 10
4282.0246329169021919
 20
2497.2526988373720087
 30
0.0
 40
5.5
  0
ARC
  5
171B
  8
0
  6
CONTINUOUS
 62
     3
 10
4300.8876515964502687
 20
2405.2663606082210208
 30
0.0
 40
300.0
 50
90.5468045905528527
 51
104.0993171682731031
  0
ARC
  5
171C
  8
0
  6
CONTINUOUS
 62
     3
 10
4229.0246329169021919
 20
2691.3794615775118473
 30
0.0
 40
5.0
 50
104.0993171682731031
 51
177.4340859117758953
  0
ARC
  5
171D
  8
0
  6
CONTINUOUS
 62
     3
 10
4290.0246329169021919
 20
2492.1288886604597792
 30
0.0
 40
12.0
 50
274.3805105481586111
 51
0.0
  0
ARC
  5
171E
  8
0
  6
CONTINUOUS
 62
     3
 10
4214.5613202457307125
 20
3477.2427340817521326
 30
0.0
 40
1000.0
 50
270.255782786228508
 51
274.3805105481586111
  0
ARC
  5
171F
  8
0
  6
CONTINUOUS
 62
     3
 10
4246.0246329169021919
 20
2297.752698837196931
 30
0.0
 40
1.0
 50
180.0
 51
270.0
  0
ARC
  5
1720
  8
0
  6
CONTINUOUS
 62
     3
 10
4242.0246329169021919
 20
2306.3859358371701092
 30
0.0
 40
2.0
 50
90.0
 51
180.0
  0
ARC
  5
1721
  8
0
  6
CONTINUOUS
 62
     3
 10
4268.0246329169021919
 20
2306.3859358371701092
 30
0.0
 40
2.0
 50
0.0
 51
90.0
  0
ARC
  5
1722
  8
0
  6
CONTINUOUS
 62
     3
 10
4296.0246329169021919
 20
2301.252698837196931
 30
0.0
 40
2.0
 50
270.0
 51
0.0
  0
ARC
  5
1723
  8
0
  6
CONTINUOUS
 62
     3
 10
4284.0246329169021919
 20
2297.752698837196931
 30
0.0
 40
1.0
 50
270.0
 51
0.0
  0
ARC
  5
1724
  8
0
  6
CONTINUOUS
 62
     3
 10
4286.3824699168899315
 20
2302.5526988371861989
 30
0.0
 40
0.3
 50
270.0
 51
320.7105929992594042
  0
ARC
  5
1725
  8
0
  6
CONTINUOUS
 62
     3
 10
4285.908590916893445
 20
2303.5526988371861989
 30
0.0
 40
0.3
 50
270.0
 51
320.7105929992594042
  0
ARC
  5
1726
  8
0
  6
CONTINUOUS
 62
     3
 10
9219.0165458657429554
 20
2467.759899138648052
 30
0.0
 40
5001.0
 50
179.0605775106689066
 51
179.5704460494671082
  0
ARC
  5
1727
  8
0
  6
CONTINUOUS
 62
     3
 10
4295.4993975281240637
 20
2524.2526988371978405
 30
0.0
 40
84.999999997214573
 50
171.2025892888005956
 51
188.7974107111994044
  0
ARC
  5
1728
  8
0
  6
CONTINUOUS
 62
     3
 10
4211.4993975309189409
 20
2534.7526988373138011
 30
0.0
 40
2.4999999998267408
 50
89.9999999966649398
 51
255.7499673019719069
  0
ARC
  5
1729
  8
0
  6
CONTINUOUS
 62
     3
 10
9219.0165458657429554
 20
2467.759899138648052
 30
0.0
 40
5000.0
 50
179.6849541360662954
 51
179.8912204642934114
  0
ARC
  5
172A
  8
0
  6
CONTINUOUS
 62
     3
 10
4139.0255571984453127
 20
2481.252698837196931
 30
0.0
 40
14.0
 50
90.0
 51
180.0
  0
ARC
  5
172B
  8
0
  6
CONTINUOUS
 62
     3
 10
4120.0255571984453127
 20
2460.252698837196931
 30
0.0
 40
5.0
 50
270.0
 51
0.0
  0
ARC
  5
172C
  8
0
  6
CONTINUOUS
 62
     3
 10
4046.6952544185328406
 20
2456.252698837196931
 30
0.0
 40
50.0
 50
65.3800226728223919
 51
90.0
  0
ARC
  5
172D
  8
0
  6
CONTINUOUS
 62
     3
 10
4065.0255571985030656
 20
2496.2526988371978405
 30
0.0
 40
6.0
 50
335.6044330801256024
 51
65.3800226728223919
  0
ARC
  5
172E
  8
0
  6
CONTINUOUS
 62
     3
 10
4024.9540698864147998
 20
2514.4261933995289837
 30
0.0
 40
50.0
 50
308.4206174536071217
 51
335.6044330801256024
  0
ARC
  5
172F
  8
0
  6
CONTINUOUS
 62
     3
 10
4038.0255571985039751
 20
2493.7526988371978405
 30
0.0
 40
23.0
 50
46.9311722273751784
 51
180.0
  0
ARC
  5
1730
  8
0
  6
CONTINUOUS
 62
     3
 10
4234.0246329169012824
 20
2691.3794615775118473
 30
0.0
 40
5.0
 50
104.0993171682731031
 51
177.4340859117758953
  0
ARC
  5
1731
  8
0
  6
CONTINUOUS
 62
     3
 10
9224.0165458657411364
 20
2467.759899138648052
 30
0.0
 40
5000.0
 50
177.4340859117758953
 51
179.8912151615490984
  0
ARC
  5
1732
  8
0
  6
CONTINUOUS
 62
     3
 10
9219.0165458657429554
 20
2467.759899138648052
 30
0.0
 40
5000.0
 50
177.4340859117758953
 51
179.0603896085146971
  0
ARC
  5
1733
  8
0
  6
CONTINUOUS
 62
     3
 10
9219.0165458657429554
 20
2467.759899138648052
 30
0.0
 40
4998.9999999999990905
 50
179.0602016329692958
 51
179.5703601360791879
  0
ARC
  5
1734
  8
0
  6
CONTINUOUS
 62
     3
 10
4253.0246329169603996
 20
2473.32273699704092
 30
0.0
 40
2.0
 50
338.8059439994307809
 51
0.0
  0
ARC
  5
1735
  8
0
  6
CONTINUOUS
 62
     3
 10
4253.0246329169603996
 20
2473.32273699704092
 30
0.0
 40
8.0
 50
338.8059439994307809
 51
0.0
  0
POLYLINE
  5
1736
  8
0
  6
CONTINUOUS
 62
     3
 10
4056.0255571984839662
 20
2496.2526988372101187
 30
0.0
 66
     1
 70
     8
  0
VERTEX
  8
0
  5
25CC
 10
4056.03
 20
2496.25
 30
0.00000
  70
    32
  0
VERTEX
  8
0
  5
25CD
 10
4056.02
 20
2496.38
 30
0.00000
  70
    32
  0
VERTEX
  8
0
  5
25CE
 10
4056.02
 20
2496.50
 30
0.00000
  70
    32
  0
VERTEX
  8
0
  5
25CF
 10
4056.02
 20
2496.62
 30
0.00000
  70
    32
  0
VERTEX
  8
0
  5
25D0
 10
4056.01
 20
2496.74
 30
0.00000
  70
    32
  0
VERTEX
  8
0
  5
25D1
 10
4056.01
 20
2496.87
 30
0.00000
  70
    32
  0
VERTEX
  8
0
  5
25D2
 10
4056.00
 20
2496.99
 30
0.00000
  70
    32
  0
VERTEX
  8
0
  5
25D3
 10
4055.99
 20
2497.11
 30
0.00000
  70
    32
  0
VERTEX
  8
0
  5
25D4
 10
4055.98
 20
2497.23
 30
0.00000
  70
    32
  0
VERTEX
  8
0
  5
25D5
 10
4055.97
 20
2497.35
 30
0.00000
  70
    32
  0
VERTEX
  8
0
  5
25D6
 10
4055.96
 20
2497.48
 30
0.00000
  70
    32
  0
VERTEX
  8
0
  5
25D7
 10
4055.94
 20
2497.60
 30
0.00000
  70
    32
  0
VERTEX
  8
0
  5
25D8
 10
4055.92
 20
2497.72
 30
0.00000
  70
    32
  0
VERTEX
  8
0
  5
25D9
 10
4055.91
 20
2497.84
 30
0.00000
  70
    32
  0
VERTEX
  8
0
  5
25DA
 10
4055.89
 20
2497.96
 30
0.00000
  70
    32
  0
VERTEX
  8
0
  5
25DB
 10
4055.87
 20
2498.08
 30
0.00000
  70
    32
  0
VERTEX
  8
0
  5
25DC
 10
4055.85
 20
2498.20
 30
0.00000
  70
    32
  0
VERTEX
  8
0
  5
25DD
 10
4055.82
 20
2498.32
 30
0.00000
  70
    32
  0
VERTEX
  8
0
  5
25DE
 10
4055.80
 20
2498.44
 30
0.00000
  70
    32
  0
VERTEX
  8
0
  5
25DF
 10
4055.77
 20
2498.56
 30
0.00000
  70
    32
  0
VERTEX
  8
0
  5
25E0
 10
4055.75
 20
2498.68
 30
0.00000
  70
    32
  0
VERTEX
  8
0
  5
25E1
 10
4055.72
 20
2498.80
 30
0.00000
  70
    32
  0
VERTEX
  8
0
  5
25E2
 10
4055.69
 20
2498.92
 30
0.00000
  70
    32
  0
VERTEX
  8
0
  5
25E3
 10
4055.66
 20
2499.04
 30
0.00000
  70
    32
  0
VERTEX
  8
0
  5
25E4
 10
4055.62
 20
2499.16
 30
0.00000
  70
    32
  0
VERTEX
  8
0
  5
25E5
 10
4055.59
 20
2499.27
 30
0.00000
  70
    32
  0
VERTEX
  8
0
  5
25E6
 10
4055.55
 20
2499.39
 30
0.00000
  70
    32
  0
VERTEX
  8
0
  5
25E7
 10
4055.52
 20
2499.51
 30
0.00000
  70
    32
  0
VERTEX
  8
0
  5
25E8
 10
4055.48
 20
2499.62
 30
0.00000
  70
    32
  0
VERTEX
  8
0
  5
25E9
 10
4055.44
 20
2499.74
 30
0.00000
  70
    32
  0
VERTEX
  8
0
  5
25EA
 10
4055.40
 20
2499.85
 30
0.00000
  70
    32
  0
VERTEX
  8
0
  5
25EB
 10
4055.36
 20
2499.97
 30
0.00000
  70
    32
  0
VERTEX
  8
0
  5
25EC
 10
4055.32
 20
2500.08
 30
0.00000
  70
    32
  0
VERTEX
  8
0
  5
25ED
 10
4055.27
 20
2500.19
 30
0.00000
  70
    32
  0
VERTEX
  8
0
  5
25EE
 10
4055.23
 20
2500.31
 30
0.00000
  70
    32
  0
VERTEX
  8
0
  5
25EF
 10
4055.18
 20
2500.42
 30
0.00000
  70
    32
  0
VERTEX
  8
0
  5
25F0
 10
4055.13
 20
2500.53
 30
0.00000
  70
    32
  0
VERTEX
  8
0
  5
25F1
 10
4055.08
 20
2500.64
 30
0.00000
  70
    32
  0
VERTEX
  8
0
  5
25F2
 10
4055.03
 20
2500.75
 30
0.00000
  70
    32
  0
VERTEX
  8
0
  5
25F3
 10
4054.98
 20
2500.86
 30
0.00000
  70
    32
  0
VERTEX
  8
0
  5
25F4
 10
4054.92
 20
2500.97
 30
0.00000
  70
    32
  0
VERTEX
  8
0
  5
25F5
 10
4054.87
 20
2501.07
 30
0.00000
  70
    32
  0
VERTEX
  8
0
  5
25F6
 10
4054.81
 20
2501.18
 30
0.00000
  70
    32
  0
VERTEX
  8
0
  5
25F7
 10
4054.76
 20
2501.29
 30
0.00000
  70
    32
  0
VERTEX
  8
0
  5
25F8
 10
4054.70
 20
2501.39
 30
0.00000
  70
    32
  0
VERTEX
  8
0
  5
25F9
 10
4054.64
 20
2501.50
 30
0.00000
  70
    32
  0
VERTEX
  8
0
  5
25FA
 10
4054.58
 20
2501.60
 30
0.00000
  70
    32
  0
VERTEX
  8
0
  5
25FB
 10
4054.52
 20
2501.71
 30
0.00000
  70
    32
  0
VERTEX
  8
0
  5
25FC
 10
4054.45
 20
2501.81
 30
0.00000
  70
    32
  0
VERTEX
  8
0
  5
25FD
 10
4054.39
 20
2501.91
 30
0.00000
  70
    32
  0
VERTEX
  8
0
  5
25FE
 10
4054.32
 20
2502.01
 30
0.00000
  70
    32
  0
VERTEX
  8
0
  5
25FF
 10
4054.26
 20
2502.11
 30
0.00000
  70
    32
  0
VERTEX
  8
0
  5
2600
 10
4054.19
 20
2502.21
 30
0.00000
  70
    32
  0
VERTEX
  8
0
  5
2601
 10
4054.12
 20
2502.31
 30
0.00000
  70
    32
  0
VERTEX
  8
0
  5
2602
 10
4054.05
 20
2502.41
 30
0.00000
  70
    32
  0
VERTEX
  8
0
  5
2603
 10
4053.98
 20
2502.50
 30
0.00000
  70
    32
  0
VERTEX
  8
0
  5
2604
 10
4053.91
 20
2502.60
 30
0.00000
  70
    32
  0
VERTEX
  8
0
  5
2605
 10
4053.83
 20
2502.69
 30
0.00000
  70
    32
  0
VERTEX
  8
0
  5
2606
 10
4053.76
 20
2502.78
 30
0.00000
  70
    32
  0
VERTEX
  8
0
  5
2607
 10
4053.68
 20
2502.88
 30
0.00000
  70
    32
  0
VERTEX
  8
0
  5
2608
 10
4053.61
 20
2502.97
 30
0.00000
  70
    32
  0
VERTEX
  8
0
  5
2609
 10
4053.53
 20
2503.06
 30
0.00000
  70
    32
  0
VERTEX
  8
0
  5
260A
 10
4053.45
 20
2503.15
 30
0.00000
  70
    32
  0
VERTEX
  8
0
  5
260B
 10
4053.37
 20
2503.24
 30
0.00000
  70
    32
  0
VERTEX
  8
0
  5
260C
 10
4053.29
 20
2503.32
 30
0.00000
  70
    32
  0
VERTEX
  8
0
  5
260D
 10
4053.21
 20
2503.41
 30
0.00000
  70
    32
  0
VERTEX
  8
0
  5
260E
 10
4053.13
 20
2503.50
 30
0.00000
  70
    32
  0
VERTEX
  8
0
  5
260F
 10
4053.05
 20
2503.58
 30
0.00000
  70
    32
  0
VERTEX
  8
0
  5
2610
 10
4052.96
 20
2503.66
 30
0.00000
  70
    32
  0
VERTEX
  8
0
  5
2611
 10
4052.88
 20
2503.74
 30
0.00000
  70
    32
  0
VERTEX
  8
0
  5
2612
 10
4052.79
 20
2503.82
 30
0.00000
  70
    32
  0
VERTEX
  8
0
  5
2613
 10
4052.70
 20
2503.90
 30
0.00000
  70
    32
  0
VERTEX
  8
0
  5
2614
 10
4052.61
 20
2503.98
 30
0.00000
  70
    32
  0
VERTEX
  8
0
  5
2615
 10
4052.53
 20
2504.06
 30
0.00000
  70
    32
  0
VERTEX
  8
0
  5
2616
 10
4052.44
 20
2504.14
 30
0.00000
  70
    32
  0
VERTEX
  8
0
  5
2617
 10
4052.34
 20
2504.21
 30
0.00000
  70
    32
  0
VERTEX
  8
0
  5
2618
 10
4052.25
 20
2504.28
 30
0.00000
  70
    32
  0
VERTEX
  8
0
  5
2619
 10
4052.16
 20
2504.36
 30
0.00000
  70
    32
  0
VERTEX
  8
0
  5
261A
 10
4052.07
 20
2504.43
 30
0.00000
  70
    32
  0
VERTEX
  8
0
  5
261B
 10
4051.97
 20
2504.50
 30
0.00000
  70
    32
  0
VERTEX
  8
0
  5
261C
 10
4051.88
 20
2504.57
 30
0.00000
  70
    32
  0
VERTEX
  8
0
  5
261D
 10
4051.78
 20
2504.63
 30
0.00000
  70
    32
  0
VERTEX
  8
0
  5
261E
 10
4051.69
 20
2504.70
 30
0.00000
  70
    32
  0
VERTEX
  8
0
  5
261F
 10
4051.59
 20
2504.77
 30
0.00000
  70
    32
  0
VERTEX
  8
0
  5
2620
 10
4051.49
 20
2504.83
 30
0.00000
  70
    32
  0
VERTEX
  8
0
  5
2621
 10
4051.39
 20
2504.89
 30
0.00000
  70
    32
  0
VERTEX
  8
0
  5
2622
 10
4051.29
 20
2504.95
 30
0.00000
  70
    32
  0
VERTEX
  8
0
  5
2623
 10
4051.19
 20
2505.01
 30
0.00000
  70
    32
  0
VERTEX
  8
0
  5
2624
 10
4051.09
 20
2505.07
 30
0.00000
  70
    32
  0
VERTEX
  8
0
  5
2625
 10
4050.99
 20
2505.13
 30
0.00000
  70
    32
  0
VERTEX
  8
0
  5
2626
 10
4050.89
 20
2505.18
 30
0.00000
  70
    32
  0
VERTEX
  8
0
  5
2627
 10
4050.79
 20
2505.24
 30
0.00000
  70
    32
  0
VERTEX
  8
0
  5
2628
 10
4050.68
 20
2505.29
 30
0.00000
  70
    32
  0
VERTEX
  8
0
  5
2629
 10
4050.58
 20
2505.34
 30
0.00000
  70
    32
  0
VERTEX
  8
0
  5
262A
 10
4050.48
 20
2505.39
 30
0.00000
  70
    32
  0
VERTEX
  8
0
  5
262B
 10
4050.37
 20
2505.44
 30
0.00000
  70
    32
  0
VERTEX
  8
0
  5
262C
 10
4050.27
 20
2505.49
 30
0.00000
  70
    32
  0
VERTEX
  8
0
  5
262D
 10
4050.16
 20
2505.54
 30
0.00000
  70
    32
  0
VERTEX
  8
0
  5
262E
 10
4050.05
 20
2505.58
 30
0.00000
  70
    32
  0
VERTEX
  8
0
  5
262F
 10
4049.95
 20
2505.63
 30
0.00000
  70
    32
  0
VERTEX
  8
0
  5
2630
 10
4049.84
 20
2505.67
 30
0.00000
  70
    32
  0
VERTEX
  8
0
  5
2631
 10
4049.73
 20
2505.71
 30
0.00000
  70
    32
  0
VERTEX
  8
0
  5
2632
 10
4049.62
 20
2505.75
 30
0.00000
  70
    32
  0
VERTEX
  8
0
  5
2633
 10
4049.51
 20
2505.79
 30
0.00000
  70
    32
  0
VERTEX
  8
0
  5
2634
 10
4049.40
 20
2505.82
 30
0.00000
  70
    32
  0
VERTEX
  8
0
  5
2635
 10
4049.29
 20
2505.86
 30
0.00000
  70
    32
  0
VERTEX
  8
0
  5
2636
 10
4049.18
 20
2505.89
 30
0.00000
  70
    32
  0
VERTEX
  8
0
  5
2637
 10
4049.07
 20
2505.92
 30
0.00000
  70
    32
  0
VERTEX
  8
0
  5
2638
 10
4048.96
 20
2505.95
 30
0.00000
  70
    32
  0
VERTEX
  8
0
  5
2639
 10
4048.85
 20
2505.98
 30
0.00000
  70
    32
  0
VERTEX
  8
0
  5
263A
 10
4048.74
 20
2506.01
 30
0.00000
  70
    32
  0
VERTEX
  8
0
  5
263B
 10
4048.63
 20
2506.04
 30
0.00000
  70
    32
  0
VERTEX
  8
0
  5
263C
 10
4048.52
 20
2506.06
 30
0.00000
  70
    32
  0
VERTEX
  8
0
  5
263D
 10
4048.40
 20
2506.08
 30
0.00000
  70
    32
  0
VERTEX
  8
0
  5
263E
 10
4048.29
 20
2506.11
 30
0.00000
  70
    32
  0
VERTEX
  8
0
  5
263F
 10
4048.18
 20
2506.13
 30
0.00000
  70
    32
  0
VERTEX
  8
0
  5
2640
 10
4048.06
 20
2506.14
 30
0.00000
  70
    32
  0
VERTEX
  8
0
  5
2641
 10
4047.95
 20
2506.16
 30
0.00000
  70
    32
  0
VERTEX
  8
0
  5
2642
 10
4047.84
 20
2506.18
 30
0.00000
  70
    32
  0
VERTEX
  8
0
  5
2643
 10
4047.72
 20
2506.19
 30
0.00000
  70
    32
  0
VERTEX
  8
0
  5
2644
 10
4047.61
 20
2506.20
 30
0.00000
  70
    32
  0
VERTEX
  8
0
  5
2645
 10
4047.50
 20
2506.22
 30
0.00000
  70
    32
  0
VERTEX
  8
0
  5
2646
 10
4047.38
 20
2506.23
 30
0.00000
  70
    32
  0
VERTEX
  8
0
  5
2647
 10
4047.27
 20
2506.23
 30
0.00000
  70
    32
  0
VERTEX
  8
0
  5
2648
 10
4047.15
 20
2506.24
 30
0.00000
  70
    32
  0
VERTEX
  8
0
  5
2649
 10
4047.04
 20
2506.25
 30
0.00000
  70
    32
  0
VERTEX
  8
0
  5
264A
 10
4046.92
 20
2506.25
 30
0.00000
  70
    32
  0
VERTEX
  8
0
  5
264B
 10
4046.81
 20
2506.25
 30
0.00000
  70
    32
  0
VERTEX
  8
0
  5
264C
 10
4046.70
 20
2506.25
 30
0.00000
  70
    32
  0
SEQEND
  8
0
  5
264D
  0
POLYLINE
  5
1737
  8
0
  6
CONTINUOUS
 62
     3
 10
4223.406503478252489
 20
2495.2526988371814696
 30
0.0
 66
     1
 70
     8
  0
VERTEX
  8
0
  5
264E
 10
4223.41
 20
2495.25
 30
0.00000
  70
    32
  0
VERTEX
  8
0
  5
264F
 10
4223.42
 20
2495.25
 30
0.00000
  70
    32
  0
VERTEX
  8
0
  5
2650
 10
4223.42
 20
2495.25
 30
0.00000
  70
    32
  0
VERTEX
  8
0
  5
2651
 10
4223.43
 20
2495.25
 30
0.00000
  70
    32
  0
VERTEX
  8
0
  5
2652
 10
4223.44
 20
2495.26
 30
0.00000
  70
    32
  0
VERTEX
  8
0
  5
2653
 10
4223.45
 20
2495.26
 30
0.00000
  70
    32
  0
VERTEX
  8
0
  5
2654
 10
4223.46
 20
2495.26
 30
0.00000
  70
    32
  0
VERTEX
  8
0
  5
2655
 10
4223.47
 20
2495.26
 30
0.00000
  70
    32
  0
VERTEX
  8
0
  5
2656
 10
4223.48
 20
2495.26
 30
0.00000
  70
    32
  0
VERTEX
  8
0
  5
2657
 10
4223.48
 20
2495.27
 30
0.00000
  70
    32
  0
VERTEX
  8
0
  5
2658
 10
4223.49
 20
2495.27
 30
0.00000
  70
    32
  0
VERTEX
  8
0
  5
2659
 10
4223.50
 20
2495.28
 30
0.00000
  70
    32
  0
VERTEX
  8
0
  5
265A
 10
4223.51
 20
2495.28
 30
0.00000
  70
    32
  0
VERTEX
  8
0
  5
265B
 10
4223.52
 20
2495.28
 30
0.00000
  70
    32
  0
VERTEX
  8
0
  5
265C
 10
4223.53
 20
2495.29
 30
0.00000
  70
    32
  0
VERTEX
  8
0
  5
265D
 10
4223.53
 20
2495.29
 30
0.00000
  70
    32
  0
VERTEX
  8
0
  5
265E
 10
4223.54
 20
2495.30
 30
0.00000
  70
    32
  0
VERTEX
  8
0
  5
265F
 10
4223.55
 20
2495.31
 30
0.00000
  70
    32
  0
VERTEX
  8
0
  5
2660
 10
4223.56
 20
2495.31
 30
0.00000
  70
    32
  0
VERTEX
  8
0
  5
2661
 10
4223.57
 20
2495.32
 30
0.00000
  70
    32
  0
VERTEX
  8
0
  5
2662
 10
4223.58
 20
2495.33
 30
0.00000
  70
    32
  0
VERTEX
  8
0
  5
2663
 10
4223.58
 20
2495.34
 30
0.00000
  70
    32
  0
VERTEX
  8
0
  5
2664
 10
4223.59
 20
2495.34
 30
0.00000
  70
    32
  0
VERTEX
  8
0
  5
2665
 10
4223.60
 20
2495.35
 30
0.00000
  70
    32
  0
VERTEX
  8
0
  5
2666
 10
4223.61
 20
2495.36
 30
0.00000
  70
    32
  0
VERTEX
  8
0
  5
2667
 10
4223.62
 20
2495.37
 30
0.00000
  70
    32
  0
VERTEX
  8
0
  5
2668
 10
4223.63
 20
2495.38
 30
0.00000
  70
    32
  0
VERTEX
  8
0
  5
2669
 10
4223.63
 20
2495.39
 30
0.00000
  70
    32
  0
VERTEX
  8
0
  5
266A
 10
4223.64
 20
2495.40
 30
0.00000
  70
    32
  0
VERTEX
  8
0
  5
266B
 10
4223.65
 20
2495.41
 30
0.00000
  70
    32
  0
VERTEX
  8
0
  5
266C
 10
4223.66
 20
2495.42
 30
0.00000
  70
    32
  0
VERTEX
  8
0
  5
266D
 10
4223.67
 20
2495.43
 30
0.00000
  70
    32
  0
VERTEX
  8
0
  5
266E
 10
4223.67
 20
2495.44
 30
0.00000
  70
    32
  0
VERTEX
  8
0
  5
266F
 10
4223.68
 20
2495.45
 30
0.00000
  70
    32
  0
VERTEX
  8
0
  5
2670
 10
4223.69
 20
2495.47
 30
0.00000
  70
    32
  0
VERTEX
  8
0
  5
2671
 10
4223.70
 20
2495.48
 30
0.00000
  70
    32
  0
VERTEX
  8
0
  5
2672
 10
4223.71
 20
2495.49
 30
0.00000
  70
    32
  0
VERTEX
  8
0
  5
2673
 10
4223.71
 20
2495.51
 30
0.00000
  70
    32
  0
VERTEX
  8
0
  5
2674
 10
4223.72
 20
2495.52
 30
0.00000
  70
    32
  0
VERTEX
  8
0
  5
2675
 10
4223.73
 20
2495.53
 30
0.00000
  70
    32
  0
VERTEX
  8
0
  5
2676
 10
4223.74
 20
2495.55
 30
0.00000
  70
    32
  0
VERTEX
  8
0
  5
2677
 10
4223.74
 20
2495.56
 30
0.00000
  70
    32
  0
VERTEX
  8
0
  5
2678
 10
4223.75
 20
2495.58
 30
0.00000
  70
    32
  0
VERTEX
  8
0
  5
2679
 10
4223.76
 20
2495.59
 30
0.00000
  70
    32
  0
VERTEX
  8
0
  5
267A
 10
4223.77
 20
2495.61
 30
0.00000
  70
    32
  0
VERTEX
  8
0
  5
267B
 10
4223.77
 20
2495.62
 30
0.00000
  70
    32
  0
VERTEX
  8
0
  5
267C
 10
4223.78
 20
2495.64
 30
0.00000
  70
    32
  0
VERTEX
  8
0
  5
267D
 10
4223.79
 20
2495.66
 30
0.00000
  70
    32
  0
VERTEX
  8
0
  5
267E
 10
4223.80
 20
2495.67
 30
0.00000
  70
    32
  0
VERTEX
  8
0
  5
267F
 10
4223.80
 20
2495.69
 30
0.00000
  70
    32
  0
VERTEX
  8
0
  5
2680
 10
4223.81
 20
2495.71
 30
0.00000
  70
    32
  0
VERTEX
  8
0
  5
2681
 10
4223.82
 20
2495.73
 30
0.00000
  70
    32
  0
VERTEX
  8
0
  5
2682
 10
4223.82
 20
2495.74
 30
0.00000
  70
    32
  0
VERTEX
  8
0
  5
2683
 10
4223.83
 20
2495.76
 30
0.00000
  70
    32
  0
VERTEX
  8
0
  5
2684
 10
4223.84
 20
2495.78
 30
0.00000
  70
    32
  0
VERTEX
  8
0
  5
2685
 10
4223.84
 20
2495.80
 30
0.00000
  70
    32
  0
VERTEX
  8
0
  5
2686
 10
4223.85
 20
2495.82
 30
0.00000
  70
    32
  0
VERTEX
  8
0
  5
2687
 10
4223.86
 20
2495.84
 30
0.00000
  70
    32
  0
VERTEX
  8
0
  5
2688
 10
4223.86
 20
2495.86
 30
0.00000
  70
    32
  0
VERTEX
  8
0
  5
2689
 10
4223.87
 20
2495.88
 30
0.00000
  70
    32
  0
VERTEX
  8
0
  5
268A
 10
4223.88
 20
2495.90
 30
0.00000
  70
    32
  0
VERTEX
  8
0
  5
268B
 10
4223.88
 20
2495.92
 30
0.00000
  70
    32
  0
VERTEX
  8
0
  5
268C
 10
4223.89
 20
2495.94
 30
0.00000
  70
    32
  0
VERTEX
  8
0
  5
268D
 10
4223.90
 20
2495.96
 30
0.00000
  70
    32
  0
VERTEX
  8
0
  5
268E
 10
4223.90
 20
2495.98
 30
0.00000
  70
    32
  0
VERTEX
  8
0
  5
268F
 10
4223.91
 20
2496.01
 30
0.00000
  70
    32
  0
VERTEX
  8
0
  5
2690
 10
4223.91
 20
2496.03
 30
0.00000
  70
    32
  0
VERTEX
  8
0
  5
2691
 10
4223.92
 20
2496.05
 30
0.00000
  70
    32
  0
VERTEX
  8
0
  5
2692
 10
4223.93
 20
2496.07
 30
0.00000
  70
    32
  0
VERTEX
  8
0
  5
2693
 10
4223.93
 20
2496.10
 30
0.00000
  70
    32
  0
VERTEX
  8
0
  5
2694
 10
4223.94
 20
2496.12
 30
0.00000
  70
    32
  0
VERTEX
  8
0
  5
2695
 10
4223.94
 20
2496.14
 30
0.00000
  70
    32
  0
VERTEX
  8
0
  5
2696
 10
4223.95
 20
2496.17
 30
0.00000
  70
    32
  0
VERTEX
  8
0
  5
2697
 10
4223.95
 20
2496.19
 30
0.00000
  70
    32
  0
VERTEX
  8
0
  5
2698
 10
4223.96
 20
2496.21
 30
0.00000
  70
    32
  0
VERTEX
  8
0
  5
2699
 10
4223.96
 20
2496.24
 30
0.00000
  70
    32
  0
VERTEX
  8
0
  5
269A
 10
4223.97
 20
2496.26
 30
0.00000
  70
    32
  0
VERTEX
  8
0
  5
269B
 10
4223.97
 20
2496.29
 30
0.00000
  70
    32
  0
VERTEX
  8
0
  5
269C
 10
4223.98
 20
2496.31
 30
0.00000
  70
    32
  0
VERTEX
  8
0
  5
269D
 10
4223.98
 20
2496.34
 30
0.00000
  70
    32
  0
VERTEX
  8
0
  5
269E
 10
4223.99
 20
2496.36
 30
0.00000
  70
    32
  0
VERTEX
  8
0
  5
269F
 10
4223.99
 20
2496.39
 30
0.00000
  70
    32
  0
VERTEX
  8
0
  5
26A0
 10
4224.00
 20
2496.42
 30
0.00000
  70
    32
  0
VERTEX
  8
0
  5
26A1
 10
4224.00
 20
2496.44
 30
0.00000
  70
    32
  0
VERTEX
  8
0
  5
26A2
 10
4224.01
 20
2496.47
 30
0.00000
  70
    32
  0
VERTEX
  8
0
  5
26A3
 10
4224.01
 20
2496.49
 30
0.00000
  70
    32
  0
VERTEX
  8
0
  5
26A4
 10
4224.02
 20
2496.52
 30
0.00000
  70
    32
  0
VERTEX
  8
0
  5
26A5
 10
4224.02
 20
2496.55
 30
0.00000
  70
    32
  0
VERTEX
  8
0
  5
26A6
 10
4224.02
 20
2496.57
 30
0.00000
  70
    32
  0
VERTEX
  8
0
  5
26A7
 10
4224.03
 20
2496.60
 30
0.00000
  70
    32
  0
VERTEX
  8
0
  5
26A8
 10
4224.03
 20
2496.63
 30
0.00000
  70
    32
  0
VERTEX
  8
0
  5
26A9
 10
4224.04
 20
2496.66
 30
0.00000
  70
    32
  0
VERTEX
  8
0
  5
26AA
 10
4224.04
 20
2496.68
 30
0.00000
  70
    32
  0
VERTEX
  8
0
  5
26AB
 10
4224.04
 20
2496.71
 30
0.00000
  70
    32
  0
VERTEX
  8
0
  5
26AC
 10
4224.05
 20
2496.74
 30
0.00000
  70
    32
  0
VERTEX
  8
0
  5
26AD
 10
4224.05
 20
2496.77
 30
0.00000
  70
    32
  0
VERTEX
  8
0
  5
26AE
 10
4224.05
 20
2496.80
 30
0.00000
  70
    32
  0
VERTEX
  8
0
  5
26AF
 10
4224.06
 20
2496.82
 30
0.00000
  70
    32
  0
VERTEX
  8
0
  5
26B0
 10
4224.06
 20
2496.85
 30
0.00000
  70
    32
  0
VERTEX
  8
0
  5
26B1
 10
4224.06
 20
2496.88
 30
0.00000
  70
    32
  0
VERTEX
  8
0
  5
26B2
 10
4224.07
 20
2496.91
 30
0.00000
  70
    32
  0
VERTEX
  8
0
  5
26B3
 10
4224.07
 20
2496.94
 30
0.00000
  70
    32
  0
VERTEX
  8
0
  5
26B4
 10
4224.07
 20
2496.97
 30
0.00000
  70
    32
  0
VERTEX
  8
0
  5
26B5
 10
4224.07
 20
2497.00
 30
0.00000
  70
    32
  0
VERTEX
  8
0
  5
26B6
 10
4224.08
 20
2497.03
 30
0.00000
  70
    32
  0
VERTEX
  8
0
  5
26B7
 10
4224.08
 20
2497.06
 30
0.00000
  70
    32
  0
VERTEX
  8
0
  5
26B8
 10
4224.08
 20
2497.09
 30
0.00000
  70
    32
  0
VERTEX
  8
0
  5
26B9
 10
4224.08
 20
2497.12
 30
0.00000
  70
    32
  0
VERTEX
  8
0
  5
26BA
 10
4224.09
 20
2497.15
 30
0.00000
  70
    32
  0
VERTEX
  8
0
  5
26BB
 10
4224.09
 20
2497.18
 30
0.00000
  70
    32
  0
VERTEX
  8
0
  5
26BC
 10
4224.09
 20
2497.20
 30
0.00000
  70
    32
  0
VERTEX
  8
0
  5
26BD
 10
4224.09
 20
2497.23
 30
0.00000
  70
    32
  0
VERTEX
  8
0
  5
26BE
 10
4224.09
 20
2497.26
 30
0.00000
  70
    32
  0
VERTEX
  8
0
  5
26BF
 10
4224.09
 20
2497.30
 30
0.00000
  70
    32
  0
VERTEX
  8
0
  5
26C0
 10
4224.10
 20
2497.33
 30
0.00000
  70
    32
  0
VERTEX
  8
0
  5
26C1
 10
4224.10
 20
2497.36
 30
0.00000
  70
    32
  0
VERTEX
  8
0
  5
26C2
 10
4224.10
 20
2497.39
 30
0.00000
  70
    32
  0
VERTEX
  8
0
  5
26C3
 10
4224.10
 20
2497.42
 30
0.00000
  70
    32
  0
VERTEX
  8
0
  5
26C4
 10
4224.10
 20
2497.45
 30
0.00000
  70
    32
  0
VERTEX
  8
0
  5
26C5
 10
4224.10
 20
2497.48
 30
0.00000
  70
    32
  0
VERTEX
  8
0
  5
26C6
 10
4224.10
 20
2497.51
 30
0.00000
  70
    32
  0
VERTEX
  8
0
  5
26C7
 10
4224.10
 20
2497.54
 30
0.00000
  70
    32
  0
VERTEX
  8
0
  5
26C8
 10
4224.10
 20
2497.57
 30
0.00000
  70
    32
  0
VERTEX
  8
0
  5
26C9
 10
4224.11
 20
2497.60
 30
0.00000
  70
    32
  0
VERTEX
  8
0
  5
26CA
 10
4224.11
 20
2497.63
 30
0.00000
  70
    32
  0
VERTEX
  8
0
  5
26CB
 10
4224.11
 20
2497.66
 30
0.00000
  70
    32
  0
VERTEX
  8
0
  5
26CC
 10
4224.11
 20
2497.69
 30
0.00000
  70
    32
  0
VERTEX
  8
0
  5
26CD
 10
4224.11
 20
2497.72
 30
0.00000
  70
    32
  0
VERTEX
  8
0
  5
26CE
 10
4224.11
 20
2497.75
 30
0.00000
  70
    32
  0
SEQEND
  8
0
  5
26CF
  0
POLYLINE
  5
1738
  8
0
  6
CONTINUOUS
 62
     3
 10
4224.106503478090417
 20
2502.7526988373601853
 30
0.0
 66
     1
 70
     8
  0
VERTEX
  8
0
  5
26D0
 10
4224.11
 20
2502.75
 30
0.00000
  70
    32
  0
VERTEX
  8
0
  5
26D1
 10
4224.11
 20
2502.78
 30
0.00000
  70
    32
  0
VERTEX
  8
0
  5
26D2
 10
4224.11
 20
2502.81
 30
0.00000
  70
    32
  0
VERTEX
  8
0
  5
26D3
 10
4224.11
 20
2502.84
 30
0.00000
  70
    32
  0
VERTEX
  8
0
  5
26D4
 10
4224.11
 20
2502.88
 30
0.00000
  70
    32
  0
VERTEX
  8
0
  5
26D5
 10
4224.11
 20
2502.91
 30
0.00000
  70
    32
  0
VERTEX
  8
0
  5
26D6
 10
4224.10
 20
2502.94
 30
0.00000
  70
    32
  0
VERTEX
  8
0
  5
26D7
 10
4224.10
 20
2502.97
 30
0.00000
  70
    32
  0
VERTEX
  8
0
  5
26D8
 10
4224.10
 20
2503.00
 30
0.00000
  70
    32
  0
VERTEX
  8
0
  5
26D9
 10
4224.10
 20
2503.03
 30
0.00000
  70
    32
  0
VERTEX
  8
0
  5
26DA
 10
4224.10
 20
2503.06
 30
0.00000
  70
    32
  0
VERTEX
  8
0
  5
26DB
 10
4224.10
 20
2503.09
 30
0.00000
  70
    32
  0
VERTEX
  8
0
  5
26DC
 10
4224.10
 20
2503.12
 30
0.00000
  70
    32
  0
VERTEX
  8
0
  5
26DD
 10
4224.10
 20
2503.15
 30
0.00000
  70
    32
  0
VERTEX
  8
0
  5
26DE
 10
4224.10
 20
2503.18
 30
0.00000
  70
    32
  0
VERTEX
  8
0
  5
26DF
 10
4224.09
 20
2503.21
 30
0.00000
  70
    32
  0
VERTEX
  8
0
  5
26E0
 10
4224.09
 20
2503.24
 30
0.00000
  70
    32
  0
VERTEX
  8
0
  5
26E1
 10
4224.09
 20
2503.27
 30
0.00000
  70
    32
  0
VERTEX
  8
0
  5
26E2
 10
4224.09
 20
2503.30
 30
0.00000
  70
    32
  0
VERTEX
  8
0
  5
26E3
 10
4224.09
 20
2503.33
 30
0.00000
  70
    32
  0
VERTEX
  8
0
  5
26E4
 10
4224.09
 20
2503.36
 30
0.00000
  70
    32
  0
VERTEX
  8
0
  5
26E5
 10
4224.08
 20
2503.39
 30
0.00000
  70
    32
  0
VERTEX
  8
0
  5
26E6
 10
4224.08
 20
2503.42
 30
0.00000
  70
    32
  0
VERTEX
  8
0
  5
26E7
 10
4224.08
 20
2503.45
 30
0.00000
  70
    32
  0
VERTEX
  8
0
  5
26E8
 10
4224.08
 20
2503.48
 30
0.00000
  70
    32
  0
VERTEX
  8
0
  5
26E9
 10
4224.07
 20
2503.51
 30
0.00000
  70
    32
  0
VERTEX
  8
0
  5
26EA
 10
4224.07
 20
2503.54
 30
0.00000
  70
    32
  0
VERTEX
  8
0
  5
26EB
 10
4224.07
 20
2503.57
 30
0.00000
  70
    32
  0
VERTEX
  8
0
  5
26EC
 10
4224.07
 20
2503.59
 30
0.00000
  70
    32
  0
VERTEX
  8
0
  5
26ED
 10
4224.06
 20
2503.62
 30
0.00000
  70
    32
  0
VERTEX
  8
0
  5
26EE
 10
4224.06
 20
2503.65
 30
0.00000
  70
    32
  0
VERTEX
  8
0
  5
26EF
 10
4224.06
 20
2503.68
 30
0.00000
  70
    32
  0
VERTEX
  8
0
  5
26F0
 10
4224.05
 20
2503.71
 30
0.00000
  70
    32
  0
VERTEX
  8
0
  5
26F1
 10
4224.05
 20
2503.74
 30
0.00000
  70
    32
  0
VERTEX
  8
0
  5
26F2
 10
4224.05
 20
2503.77
 30
0.00000
  70
    32
  0
VERTEX
  8
0
  5
26F3
 10
4224.04
 20
2503.79
 30
0.00000
  70
    32
  0
VERTEX
  8
0
  5
26F4
 10
4224.04
 20
2503.82
 30
0.00000
  70
    32
  0
VERTEX
  8
0
  5
26F5
 10
4224.04
 20
2503.85
 30
0.00000
  70
    32
  0
VERTEX
  8
0
  5
26F6
 10
4224.03
 20
2503.88
 30
0.00000
  70
    32
  0
VERTEX
  8
0
  5
26F7
 10
4224.03
 20
2503.90
 30
0.00000
  70
    32
  0
VERTEX
  8
0
  5
26F8
 10
4224.02
 20
2503.93
 30
0.00000
  70
    32
  0
VERTEX
  8
0
  5
26F9
 10
4224.02
 20
2503.96
 30
0.00000
  70
    32
  0
VERTEX
  8
0
  5
26FA
 10
4224.02
 20
2503.98
 30
0.00000
  70
    32
  0
VERTEX
  8
0
  5
26FB
 10
4224.01
 20
2504.01
 30
0.00000
  70
    32
  0
VERTEX
  8
0
  5
26FC
 10
4224.01
 20
2504.04
 30
0.00000
  70
    32
  0
VERTEX
  8
0
  5
26FD
 10
4224.00
 20
2504.06
 30
0.00000
  70
    32
  0
VERTEX
  8
0
  5
26FE
 10
4224.00
 20
2504.09
 30
0.00000
  70
    32
  0
VERTEX
  8
0
  5
26FF
 10
4223.99
 20
2504.12
 30
0.00000
  70
    32
  0
VERTEX
  8
0
  5
2700
 10
4223.99
 20
2504.14
 30
0.00000
  70
    32
  0
VERTEX
  8
0
  5
2701
 10
4223.98
 20
2504.17
 30
0.00000
  70
    32
  0
VERTEX
  8
0
  5
2702
 10
4223.98
 20
2504.19
 30
0.00000
  70
    32
  0
VERTEX
  8
0
  5
2703
 10
4223.97
 20
2504.22
 30
0.00000
  70
    32
  0
VERTEX
  8
0
  5
2704
 10
4223.97
 20
2504.24
 30
0.00000
  70
    32
  0
VERTEX
  8
0
  5
2705
 10
4223.96
 20
2504.27
 30
0.00000
  70
    32
  0
VERTEX
  8
0
  5
2706
 10
4223.96
 20
2504.29
 30
0.00000
  70
    32
  0
VERTEX
  8
0
  5
2707
 10
4223.95
 20
2504.31
 30
0.00000
  70
    32
  0
VERTEX
  8
0
  5
2708
 10
4223.95
 20
2504.34
 30
0.00000
  70
    32
  0
VERTEX
  8
0
  5
2709
 10
4223.94
 20
2504.36
 30
0.00000
  70
    32
  0
VERTEX
  8
0
  5
270A
 10
4223.94
 20
2504.39
 30
0.00000
  70
    32
  0
VERTEX
  8
0
  5
270B
 10
4223.93
 20
2504.41
 30
0.00000
  70
    32
  0
VERTEX
  8
0
  5
270C
 10
4223.93
 20
2504.43
 30
0.00000
  70
    32
  0
VERTEX
  8
0
  5
270D
 10
4223.92
 20
2504.45
 30
0.00000
  70
    32
  0
VERTEX
  8
0
  5
270E
 10
4223.91
 20
2504.48
 30
0.00000
  70
    32
  0
VERTEX
  8
0
  5
270F
 10
4223.91
 20
2504.50
 30
0.00000
  70
    32
  0
VERTEX
  8
0
  5
2710
 10
4223.90
 20
2504.52
 30
0.00000
  70
    32
  0
VERTEX
  8
0
  5
2711
 10
4223.90
 20
2504.54
 30
0.00000
  70
    32
  0
VERTEX
  8
0
  5
2712
 10
4223.89
 20
2504.56
 30
0.00000
  70
    32
  0
VERTEX
  8
0
  5
2713
 10
4223.88
 20
2504.58
 30
0.00000
  70
    32
  0
VERTEX
  8
0
  5
2714
 10
4223.88
 20
2504.61
 30
0.00000
  70
    32
  0
VERTEX
  8
0
  5
2715
 10
4223.87
 20
2504.63
 30
0.00000
  70
    32
  0
VERTEX
  8
0
  5
2716
 10
4223.86
 20
2504.65
 30
0.00000
  70
    32
  0
VERTEX
  8
0
  5
2717
 10
4223.86
 20
2504.67
 30
0.00000
  70
    32
  0
VERTEX
  8
0
  5
2718
 10
4223.85
 20
2504.69
 30
0.00000
  70
    32
  0
VERTEX
  8
0
  5
2719
 10
4223.84
 20
2504.70
 30
0.00000
  70
    32
  0
VERTEX
  8
0
  5
271A
 10
4223.84
 20
2504.72
 30
0.00000
  70
    32
  0
VERTEX
  8
0
  5
271B
 10
4223.83
 20
2504.74
 30
0.00000
  70
    32
  0
VERTEX
  8
0
  5
271C
 10
4223.82
 20
2504.76
 30
0.00000
  70
    32
  0
VERTEX
  8
0
  5
271D
 10
4223.82
 20
2504.78
 30
0.00000
  70
    32
  0
VERTEX
  8
0
  5
271E
 10
4223.81
 20
2504.80
 30
0.00000
  70
    32
  0
VERTEX
  8
0
  5
271F
 10
4223.80
 20
2504.81
 30
0.00000
  70
    32
  0
VERTEX
  8
0
  5
2720
 10
4223.80
 20
2504.83
 30
0.00000
  70
    32
  0
VERTEX
  8
0
  5
2721
 10
4223.79
 20
2504.85
 30
0.00000
  70
    32
  0
VERTEX
  8
0
  5
2722
 10
4223.78
 20
2504.86
 30
0.00000
  70
    32
  0
VERTEX
  8
0
  5
2723
 10
4223.77
 20
2504.88
 30
0.00000
  70
    32
  0
VERTEX
  8
0
  5
2724
 10
4223.77
 20
2504.90
 30
0.00000
  70
    32
  0
VERTEX
  8
0
  5
2725
 10
4223.76
 20
2504.91
 30
0.00000
  70
    32
  0
VERTEX
  8
0
  5
2726
 10
4223.75
 20
2504.93
 30
0.00000
  70
    32
  0
VERTEX
  8
0
  5
2727
 10
4223.74
 20
2504.94
 30
0.00000
  70
    32
  0
VERTEX
  8
0
  5
2728
 10
4223.74
 20
2504.96
 30
0.00000
  70
    32
  0
VERTEX
  8
0
  5
2729
 10
4223.73
 20
2504.97
 30
0.00000
  70
    32
  0
VERTEX
  8
0
  5
272A
 10
4223.72
 20
2504.99
 30
0.00000
  70
    32
  0
VERTEX
  8
0
  5
272B
 10
4223.71
 20
2505.00
 30
0.00000
  70
    32
  0
VERTEX
  8
0
  5
272C
 10
4223.71
 20
2505.01
 30
0.00000
  70
    32
  0
VERTEX
  8
0
  5
272D
 10
4223.70
 20
2505.03
 30
0.00000
  70
    32
  0
VERTEX
  8
0
  5
272E
 10
4223.69
 20
2505.04
 30
0.00000
  70
    32
  0
VERTEX
  8
0
  5
272F
 10
4223.68
 20
2505.05
 30
0.00000
  70
    32
  0
VERTEX
  8
0
  5
2730
 10
4223.67
 20
2505.06
 30
0.00000
  70
    32
  0
VERTEX
  8
0
  5
2731
 10
4223.67
 20
2505.07
 30
0.00000
  70
    32
  0
VERTEX
  8
0
  5
2732
 10
4223.66
 20
2505.09
 30
0.00000
  70
    32
  0
VERTEX
  8
0
  5
2733
 10
4223.65
 20
2505.10
 30
0.00000
  70
    32
  0
VERTEX
  8
0
  5
2734
 10
4223.64
 20
2505.11
 30
0.00000
  70
    32
  0
VERTEX
  8
0
  5
2735
 10
4223.63
 20
2505.12
 30
0.00000
  70
    32
  0
VERTEX
  8
0
  5
2736
 10
4223.63
 20
2505.13
 30
0.00000
  70
    32
  0
VERTEX
  8
0
  5
2737
 10
4223.62
 20
2505.14
 30
0.00000
  70
    32
  0
VERTEX
  8
0
  5
2738
 10
4223.61
 20
2505.15
 30
0.00000
  70
    32
  0
VERTEX
  8
0
  5
2739
 10
4223.60
 20
2505.15
 30
0.00000
  70
    32
  0
VERTEX
  8
0
  5
273A
 10
4223.59
 20
2505.16
 30
0.00000
  70
    32
  0
VERTEX
  8
0
  5
273B
 10
4223.58
 20
2505.17
 30
0.00000
  70
    32
  0
VERTEX
  8
0
  5
273C
 10
4223.58
 20
2505.18
 30
0.00000
  70
    32
  0
VERTEX
  8
0
  5
273D
 10
4223.57
 20
2505.19
 30
0.00000
  70
    32
  0
VERTEX
  8
0
  5
273E
 10
4223.56
 20
2505.19
 30
0.00000
  70
    32
  0
VERTEX
  8
0
  5
273F
 10
4223.55
 20
2505.20
 30
0.00000
  70
    32
  0
VERTEX
  8
0
  5
2740
 10
4223.54
 20
2505.20
 30
0.00000
  70
    32
  0
VERTEX
  8
0
  5
2741
 10
4223.53
 20
2505.21
 30
0.00000
  70
    32
  0
VERTEX
  8
0
  5
2742
 10
4223.53
 20
2505.22
 30
0.00000
  70
    32
  0
VERTEX
  8
0
  5
2743
 10
4223.52
 20
2505.22
 30
0.00000
  70
    32
  0
VERTEX
  8
0
  5
2744
 10
4223.51
 20
2505.23
 30
0.00000
  70
    32
  0
VERTEX
  8
0
  5
2745
 10
4223.50
 20
2505.23
 30
0.00000
  70
    32
  0
VERTEX
  8
0
  5
2746
 10
4223.49
 20
2505.23
 30
0.00000
  70
    32
  0
VERTEX
  8
0
  5
2747
 10
4223.48
 20
2505.24
 30
0.00000
  70
    32
  0
VERTEX
  8
0
  5
2748
 10
4223.48
 20
2505.24
 30
0.00000
  70
    32
  0
VERTEX
  8
0
  5
2749
 10
4223.47
 20
2505.24
 30
0.00000
  70
    32
  0
VERTEX
  8
0
  5
274A
 10
4223.46
 20
2505.25
 30
0.00000
  70
    32
  0
VERTEX
  8
0
  5
274B
 10
4223.45
 20
2505.25
 30
0.00000
  70
    32
  0
VERTEX
  8
0
  5
274C
 10
4223.44
 20
2505.25
 30
0.00000
  70
    32
  0
VERTEX
  8
0
  5
274D
 10
4223.43
 20
2505.25
 30
0.00000
  70
    32
  0
VERTEX
  8
0
  5
274E
 10
4223.42
 20
2505.25
 30
0.00000
  70
    32
  0
VERTEX
  8
0
  5
274F
 10
4223.42
 20
2505.25
 30
0.00000
  70
    32
  0
VERTEX
  8
0
  5
2750
 10
4223.41
 20
2505.25
 30
0.00000
  70
    32
  0
SEQEND
  8
0
  5
2751
  0
TEXT
  5
1743
  8
0
  6
CONTINUOUS
 62
     2
 10
6800.7557888892088158
 20
4944.7999593400736558
 30
0.0
 40
40.0
  1
アクリル系人工大理石
 41
0.5
 72
     4
 11
6919.4224555558757856
 21
4964.7999593400745653
 31
0.0
  0
INSERT
  5
1744
  8
0
 62
     7
  2
A$C1C185600
 10
1290.7403583555710611
 20
2059.5007148829749895
 30
0.0
  0
LINE
  5
1749
  8
0
  6
CONTINUOUS
 62
     4
 10
4293.0246429315302521
 20
2196.4527908377349377
 30
0.0
 11
4293.0246429315302521
 21
2186.4527908377349377
 31
0.0
  0
LINE
  5
174A
  8
0
  6
CONTINUOUS
 62
     4
 10
4293.0246429315302521
 20
2196.4527908377349377
 30
0.0
 11
4294.0246429315302521
 21
2196.4527908377349377
 31
0.0
  0
LINE
  5
174B
  8
0
  6
CONTINUOUS
 62
     4
 10
4294.0246429315302521
 20
2187.4527908377349377
 30
0.0
 11
4303.0246429315302521
 21
2187.4527908377349377
 31
0.0
  0
LINE
  5
174C
  8
0
  6
CONTINUOUS
 62
     4
 10
4293.0246429315302521
 20
2186.4527908377349377
 30
0.0
 11
4304.0246429315302521
 21
2186.4527908377349377
 31
0.0
  0
LINE
  5
174D
  8
0
  6
CONTINUOUS
 62
     4
 10
4294.024626223253108
 20
2892.4527908377349377
 30
0.0
 11
4294.0246306242770515
 21
2706.7526988371978405
 31
0.0
  0
LINE
  5
174E
  8
0
  6
CONTINUOUS
 62
     4
 10
4294.0246359788579866
 20
2480.8151812440491994
 30
0.0
 11
4294.024640210729558
 21
2302.2526988371978405
 31
0.0
  0
LINE
  5
174F
  8
0
  6
CONTINUOUS
 62
     4
 10
4294.0246402818593197
 20
2299.252698837196931
 30
0.0
 11
4294.0246429315875503
 21
2187.4527908377349377
 31
0.0
  0
LINE
  5
1750
  8
0
  6
CONTINUOUS
 62
     4
 10
4293.0246262232540175
 20
2893.4527908377349377
 30
0.0
 11
4293.0246262232540175
 21
2883.4527908377349377
 31
0.0
  0
LINE
  5
1751
  8
0
  6
CONTINUOUS
 62
     4
 10
4293.0246262232540175
 20
2883.4527908377349377
 30
0.0
 11
4294.024626223253108
 21
2883.4527908377349377
 31
0.0
  0
LINE
  5
1752
  8
0
  6
CONTINUOUS
 62
     4
 10
4293.0246262232540175
 20
2893.4527908377349377
 30
0.0
 11
4304.0246262232540175
 21
2893.4527908377349377
 31
0.0
  0
LINE
  5
1753
  8
0
  6
CONTINUOUS
 62
     4
 10
4303.0246262232540175
 20
2892.4527908377349377
 30
0.0
 11
4303.0246262232540175
 21
2856.4527908377349377
 31
0.0
  0
LINE
  5
1754
  8
0
  6
CONTINUOUS
 62
     4
 10
4303.0246262232540175
 20
2856.4527908377349377
 30
0.0
 11
4304.0246262232540175
 21
2856.4527908377349377
 31
0.0
  0
LINE
  5
1755
  8
0
  6
CONTINUOUS
 62
     4
 10
4303.0246429315875503
 20
2212.4527908378508982
 30
0.0
 11
4304.0246429315302521
 21
2212.4527908377349377
 31
0.0
  0
LINE
  5
1756
  8
0
  6
CONTINUOUS
 62
     4
 10
4303.0246429315875503
 20
2212.4527908378508982
 30
0.0
 11
4303.0246429315302521
 21
2187.4527908377349377
 31
0.0
  0
LINE
  5
1757
  8
0
  6
CONTINUOUS
 62
     4
 10
4294.024626223253108
 20
2892.4527908377349377
 30
0.0
 11
4303.0246262232540175
 21
2892.4527908377349377
 31
0.0
  0
LINE
  5
1758
  8
0
  6
CONTINUOUS
 62
     4
 10
4299.0246429315893693
 20
2187.4527908377349377
 30
0.0
 11
4299.024630734755192
 21
2484.1916322528850287
 31
0.0
  0
LINE
  5
1759
  8
0
  6
CONTINUOUS
 62
     4
 10
4299.024626223253108
 20
2892.4527908377349377
 30
0.0
 11
4299.024626223253108
 21
2705.2526988371391781
 31
0.0
  0
POLYLINE
  5
175A
  8
0
  6
CONTINUOUS
 62
     3
 66
     1
 10
0.0
 20
0.0
 30
0.0
  0
VERTEX
  5
175B
  8
0
  6
CONTINUOUS
 62
     3
 10
4267.8246368573163636
 20
2386.2528020206950714
 30
0.0
  0
VERTEX
  5
175C
  8
0
  6
CONTINUOUS
 62
     3
 10
4267.8246368573163636
 20
2418.2528020206959809
 30
0.0
  0
SEQEND
  5
175D
  8
0
  6
CONTINUOUS
 62
     3
  0
LINE
  5
175E
  8
0
  6
CONTINUOUS
 62
     3
 10
4285.8246368573163636
 20
2420.2528020206959809
 30
0.0
 11
4285.8246368573163636
 21
2384.2528020206959809
 31
0.0
  0
LINE
  5
175F
  8
0
  6
CONTINUOUS
 62
     3
 10
4288.0246368573280051
 20
2424.7528020206959809
 30
0.0
 11
4288.0246368573280051
 21
2379.7528020206950714
 31
0.0
1001
GENIUS_GENREC_14
1002
{
1000
PYDIR
1011
4288.0246368573280051
1021
0.0
1031
0.0
1021
2430.7528020206959809
1031
0.0
1002
}
1002
{
1000
PXDIR
1011
4294.0246368573280051
1021
0.0
1031
0.0
1021
2373.7528020206959809
1031
0.0
1002
}
1002
{
1000
PORI
1011
4288.0246368573280051
1021
0.0
1031
0.0
1021
2373.7528020206959809
1031
0.0
1002
}
1002
{
1000
PINS
1011
4288.0246368573280051
1021
0.0
1031
0.0
1021
2373.7528020206959809
1031
0.0
1002
}
1002
{
1000
PINS2
1011
4294.0246368573280051
1021
0.0
1031
0.0
1021
2430.7528020206959809
1031
0.0
1002
}
1002
{
1000
C
1070
     1
1002
}
1001
GENIUS_GENODEF_13
1002
{
1000
HIER
1070
     0
1002
}
1002
{
1000
MANEDIT
1070
     0
1002
}
1002
{
1000
NOSEL
1070
     0
1002
}
1002
{
1000
BEHIND
1070
     0
1002
}
1002
{
1000
REACTOR
1002
}
1001
GENIUS_GENOBJ-N-REC_13
1002
{
1000
OWNER
1000
GEN
1002
}
  0
LINE
  5
1760
  8
0
  6
CONTINUOUS
 62
     3
 10
4040.5246249168408212
 20
2453.2528020206959809
 30
0.0
 11
4040.5246249168999384
 21
2392.2528020206959809
 31
0.0
  0
POLYLINE
  5
1761
  8
0
  6
CONTINUOUS
 62
     3
 66
     1
 10
0.0
 20
0.0
 30
0.0
 70
     1
  0
VERTEX
  5
1762
  8
0
  6
CONTINUOUS
 62
     3
 10
4042.0246249168999384
 20
2380.2528020206959809
 30
0.0
  0
VERTEX
  5
1763
  8
0
  6
CONTINUOUS
 62
     3
 10
4046.0246249168990289
 20
2415.2528020206959809
 30
0.0
  0
VERTEX
  5
1764
  8
0
  6
CONTINUOUS
 62
     3
 10
4092.0246249168990289
 20
2415.2528020206959809
 30
0.0
  0
VERTEX
  5
1765
  8
0
  6
CONTINUOUS
 62
     3
 10
4096.0246249168985742
 20
2380.2528020206959809
 30
0.0
  0
SEQEND
  5
1766
  8
0
  6
CONTINUOUS
 62
     3
  0
LINE
  5
1767
  8
0
  6
CONTINUOUS
 62
     3
 10
4104.0246249168985742
 20
2414.7528020206959809
 30
0.0
 11
4104.0246249168985742
 21
2388.7528020206950714
 31
0.0
  0
POINT
  5
1768
  8
0
  6
CONTINUOUS
 62
     3
 10
4096.0246249168985742
 20
2378.553025636647817
 30
0.0
  0
LINE
  5
1769
  8
0
  6
CONTINUOUS
 62
     3
 10
4104.0246249168985742
 20
2388.7528020206950714
 30
0.0
 11
4095.0531963454559445
 21
2388.7528020206950714
 31
0.0
  0
POINT
  5
176A
  8
0
  6
CONTINUOUS
 62
     3
 10
4096.0246249168985742
 20
2377.2528020206950714
 30
0.0
  0
POINT
  5
176B
  8
0
  6
CONTINUOUS
 62
     3
 10
4042.0246249168999384
 20
2378.7528020206959809
 30
0.0
  0
LINE
  5
176C
  8
0
  6
CONTINUOUS
 62
     3
 10
4040.5246249168999384
 20
2392.2528020206959809
 30
0.0
 11
4043.3960534883080982
 21
2392.2528020206959809
 31
0.0
  0
POLYLINE
  5
176D
  8
0
  6
CONTINUOUS
 62
     3
 66
     1
 10
0.0
 20
0.0
 30
0.0
  0
VERTEX
  5
176E
  8
0
  6
CONTINUOUS
 62
     3
 10
4042.0246249168999384
 20
2380.2528020206959809
 30
0.0
  0
VERTEX
  5
176F
  8
0
  6
CONTINUOUS
 62
     3
 10
4042.0246249168999384
 20
2377.2528020206950714
 30
0.0
  0
VERTEX
  5
1770
  8
0
  6
CONTINUOUS
 62
     3
 10
4096.0246249168985742
 20
2377.2528020206950714
 30
0.0
  0
VERTEX
  5
1771
  8
0
  6
CONTINUOUS
 62
     3
 10
4096.0246249168985742
 20
2380.2528020206959809
 30
0.0
  0
SEQEND
  5
1772
  8
0
  6
CONTINUOUS
 62
     3
  0
LINE
  5
1773
  8
0
  6
CONTINUOUS
 62
     3
 10
4041.7746249168990289
 20
2365.7528020206959809
 30
0.0
 11
4096.2746249168985742
 21
2365.7528020206959809
 31
0.0
  0
POLYLINE
  5
1774
  8
0
  6
CONTINUOUS
 62
     3
 66
     1
 10
0.0
 20
0.0
 30
0.0
 70
     1
  0
VERTEX
  5
1775
  8
0
  6
CONTINUOUS
 62
     3
 10
4041.7746249168990289
 20
2365.7528020206959809
 30
0.0
  0
VERTEX
  5
1776
  8
0
  6
CONTINUOUS
 62
     3
 10
4041.7746249168990289
 20
2374.2528020206950714
 30
0.0
  0
VERTEX
  5
1777
  8
0
  6
CONTINUOUS
 62
     3
 10
4096.2746249168985742
 20
2374.2528020206950714
 30
0.0
  0
VERTEX
  5
1778
  8
0
  6
CONTINUOUS
 62
     3
 10
4096.2746249168985742
 20
2365.7528020206959809
 30
0.0
  0
VERTEX
  5
1779
  8
0
  6
CONTINUOUS
 62
     3
 10
4095.7746249168999384
 20
2365.2528020206950714
 30
0.0
  0
VERTEX
  5
177A
  8
0
  6
CONTINUOUS
 62
     3
 10
4042.2746249168990289
 20
2365.2528020206950714
 30
0.0
  0
SEQEND
  5
177B
  8
0
  6
CONTINUOUS
 62
     3
  0
POLYLINE
  5
177C
  8
0
  6
CONTINUOUS
 62
     3
 66
     1
 10
0.0
 20
0.0
 30
0.0
  0
VERTEX
  5
177D
  8
0
  6
CONTINUOUS
 62
     3
 10
4042.5246249168990289
 20
2374.2528020206950714
 30
0.0
  0
VERTEX
  5
177E
  8
0
  6
CONTINUOUS
 62
     3
 10
4042.5246249168990289
 20
2376.2528020206959809
 30
0.0
  0
VERTEX
  5
177F
  8
0
  6
CONTINUOUS
 62
     3
 10
4095.5246249168990289
 20
2376.2528020206959809
 30
0.0
  0
VERTEX
  5
1780
  8
0
  6
CONTINUOUS
 62
     3
 10
4095.5246249168990289
 20
2374.2528020206950714
 30
0.0
  0
SEQEND
  5
1781
  8
0
  6
CONTINUOUS
 62
     3
  0
POLYLINE
  5
1782
  8
0
  6
CONTINUOUS
 62
     3
 66
     1
 10
0.0
 20
0.0
 30
0.0
  0
VERTEX
  5
1783
  8
0
  6
CONTINUOUS
 62
     3
 10
4094.5246249168990289
 20
2377.2528020206950714
 30
0.0
  0
VERTEX
  5
1784
  8
0
  6
CONTINUOUS
 62
     3
 10
4094.5246249168990289
 20
2376.2528020206959809
 30
0.0
  0
SEQEND
  5
1785
  8
0
  6
CONTINUOUS
 62
     3
  0
LINE
  5
1786
  8
0
  6
CONTINUOUS
 62
     3
 10
4288.0246368573280051
 20
2386.2528020206950714
 30
0.0
 11
4285.8246368573163636
 21
2386.2528020206950714
 31
0.0
  0
LINE
  5
1787
  8
0
  6
CONTINUOUS
 62
     3
 10
4285.8246368573163636
 20
2384.2528020206959809
 30
0.0
 11
4269.8246368573163636
 21
2384.2528020206959809
 31
0.0
  0
POLYLINE
  5
1788
  8
0
  6
CONTINUOUS
 62
     3
 66
     1
 10
0.0
 20
0.0
 30
0.0
  0
VERTEX
  5
1789
  8
0
  6
CONTINUOUS
 62
     3
 10
4267.8246368573163636
 20
2388.5028020206950714
 30
0.0
  0
VERTEX
  5
178A
  8
0
  6
CONTINUOUS
 62
     3
 10
4259.8246368573163636
 20
2388.5028020206950714
 30
0.0
  0
SEQEND
  5
178B
  8
0
  6
CONTINUOUS
 62
     3
  0
ARC
  5
178C
  8
0
  6
CONTINUOUS
 62
     3
 10
4294.0246368573280051
 20
2379.7528020206950714
 30
0.0
 40
5.9999999999996581
 50
180.0
 51
270.0
1001
GENIUS_GENREC_14
1002
{
1000
PYDIR
1011
4288.0246368573280051
1021
0.0
1031
0.0
1021
2430.7528020206959809
1031
0.0
1002
}
1002
{
1000
PXDIR
1011
4294.0246368573280051
1021
0.0
1031
0.0
1021
2373.7528020206959809
1031
0.0
1002
}
1002
{
1000
PORI
1011
4288.0246368573280051
1021
0.0
1031
0.0
1021
2373.7528020206959809
1031
0.0
1002
}
1002
{
1000
PINS
1011
4288.0246368573280051
1021
0.0
1031
0.0
1021
2373.7528020206959809
1031
0.0
1002
}
1002
{
1000
PINS2
1011
4294.0246368573280051
1021
0.0
1031
0.0
1021
2430.7528020206959809
1031
0.0
1002
}
1002
{
1000
C
1070
     1
1002
}
1001
GENIUS_GENODEF_13
1002
{
1000
HIER
1070
     0
1002
}
1002
{
1000
MANEDIT
1070
     0
1002
}
1002
{
1000
NOSEL
1070
     0
1002
}
1002
{
1000
BEHIND
1070
     0
1002
}
1002
{
1000
REACTOR
1002
}
1001
GENIUS_GENOBJ-N-REC_13
1002
{
1000
OWNER
1000
GEN
1002
}
  0
ARC
  5
178D
  8
0
  6
CONTINUOUS
 62
     3
 10
4094.4018367233220488
 20
2451.2528020206959809
 30
0.0
 40
2.0
 50
11.8886580398373098
 51
90.0
  0
LINE
  5
178E
  8
0
  6
CONTINUOUS
 62
     3
 10
4040.5246249168408212
 20
2453.2528020206959809
 30
0.0
 11
4094.4018367233220488
 21
2453.2528020206959809
 31
0.0
  0
POLYLINE
  5
178F
  8
0
  6
CONTINUOUS
 62
     3
 66
     1
 10
0.0
 20
0.0
 30
0.0
  0
VERTEX
  5
1790
  8
0
  6
CONTINUOUS
 62
     3
 10
4046.0246249169581461
 20
2434.2528020206959809
 30
0.0
  0
VERTEX
  5
1791
  8
0
  6
CONTINUOUS
 62
     3
 10
4092.0246249168990289
 20
2434.2528020206959809
 30
0.0
  0
VERTEX
  5
1792
  8
0
  6
CONTINUOUS
 62
     3
 10
4092.0246249168990289
 20
2415.2528020206959809
 30
0.0
  0
SEQEND
  5
1793
  8
0
  6
CONTINUOUS
 62
     3
  0
POLYLINE
  5
1794
  8
0
  6
CONTINUOUS
 62
     3
 66
     1
 10
0.0
 20
0.0
 30
0.0
  0
VERTEX
  5
1795
  8
0
  6
CONTINUOUS
 62
     3
 10
4046.0246249168990289
 20
2415.2528020206959809
 30
0.0
  0
VERTEX
  5
1796
  8
0
  6
CONTINUOUS
 62
     3
 10
4046.0246249168990289
 20
2434.2528020206959809
 30
0.0
  0
SEQEND
  5
1797
  8
0
  6
CONTINUOUS
 62
     3
  0
LINE
  5
1798
  8
0
  6
CONTINUOUS
 62
     3
 10
4096.3589362932843869
 20
2451.6648229827987961
 30
0.0
 11
4104.0246249168985742
 21
2415.2528020206959809
 31
0.0
  0
LINE
  5
1799
  8
0
  6
CONTINUOUS
 62
     3
 10
4285.8246368573163636
 20
2418.2528020206959809
 30
0.0
 11
4288.0246368573280051
 21
2418.2528020206959809
 31
0.0
  0
LINE
  5
179A
  8
0
  6
CONTINUOUS
 62
     3
 10
4267.8246368573163636
 20
2418.2528020206959809
 30
0.0
 11
4269.8246368573163636
 21
2420.2528020206959809
 31
0.0
  0
LINE
  5
179B
  8
0
  6
CONTINUOUS
 62
     3
 10
4269.8246368573163636
 20
2420.2528020206959809
 30
0.0
 11
4285.8246368573163636
 21
2420.2528020206959809
 31
0.0
  0
ARC
  5
179C
  8
0
  6
CONTINUOUS
 62
     3
 10
4294.0246368573280051
 20
2424.7528020206959809
 30
0.0
 40
6.0000000000000311
 50
90.0
 51
180.0
1001
GENIUS_GENREC_14
1002
{
1000
PYDIR
1011
4288.0246368573280051
1021
0.0
1031
0.0
1021
2430.7528020206959809
1031
0.0
1002
}
1002
{
1000
PXDIR
1011
4294.0246368573280051
1021
0.0
1031
0.0
1021
2373.7528020206959809
1031
0.0
1002
}
1002
{
1000
PORI
1011
4288.0246368573280051
1021
0.0
1031
0.0
1021
2373.7528020206959809
1031
0.0
1002
}
1002
{
1000
PINS
1011
4288.0246368573280051
1021
0.0
1031
0.0
1021
2373.7528020206959809
1031
0.0
1002
}
1002
{
1000
PINS2
1011
4294.0246368573280051
1021
0.0
1031
0.0
1021
2430.7528020206959809
1031
0.0
1002
}
1002
{
1000
C
1070
     1
1002
}
1001
GENIUS_GENODEF_13
1002
{
1000
HIER
1070
     0
1002
}
1002
{
1000
MANEDIT
1070
     0
1002
}
1002
{
1000
NOSEL
1070
     0
1002
}
1002
{
1000
BEHIND
1070
     0
1002
}
1002
{
1000
REACTOR
1002
}
1001
GENIUS_GENOBJ-N-REC_13
1002
{
1000
OWNER
1000
GEN
1002
}
  0
POLYLINE
  5
179D
  8
0
  6
CONTINUOUS
 62
     3
 66
     1
 10
0.0
 20
0.0
 30
0.0
  0
VERTEX
  5
179E
  8
0
  6
CONTINUOUS
 62
     3
 10
4222.2287835163297132
 20
2389.7528020206377732
 30
0.0
  0
VERTEX
  5
179F
  8
0
  6
CONTINUOUS
 62
     3
 10
4104.0246249168985742
 20
2389.7528020206959809
 30
0.0
  0
SEQEND
  5
17A0
  8
0
  6
CONTINUOUS
 62
     3
  0
POLYLINE
  5
17A1
  8
0
  6
CONTINUOUS
 62
     3
 66
     1
 10
0.0
 20
0.0
 30
0.0
  0
VERTEX
  5
17A2
  8
0
  6
CONTINUOUS
 62
     3
 10
4259.8246368573163636
 20
2389.7528020206959809
 30
0.0
  0
VERTEX
  5
17A3
  8
0
  6
CONTINUOUS
 62
     3
 10
4229.7366014582803473
 20
2389.7528020206959809
 30
0.0
  0
SEQEND
  5
17A4
  8
0
  6
CONTINUOUS
 62
     3
  0
POLYLINE
  5
17A5
  8
0
  6
CONTINUOUS
 62
     3
 66
     1
 10
0.0
 20
0.0
 30
0.0
  0
VERTEX
  5
17A6
  8
0
  6
CONTINUOUS
 62
     3
 10
4239.4304794085910544
 20
2414.7528020206959809
 30
0.0
  0
VERTEX
  5
17A7
  8
0
  6
CONTINUOUS
 62
     3
 10
4259.8246368573163636
 20
2414.7528020206959809
 30
0.0
  0
SEQEND
  5
17A8
  8
0
  6
CONTINUOUS
 62
     3
  0
POLYLINE
  5
17A9
  8
0
  6
CONTINUOUS
 62
     3
 66
     1
 10
0.0
 20
0.0
 30
0.0
  0
VERTEX
  5
17AA
  8
0
  6
CONTINUOUS
 62
     3
 10
4104.0246249168985742
 20
2414.7528020206959809
 30
0.0
  0
VERTEX
  5
17AB
  8
0
  6
CONTINUOUS
 62
     3
 10
4231.9226607419550419
 20
2414.7528020206959809
 30
0.0
  0
SEQEND
  5
17AC
  8
0
  6
CONTINUOUS
 62
     3
  0
LINE
  5
17AD
  8
0
  6
CENTER2
 62
     4
 10
4069.0246249168990289
 20
2362.2528020206959809
 30
0.0
 11
4069.0246249168990289
 21
2432.7528020206959809
 31
0.0
1001
GENIUS_GENODEF_13
1002
{
1000
HIER
1070
     0
1002
}
1002
{
1000
MANEDIT
1070
     0
1002
}
1002
{
1000
NOSEL
1070
     0
1002
}
1002
{
1000
BEHIND
1070
     0
1002
}
1002
{
1000
REACTOR
1002
}
1001
GENIUS_GENOBJ-N-CEN_13
1002
{
1000
OWNER
1000
GEN
1002
}
  0
LINE
  5
17AE
  8
0
  6
CENTER2
 62
     4
 10
4294.0246368573280051
 20
2402.2528020206959809
 30
0.0
 11
4037.5246249168990289
 21
2402.2528020206959809
 31
0.0
1001
GENIUS_GENODEF_13
1002
{
1000
HIER
1070
     0
1002
}
1002
{
1000
MANEDIT
1070
     0
1002
}
1002
{
1000
NOSEL
1070
     0
1002
}
1002
{
1000
BEHIND
1070
     0
1002
}
1002
{
1000
REACTOR
1002
}
1001
GENIUS_GENOBJ-N-CEN_13
1002
{
1000
OWNER
1000
GEN
1002
}
  0
POLYLINE
  5
17AF
  8
0
  6
CONTINUOUS
 62
     3
 66
     1
 10
0.0
 20
0.0
 30
0.0
  0
VERTEX
  5
17B0
  8
0
  6
CONTINUOUS
 62
     3
 10
4259.8246368573163636
 20
2388.5028020206950714
 30
0.0
  0
VERTEX
  5
17B1
  8
0
  6
CONTINUOUS
 62
     3
 10
4259.8246368573163636
 20
2416.0028020206959809
 30
0.0
  0
VERTEX
  5
17B2
  8
0
  6
CONTINUOUS
 62
     3
 10
4267.8246368573163636
 20
2416.0028020206959809
 30
0.0
  0
SEQEND
  5
17B3
  8
0
  6
CONTINUOUS
 62
     3
  0
LINE
  5
17B4
  8
0
  6
CONTINUOUS
 62
     3
 10
4267.8246368573163636
 20
2386.2528020206950714
 30
0.0
 11
4269.8246368573163636
 21
2384.2528020206959809
 31
0.0
  0
DIMENSION
  5
17B5
  8
0
 62
     7
  2
*D86
 10
4069.0246249168990289
 20
2137.5524203627142015
 30
0.0
 11
4186.5246380778262392
 21
2182.5524203627142015
 31
0.0
 70
     0
  1
<>
 13
4304.0246512387529947
 23
2137.5524133098078892
 33
0.0
 14
4069.0246249168990289
 24
2362.2528020206959809
 34
0.0
  0
INSERT
  5
192A
  8
0
 62
     7
  2
A$C0FEC19CC
 10
1191.7404781491491121
 20
4764.4535194005584344
 30
0.0
  0
INSERT
  5
192B
  8
0
 62
     7
  2
A$C187A0370
 10
1356.7364439392690656
 20
4689.6748113202629611
 30
0.0
  0
INSERT
  5
1939
  8
0
 62
     4
  2
A$C38AF493F
 10
1817.2390697100779562
 20
4486.4536484455456957
 30
0.0
  0
TEXT
  5
193B
  8
0
  6
CONTINUOUS
 62
     2
 10
6074.4224555558748762
 20
4299.7999593400745653
 30
0.0
 40
49.9999999999999929
  1
消毒剤用ディスペンサ
 41
0.9
  0
POLYLINE
  5
1946
  8
0
  6
CONTINUOUS
 62
     3
 66
     1
 10
0.0
 20
0.0
 30
0.0
  0
VERTEX
  5
1947
  8
0
  6
CONTINUOUS
 62
     3
 10
4043.5246249168999384
 20
2376.2528020206959809
 30
0.0
  0
VERTEX
  5
1948
  8
0
  6
CONTINUOUS
 62
     3
 10
4043.5246249168999384
 20
2377.2528020206950714
 30
0.0
  0
SEQEND
  5
1949
  8
0
  6
CONTINUOUS
 62
     3
  0
POLYLINE
  5
194A
  8
WAKU
 62
     6
 66
     1
 10
0.0
 20
0.0
 30
0.0
  0
VERTEX
  5
246D
  8
WAKU
 62
     6
 10
0.0
 20
0.0
 30
0.0
  0
VERTEX
  5
246E
  8
WAKU
 62
     6
 10
0.0
 20
5940.0
 30
0.0
  0
VERTEX
  5
246F
  8
WAKU
 62
     6
 10
8410.0
 20
5940.0
 30
0.0
  0
VERTEX
  5
2470
  8
WAKU
 62
     6
 10
8410.0
 20
0.0
 30
0.0
  0
VERTEX
  5
2471
  8
WAKU
 62
     6
 10
0.0
 20
0.0
 30
0.0
  0
SEQEND
  5
2472
  8
WAKU
 62
     6
  0
POLYLINE
  5
194B
  8
WAKU
 62
     3
 66
     1
 10
0.0
 20
0.0
 30
0.0
 70
     1
  0
VERTEX
  5
2473
  8
WAKU
 62
     3
 10
0.0
 20
0.0
 30
0.0
  0
VERTEX
  5
2474
  8
WAKU
 62
     3
 10
0.0
 20
5680.0
 30
0.0
  0
VERTEX
  5
2475
  8
WAKU
 62
     3
 10
8130.0
 20
5680.0
 30
0.0
  0
VERTEX
  5
2476
  8
WAKU
 62
     3
 10
8130.0
 20
0.0
 30
0.0
  0
SEQEND
  5
2477
  8
WAKU
 62
     3
  0
TEXT
  5
194C
  8
WAKU
 62
     3
 10
7652.9677189187486874
 20
5699.9218150300448542
 30
0.0
 40
80.0
  1
A3-020
  0
TEXT
  5
1953
  8
0
  6
CONTINUOUS
 62
     2
 10
7074.4224555558748762
 20
4379.7999593400745653
 30
0.0
 40
49.9999999999999929
  1
三栄 U11-20X3
 41
0.8
  0
INSERT
  5
1956
  8
0
 62
     4
  2
A$C18BD6BBE
 10
1561.6303597420339884
 20
1170.2528058891180081
 30
0.0
  0
INSERT
  5
1957
  8
0
 62
     7
  2
A$C6BE53629
 10
3920.0249989515868947
 20
1115.2527748681020512
 30
0.0
  0
LINE
  5
195C
  8
0
  6
CONTINUOUS
 62
     2
 10
6489.9468767356011085
 20
3395.9360341760329902
 30
0.0
 11
7657.2635908599477261
 21
3395.9360341760329902
 31
0.0
  0
TEXT
  5
195D
  8
0
  6
CONTINUOUS
 62
     2
 10
6489.9468767356011085
 20
3409.9727137363520342
 30
0.0
 40
49.9999999998000035
  1
名　　称：1人用手洗装置（水道水対応）
  0
TEXT
  5
195E
  8
0
  6
CONTINUOUS
 62
     2
 10
6489.9468767356011085
 20
3529.9727137358859181
 30
0.0
 40
49.9999999998000035
  1
仕 様
  0
LINE
  5
195F
  8
0
  6
CONTINUOUS
 62
     2
 10
6489.9468767356011085
 20
3519.4431641199630576
 30
0.0
 11
6641.0404011624632403
 21
3519.4431641199630576
 31
0.0
  0
LINE
  5
1960
  8
0
  6
CONTINUOUS
 62
     2
 10
6489.9468767356011085
 20
3506.1098307867068797
 30
0.0
 11
6641.0404011624632403
 21
3506.1098307867068797
 31
0.0
  0
TEXT
  5
1961
  8
0
  6
CONTINUOUS
 62
     2
 10
6489.9468767356011085
 20
3289.9727137364097871
 30
0.0
 40
49.9999999999999929
  1
型　　式：MRC-SFW-1
  0
LINE
  5
1962
  8
0
  6
CONTINUOUS
 62
     2
 10
6489.9468767356011085
 20
3275.9360341760329902
 30
0.0
 11
7657.2635908599477261
 21
3275.9360341760329902
 31
0.0
  0
TEXT
  5
1971
  8
0
  6
CONTINUOUS
 62
     2
 10
6388.028739423782099
 20
1548.6727231021500302
 30
0.0
 40
49.9999999998000035
  1
注）給水・給湯 圧力は0.15～0.3MPaで
 41
0.8
  0
TEXT
  5
1972
  8
0
  6
CONTINUOUS
 62
     2
 10
6388.028739423782099
 20
1436.3004140562259181
 30
0.0
 40
49.9999999998000035
  1
　　給水・給湯 差圧は0.1MPa以内として下さい。
 41
0.8
  0
LINE
  5
1973
  8
0
  6
CONTINUOUS
 62
     2
 10
6388.028739423782099
 20
1417.522988241981011
 30
0.0
 11
7651.0455434694886208
 21
1417.522988241981011
 31
0.0
  0
LINE
  5
1974
  8
0
  6
CONTINUOUS
 62
     2
 10
6388.028739423782099
 20
1519.1653329065879916
 30
0.0
 11
7651.0455434694886208
 21
1519.1653329065879916
 31
0.0
  0
TEXT
  5
197D
  8
WAKU
  6
CONTINUOUS
 62
     2
 10
6489.9468767356011085
 20
2929.9727137365271119
 30
0.0
 40
50.0
  1
設置場所：
  0
LINE
  5
197E
  8
WAKU
  6
CONTINUOUS
 62
     2
 10
6489.9468767356011085
 20
3035.9360341761489508
 30
0.0
 11
7657.2635908599477261
 21
3035.9360341761489508
 31
0.0
  0
LINE
  5
197F
  8
WAKU
  6
CONTINUOUS
 62
     2
 10
6489.9468767356011085
 20
2915.9360341761498603
 30
0.0
 11
7657.2635908599477261
 21
2915.9360341761498603
 31
0.0
  0
TEXT
  5
1980
  8
WAKU
  6
CONTINUOUS
 62
     2
 10
6489.9468767356011085
 20
3049.9727137365262024
 30
0.0
 40
50.0
  1
台　　数：1台
  0
TEXT
  5
1981
  8
0
  6
CONTINUOUS
 62
     2
 10
6489.9468767356011085
 20
3169.9727137363520342
 30
0.0
 40
50.0
  1
運転重量：195kg
  0
LINE
  5
1982
  8
0
  6
CONTINUOUS
 62
     2
 10
6489.9468767356011085
 20
3155.9360341760329902
 30
0.0
 11
7657.2635908599477261
 21
3155.9360341760329902
 31
0.0
  0
ENDSEC
  0
EOF
