  0
SECTION
  2
HEADER
  9
$ACADVER
  1
AC1009
  9
$INSBASE
 10
0.0
 20
0.0
 30
0.0
  9
$EXTMIN
 10
-0.3847366726913606
 20
-0.2718480002768047
 30
-0.0000000000000058
  9
$EXTMAX
 10
7809.3659904181358797
 20
5446.6541720044879185
 30
0.0000000000000104
  9
$LIMMIN
 10
0.0
 20
0.0
  9
$LIMMAX
 10
8400.0
 20
5940.0
  9
$ORTHOMODE
 70
     0
  9
$REGENMODE
 70
     1
  9
$FILLMODE
 70
     1
  9
$QTEXTMODE
 70
     0
  9
$MIRRTEXT
 70
     0
  9
$DRAGMODE
 70
     2
  9
$LTSCALE
 40
200.0
  9
$OSMODE
 70
    47
  9
$ATTMODE
 70
     1
  9
$TEXTSIZE
 40
0.2
  9
$TRACEWID
 40
0.05
  9
$TEXTSTYLE
  7
STANDARD
  9
$CLAYER
  8
0
  9
$CELTYPE
  6
BYLAYER
  9
$CECOLOR
 62
     7
  9
$DIMSCALE
 40
20.0
  9
$DIMASZ
 40
2.0
  9
$DIMEXO
 40
1.0
  9
$DIMDLI
 40
0.0
  9
$DIMRND
 40
0.0
  9
$DIMDLE
 40
0.0
  9
$DIMEXE
 40
1.0
  9
$DIMTP
 40
0.0
  9
$DIMTM
 40
0.0
  9
$DIMTXT
 40
2.5
  9
$DIMCEN
 40
-1.0
  9
$DIMTSZ
 40
0.0
  9
$DIMTOL
 70
     0
  9
$DIMLIM
 70
     0
  9
$DIMTIH
 70
     0
  9
$DIMTOH
 70
     0
  9
$DIMSE1
 70
     0
  9
$DIMSE2
 70
     0
  9
$DIMTAD
 70
     1
  9
$DIMZIN
 70
     8
  9
$DIMBLK
  1

  9
$DIMASO
 70
     1
  9
$DIMSHO
 70
     1
  9
$DIMPOST
  1

  9
$DIMAPOST
  1

  9
$DIMALT
 70
     0
  9
$DIMALTD
 70
     2
  9
$DIMALTF
 40
25.3999999999999986
  9
$DIMLFAC
 40
0.9999999999999998
  9
$DIMTOFL
 70
     1
  9
$DIMTVP
 40
0.8333333333333333
  9
$DIMTIX
 70
     1
  9
$DIMSOXD
 70
     0
  9
$DIMSAH
 70
     1
  9
$DIMBLK1
  1
YA
  9
$DIMBLK2
  1
YA
  9
$DIMSTYLE
  2
YA
  9
$DIMCLRD
 70
     2
  9
$DIMCLRE
 70
     2
  9
$DIMCLRT
 70
     2
  9
$DIMTFAC
 40
0.5
  9
$DIMGAP
 40
1.0
  9
$LUNITS
 70
     2
  9
$LUPREC
 70
     3
  9
$SKETCHINC
 40
0.1
  9
$FILLETRAD
 40
0.0
  9
$AUNITS
 70
     0
  9
$AUPREC
 70
     3
  9
$MENU
  1
acad
  9
$ELEVATION
 40
0.0
  9
$PELEVATION
 40
0.0
  9
$THICKNESS
 40
0.0
  9
$LIMCHECK
 70
     0
  9
$BLIPMODE
 70
     0
  9
$CHAMFERA
 40
0.0
  9
$CHAMFERB
 40
0.0
  9
$SKPOLY
 70
     0
  9
$TDCREATE
 40
2449171.7656481480225921
  9
$TDUPDATE
 40
2459788.6255902778357267
  9
$TDINDWG
 40
0.0581237037
  9
$TDUSRTIMER
 40
0.0581237037
  9
$USRTIMER
 70
     1
  9
$ANGBASE
 50
0.0
  9
$ANGDIR
 70
     0
  9
$PDMODE
 70
     0
  9
$PDSIZE
 40
0.0
  9
$PLINEWID
 40
0.0
  9
$COORDS
 70
     1
  9
$SPLFRAME
 70
     0
  9
$SPLINETYPE
 70
     6
  9
$SPLINESEGS
 70
     8
  9
$ATTDIA
 70
     1
  9
$ATTREQ
 70
     1
  9
$HANDLING
 70
     1
  9
$HANDSEED
  5
26C7
  9
$SURFTAB1
 70
     6
  9
$SURFTAB2
 70
     6
  9
$SURFTYPE
 70
     6
  9
$SURFU
 70
     6
  9
$SURFV
 70
     6
  9
$UCSNAME
  2

  9
$UCSORG
 10
0.0
 20
0.0
 30
0.0
  9
$UCSXDIR
 10
1.0
 20
0.0
 30
0.0
  9
$UCSYDIR
 10
0.0
 20
1.0
 30
0.0
  9
$PUCSNAME
  2

  9
$PUCSORG
 10
0.0
 20
0.0
 30
0.0
  9
$PUCSXDIR
 10
1.0
 20
0.0
 30
0.0
  9
$PUCSYDIR
 10
0.0
 20
1.0
 30
0.0
  9
$USERI1
 70
     0
  9
$USERI2
 70
     0
  9
$USERI3
 70
     0
  9
$USERI4
 70
     0
  9
$USERI5
 70
     0
  9
$USERR1
 40
0.0
  9
$USERR2
 40
0.0
  9
$USERR3
 40
0.0
  9
$USERR4
 40
0.0
  9
$USERR5
 40
0.0
  9
$WORLDVIEW
 70
     1
  9
$SHADEDGE
 70
     3
  9
$SHADEDIF
 70
    70
  9
$TILEMODE
 70
     1
  9
$MAXACTVP
 70
    16
  9
$PLIMCHECK
 70
     0
  9
$PEXTMIN
 10
1.0000000000000000E+20
 20
1.0000000000000000E+20
 30
1.0000000000000000E+20
  9
$PEXTMAX
 10
-1.0000000000000000E+20
 20
-1.0000000000000000E+20
 30
-1.0000000000000000E+20
  9
$PLIMMIN
 10
0.0
 20
0.0
  9
$PLIMMAX
 10
12.0
 20
9.0
  9
$UNITMODE
 70
     0
  9
$VISRETAIN
 70
     0
  9
$PLINEGEN
 70
     0
  9
$PSLTSCALE
 70
     1
  0
ENDSEC
  0
SECTION
  2
TABLES
  0
TABLE
  2
VPORT
 70
     1
  0
VPORT
  2
*ACTIVE
 70
     0
 10
0.0
 20
0.0
 11
1.0
 21
1.0
 12
4199.8076316636534102
 22
2969.8640759998620524
 13
0.0
 23
0.0
 14
1.0
 24
1.0
 15
0.0
 25
0.0
 16
0.0
 26
0.0
 36
1.0
 17
0.0
 27
0.0
 37
0.0
 40
5985.2739074548253484
 41
2.348925410872313
 42
50.0
 43
0.0
 44
0.0
 50
0.0
 51
0.0
 71
     0
 72
 20000
 73
     1
 74
     1
 75
     0
 76
     0
 77
     0
 78
     0
  0
ENDTAB
  0
TABLE
  2
LTYPE
 70
     8
  0
LTYPE
  2
CONTINUOUS
 70
     0
  3
Solid line
 72
    65
 73
     0
 40
0.0
  0
LTYPE
  2
HIDDEN
 70
     0
  3
__ __ __ __ __ __ __ __ __ __ __ __ __ __ __ __
 72
    65
 73
     2
 40
0.375
 49
0.25
 49
-0.125
  0
LTYPE
  2
PHANTOM
 70
     0
  3
______  __  __  ______  __  __  ______  __  __ 
 72
    65
 73
     6
 40
2.5
 49
1.25
 49
-0.25
 49
0.25
 49
-0.25
 49
0.25
 49
-0.25
  0
LTYPE
  2
CENTER2
 70
     0
  3
___ _ ___ _ ___ _ ___ _ ___ _ ___ _ ___ _ ___ _
 72
    65
 73
     4
 40
1.125
 49
0.75
 49
-0.125
 49
0.125
 49
-0.125
  0
LTYPE
  2
PHANTOM2
 70
     0
  3
___ _ _ ___ _ _ ___ _ _ ___ _ _ ___ _ _ ___ _ _
 72
    65
 73
     6
 40
1.25
 49
0.625
 49
-0.125
 49
0.125
 49
-0.125
 49
0.125
 49
-0.125
  0
LTYPE
  2
HIDDEN2
 70
     0
  3
Hidden (.5x) _ _ _ _ _ _ _ _ _ _ _ _ _ _ _ _ _
 72
    65
 73
     2
 40
0.1875
 49
0.125
 49
-0.0625
  0
ENDTAB
  0
TABLE
  2
LAYER
 70
     5
  0
LAYER
  2
0
 70
     0
 62
     7
  6
CONTINUOUS
  0
LAYER
  2
WAKU
 70
     1
 62
     7
  6
CONTINUOUS
  0
LAYER
  2
DEFPOINTS
 70
     0
 62
     7
  6
CONTINUOUS
  0
LAYER
  2
壁
 70
     0
 62
     7
  6
CONTINUOUS
  0
ENDTAB
  0
TABLE
  2
STYLE
 70
     3
  0
STYLE
  2
STANDARD
 70
     0
 40
0.0
 41
0.8
 50
0.0
 71
     0
 42
0.2
  3
simplex.shx
  4
extfont.shx
  0
STYLE
  2
\U+FF7D\U+FF80\U+FF72\U+FF991
 70
     0
 40
2.7000000000000002
 41
0.9
 50
0.0
 71
     0
 42
2.7000000000000002
  3
romans.shx
  4
bigfont.shx
  0
ENDTAB
  0
TABLE
  2
VIEW
 70
     0
  0
ENDTAB
  0
TABLE
  2
UCS
 70
     0
  0
ENDTAB
  0
TABLE
  2
APPID
 70
    12
  0
APPID
  2
ACAD
 70
     0
  0
APPID
  2
ACAD_NAV_VCDISPLAY
 70
     0
  0
APPID
  2
ACAD_MLEADERVER
 70
     0
  0
APPID
  2
GENIUS_GENREC_14
 70
     0
  0
APPID
  2
GENIUS_GENODEF_13
 70
     0
  0
APPID
  2
GENIUS_GENOBJ-N-REC_13
 70
     0
  0
APPID
  2
GENIUS_GENOBJ-N-CEN_13
 70
     0
  0
APPID
  2
ACAD_PSEXT
 70
     0
  0
APPID
  2
ACAECLAYERSTANDARD
 70
     0
  0
APPID
  2
ACDBDYNAMICBLOCKGUID
 70
     0
  0
APPID
  2
ACCMTRANSPARENCY
 70
     0
  0
APPID
  2
ACAD_EXEMPT_FROM_CAD_STANDARDS
 70
     0
  0
ENDTAB
  0
TABLE
  2
DIMSTYLE
 70
     1
  0
DIMSTYLE
  2
YA
 70
     0
  3

  4

  5

  6
YA
  7
YA
 40
20.0
 41
2.0
 42
1.0
 43
0.0
 44
1.0
 45
0.0
 46
0.0
 47
0.0
 48
0.0
140
2.5
141
-1.0
142
0.0
143
25.3999999999999986
144
0.9999999999999998
145
0.8333333333333333
146
0.5
147
1.0
 71
     0
 72
     0
 73
     0
 74
     0
 75
     0
 76
     0
 77
     1
 78
     8
170
     0
171
     2
172
     1
173
     1
174
     1
175
     0
176
     2
177
     2
178
     2
  0
ENDTAB
  0
ENDSEC
  0
SECTION
  2
BLOCKS
  0
BLOCK
  8
0
 62
     7
  2
$MODEL_SPACE
 70
     0
 10
0.0
 20
0.0
 30
0.0
  3
$MODEL_SPACE
  1

  0
ENDBLK
  5
34
  8
0
 62
     7
  0
BLOCK
 67
     1
  8
0
 62
     7
  2
$PAPER_SPACE
 70
     0
 10
0.0
 20
0.0
 30
0.0
  3
$PAPER_SPACE
  1

  0
ENDBLK
  5
32
 67
     1
  8
0
 62
     7
  0
BLOCK
  8
0
  2
YA
 70
     0
 10
0.0
 20
0.0
 30
0.0
  3
YA
  1

  0
LINE
  5
41
  8
0
 62
     2
 10
0.0
 20
0.0
 30
0.0
 11
-0.9659258262890944
 21
0.2588190451025127
 31
0.0
  0
LINE
  5
42
  8
0
 62
     2
 10
0.0
 20
0.0
 30
0.0
 11
-0.9659258262890944
 21
-0.2588190451025127
 31
0.0
  0
LINE
  5
43
  8
0
 62
     2
 10
0.0
 20
0.0
 30
0.0
 11
-1.0
 21
0.0
 31
0.0
  0
ENDBLK
  5
44
  8
0
  0
BLOCK
  8
0
 62
     7
  2
A$C0DC71B30
 70
     0
 10
0.0
 20
0.0
 30
0.0
  3
A$C0DC71B30
  1

  0
LINE
  5
2EF
  8
0
  6
CONTINUOUS
 62
     3
 10
36.0000591517737192
 20
410.0001030287339177
 30
0.0
 11
41.0000591517673385
 21
410.0001030287456842
 31
0.0
  0
LINE
  5
2F0
  8
0
  6
CONTINUOUS
 62
     3
 10
41.0000591515690687
 20
408.4955409697549271
 30
0.0
 11
41.0000591517673385
 21
410.0001030287456842
 31
0.0
  0
LINE
  5
2F1
  8
0
  6
CONTINUOUS
 62
     3
 10
36.0000591521002207
 20
408.4955409697540176
 30
0.0
 11
36.0000591517737192
 21
410.0001030287339177
 31
0.0
  0
LINE
  5
2F2
  8
0
  6
CONTINUOUS
 62
     3
 10
23.5000591517637112
 20
11.6333400287321602
 30
0.0
 11
53.5000591517637076
 21
11.6333400287321602
 31
0.0
  0
LINE
  5
2F3
  8
0
  6
CONTINUOUS
 62
     3
 10
6.6161021517636982
 20
6.5001030287321546
 30
0.0
 11
70.3840161517637171
 21
6.5001030287321546
 31
0.0
  0
LINE
  5
2F4
  8
0
  6
CONTINUOUS
 62
     3
 10
6.1422231517644832
 20
5.5001030287321546
 30
0.0
 11
70.8578951517629321
 21
5.5001030287321546
 31
0.0
  0
LINE
  5
2F5
  8
0
  6
CONTINUOUS
 62
     3
 10
23.5000591517637112
 20
2.5001030287321551
 30
0.0
 11
53.5000591517637076
 21
2.5001030287321551
 31
0.0
  0
LINE
  5
2F6
  8
0
  6
CONTINUOUS
 62
     3
 10
1.500059151763707
 20
11.0001030287321502
 30
0.0
 11
2.2740161517649531
 21
11.6333400287321602
 31
0.0
  0
LINE
  5
2F7
  8
0
  6
CONTINUOUS
 62
     3
 10
6.3839151517640849
 20
6.6101310287313018
 30
0.0
 11
2.2740161517649531
 21
11.6333400287321602
 31
0.0
  0
LINE
  5
2F8
  8
0
  6
CONTINUOUS
 62
     3
 10
5.9100351517627132
 20
5.6101310287313018
 30
0.0
 11
1.500059151763707
 21
11.0001030287321502
 31
0.0
  0
LINE
  5
2F9
  8
0
  6
CONTINUOUS
 62
     3
 10
26.5000591517637112
 20
0.0001030287321555
 30
0.0
 11
50.5000591517637005
 21
0.0001030287321555
 31
0.0
  0
LINE
  5
2FA
  8
0
  6
CONTINUOUS
 62
     3
 10
26.5000591517637112
 20
2.5001030287321551
 30
0.0
 11
26.5000591517637112
 21
0.0001030287321555
 31
0.0
  0
LINE
  5
2FB
  8
0
  6
CONTINUOUS
 62
     3
 10
23.0000591517637112
 20
5.5001030287321546
 30
0.0
 11
23.0000591517637112
 21
0.0001030287321555
 31
0.0
  0
LINE
  5
2FC
  8
0
  6
CONTINUOUS
 62
     3
 10
23.5000591517637112
 20
0.0001030287321555
 30
0.0
 11
23.0000591517637112
 21
0.0001030287321555
 31
0.0
  0
LINE
  5
2FD
  8
0
  6
CONTINUOUS
 62
     3
 10
50.5000591517637005
 20
2.5001030287321551
 30
0.0
 11
50.5000591517637005
 21
0.0001030287321555
 31
0.0
  0
LINE
  5
2FE
  8
0
  6
CONTINUOUS
 62
     3
 10
70.6162031517633295
 20
6.6101310287313018
 30
0.0
 11
74.7261021517642803
 21
11.6333400287321602
 31
0.0
  0
LINE
  5
2FF
  8
0
  6
CONTINUOUS
 62
     3
 10
54.0000591517637076
 20
5.5001030287321546
 30
0.0
 11
54.0000591517637076
 21
0.0001030287321555
 31
0.0
  0
LINE
  5
300
  8
0
  6
CONTINUOUS
 62
     3
 10
54.0000591517637076
 20
0.0001030287321555
 30
0.0
 11
53.5000591517637076
 21
0.0001030287321555
 31
0.0
  0
LINE
  5
301
  8
0
  6
CONTINUOUS
 62
     3
 10
74.7261021517642803
 20
11.6333400287321602
 30
0.0
 11
75.5000591517636934
 21
11.0001030287321502
 31
0.0
  0
LINE
  5
302
  8
0
  6
CONTINUOUS
 62
     3
 10
71.0900821517643635
 20
5.6101310287313018
 30
0.0
 11
75.5000591517636934
 21
11.0001030287321502
 31
0.0
  0
LINE
  5
303
  8
0
  6
CONTINUOUS
 62
     3
 10
58.750059151768248
 20
208.500103028713113
 30
0.0
 11
58.750059151768248
 21
247.6644002080392966
 31
0.0
  0
LINE
  5
304
  8
0
  6
CONTINUOUS
 62
     3
 10
0.0000591517355133
 20
209.0001030287340029
 30
0.0
 11
0.0000591517582507
 21
214.0001030287421884
 31
0.0
  0
LINE
  5
305
  8
0
  6
CONTINUOUS
 62
     3
 10
1.500059151761888
 20
209.0001030287594972
 30
0.0
 11
0.0000591517355133
 21
209.0001030287340029
 31
0.0
  0
LINE
  5
306
  8
0
  6
CONTINUOUS
 62
     3
 10
1.500059151761888
 20
214.0001030287621973
 30
0.0
 11
0.0000591517582507
 21
214.0001030287421884
 31
0.0
  0
LINE
  5
307
  8
0
  6
CONTINUOUS
 62
     3
 10
77.0000591517955399
 20
209.0001030287340029
 30
0.0
 11
77.0000591517728026
 21
214.0001030287421884
 31
0.0
  0
LINE
  5
308
  8
0
  6
CONTINUOUS
 62
     3
 10
75.5000591517691646
 20
209.0001030287594972
 30
0.0
 11
77.0000591517955399
 21
209.0001030287340029
 31
0.0
  0
LINE
  5
309
  8
0
  6
CONTINUOUS
 62
     3
 10
75.5000591517691646
 20
214.0001030287621973
 30
0.0
 11
77.0000591517728026
 21
214.0001030287421884
 31
0.0
  0
LINE
  5
30A
  8
0
  6
CONTINUOUS
 62
     3
 10
75.5000591517527937
 20
180.5001030287021138
 30
0.0
 11
75.5000591517818833
 21
402.7467445368255881
 31
0.0
  0
LINE
  5
30B
  8
0
  6
CONTINUOUS
 62
     3
 10
1.5000591517627979
 20
180.5001030287193942
 30
0.0
 11
1.500059151750065
 21
402.7467445368329209
 31
0.0
  0
LINE
  5
30C
  8
0
  6
CONTINUOUS
 62
     3
 10
32.5000591518137298
 20
153.5001030287048138
 30
0.0
 11
25.5000591517582507
 21
153.5001030287176036
 31
0.0
  0
LINE
  5
30D
  8
0
  6
CONTINUOUS
 62
     3
 10
56.5000591517773501
 20
158.500103028725789
 30
0.0
 11
10.5000591517609791
 21
158.5001030287230037
 31
0.0
  0
LINE
  5
30E
  8
0
  6
CONTINUOUS
 62
     3
 10
25.5000591515963606
 20
158.5001030287239132
 30
0.0
 11
25.5000591517582507
 21
153.5001030287176036
 31
0.0
  0
LINE
  5
30F
  8
0
  6
CONTINUOUS
 62
     3
 10
32.5000591520583768
 20
158.500103028724908
 30
0.0
 11
32.5000591518137298
 21
153.5001030287048138
 31
0.0
  0
LINE
  5
310
  8
0
  6
CONTINUOUS
 62
     3
 10
10.5000591517609791
 20
158.5001030287230037
 30
0.0
 11
10.5000591517764406
 21
197.0001030287239132
 31
0.0
  0
LINE
  5
311
  8
0
  6
CONTINUOUS
 62
     3
 10
56.5000591517773501
 20
158.500103028725789
 30
0.0
 11
56.5000591517682622
 21
197.0001030287585024
 31
0.0
  0
LINE
  5
312
  8
0
  6
CONTINUOUS
 62
     3
 10
56.5000591517673385
 20
180.5001030287066897
 30
0.0
 11
75.5000591517527937
 21
180.500103028724908
 31
0.0
  0
LINE
  5
313
  8
0
  6
CONTINUOUS
 62
     3
 10
1.5000591517627979
 20
180.5001030287012043
 30
0.0
 11
10.5000591517809898
 21
180.500103028724908
 31
0.0
  0
LINE
  5
314
  8
0
  6
CONTINUOUS
 62
     3
 10
53.5000591517646171
 20
158.5001030287266985
 30
0.0
 11
53.5000591517682622
 21
6.5001030287376116
 31
0.0
  0
LINE
  5
315
  8
0
  6
CONTINUOUS
 62
     3
 10
42.0000591517673385
 20
158.500103028724908
 30
0.0
 11
42.0000591517655266
 21
15.1618419186224802
 31
0.0
  0
LINE
  5
316
  8
0
  6
CONTINUOUS
 62
     3
 10
35.0000591517646171
 20
158.500103028724908
 30
0.0
 11
35.0000591517664432
 21
15.1968136961195306
 31
0.0
  0
LINE
  5
317
  8
0
  6
CONTINUOUS
 62
     3
 10
23.5000591517591602
 20
158.5001030287239132
 30
0.0
 11
23.5000591517618886
 21
6.5001030287376116
 31
0.0
  0
LINE
  5
318
  8
0
  6
CONTINUOUS
 62
     3
 10
18.25005915177098
 20
214.2174634536503959
 30
0.0
 11
18.250059151766429
 21
247.6644002080593054
 31
0.0
  0
LINE
  5
319
  8
0
  6
CONTINUOUS
 62
     3
 10
4.5000591518492001
 20
201.0001030287922106
 30
0.0
 11
4.500059151863752
 21
206.0001030287284891
 31
0.0
  0
LINE
  5
31A
  8
0
  6
CONTINUOUS
 62
     3
 10
7.0000591518728461
 20
208.500103028727608
 30
0.0
 11
13.5814748646343997
 21
208.5001030287002948
 31
0.0
  0
LINE
  5
31B
  8
0
  6
CONTINUOUS
 62
     3
 10
7.0000591518519277
 20
198.5001030290495123
 30
0.0
 11
10.5490243167750997
 21
198.5001030287957917
 31
0.0
  0
LINE
  5
31C
  8
0
  6
CONTINUOUS
 62
     3
 10
72.5000591517700741
 20
201.0001030287521928
 30
0.0
 11
72.5000591517755311
 21
206.0001030287421884
 31
0.0
  0
LINE
  5
31D
  8
0
  6
CONTINUOUS
 62
     3
 10
70.0000591517764406
 20
208.5001030286703099
 30
0.0
 11
53.4186434390021603
 21
208.5001030287203037
 31
0.0
  0
LINE
  5
31E
  8
0
  6
CONTINUOUS
 62
     3
 10
56.4510939869114665
 20
198.5001030287467074
 30
0.0
 11
70.0000591517673456
 21
198.5001030286757953
 31
0.0
  0
LINE
  5
31F
  8
0
  6
CONTINUOUS
 62
     3
 10
72.5000591517755311
 20
392.881439245783497
 30
0.0
 11
72.5000591517764406
 21
180.5001030288995025
 31
0.0
  0
LINE
  5
320
  8
0
  6
CONTINUOUS
 62
     3
 10
4.5000591517282373
 20
392.8814392457916256
 30
0.0
 11
4.5000591517264183
 21
180.5001030287212131
 31
0.0
  0
LINE
  5
321
  8
0
  6
CONTINUOUS
 62
     3
 10
72.5000591517755311
 20
397.6557870656807268
 30
0.0
 11
74.2046356355103853
 21
403.24925022835032
 31
0.0
  0
LINE
  5
322
  8
0
  6
CONTINUOUS
 62
     3
 10
4.5000591517591602
 20
397.6557870656807268
 30
0.0
 11
2.795482668024305
 21
403.24925022835032
 31
0.0
  0
CIRCLE
  5
323
  8
0
  6
CONTINUOUS
 62
     3
 10
38.5000591517637076
 20
238.0001030287112087
 30
0.0
 40
2.5
  0
ARC
  5
324
  8
0
  6
CONTINUOUS
 62
     3
 10
70.5000591517782595
 20
402.7467445368264976
 30
0.0
 40
5.0
 50
0.0
 51
87.3027318660789859
  0
ARC
  5
325
  8
0
  6
CONTINUOUS
 62
     3
 10
38.5000591516336499
 20
-276.4998969827136079
 30
0.0
 40
685.0000000114554268
 50
87.3027318660920031
 51
92.697268133881991
  0
ARC
  5
326
  8
0
  6
CONTINUOUS
 62
     3
 10
6.5000591517500652
 20
402.7467445368329209
 30
0.0
 40
5.0
 50
92.6972681339730684
 51
180.0
  0
ARC
  5
327
  8
0
  6
CONTINUOUS
 62
     3
 10
6.6161021517636982
 20
6.800103028731427
 30
0.0
 40
0.3
 50
219.2894069999834983
 51
270.0
  0
ARC
  5
328
  8
0
  6
CONTINUOUS
 62
     3
 10
6.1422231517644832
 20
5.800103028731427
 30
0.0
 40
0.3
 50
219.2894069999834983
 51
270.0
  0
ARC
  5
329
  8
0
  6
CONTINUOUS
 62
     3
 10
70.8578951517629321
 20
5.800103028731427
 30
0.0
 40
0.3
 50
270.0
 51
320.7105930000165017
  0
ARC
  5
32A
  8
0
  6
CONTINUOUS
 62
     3
 10
70.3840161517637171
 20
6.800103028731427
 30
0.0
 40
0.3
 50
270.0
 51
320.7105930000165017
  0
ARC
  5
32B
  8
0
  6
CONTINUOUS
 62
     3
 10
54.7500591517691575
 20
247.6644002080383871
 30
0.0
 40
4.0
 50
0.0
 51
80.6020339034328401
  0
ARC
  5
32C
  8
0
  6
CONTINUOUS
 62
     3
 10
38.5000591517500723
 20
149.4844780286138928
 30
0.0
 40
103.5156250000995044
 50
80.6020339034199935
 51
99.3979660965671741
  0
ARC
  5
32D
  8
0
  6
CONTINUOUS
 62
     3
 10
22.2500591517664397
 20
247.6644002080593054
 30
0.0
 40
4.0
 50
99.3979660965264742
 51
180.0
  0
ARC
  5
32E
  8
0
  6
CONTINUOUS
 62
     3
 10
33.5000591517318824
 20
197.0001030287349124
 30
0.0
 40
22.9999999999927205
 50
0.0000000000521102
 51
180.0000000000260059
  0
ARC
  5
32F
  8
0
  6
CONTINUOUS
 62
     3
 10
38.5000591517664432
 20
227.5001030287112087
 30
0.0
 40
13.0
 50
302.8953169095287876
 51
359.9999999999217835
  0
ARC
  5
330
  8
0
  6
CONTINUOUS
 62
     3
 10
38.5000591517664432
 20
227.5001030287112087
 30
0.0
 40
13.0
 50
0.0
 51
218.4848027403733965
  0
ARC
  5
331
  8
0
  6
CONTINUOUS
 62
     3
 10
7.000059151863752
 20
206.0001030287293986
 30
0.0
 40
2.5
 50
89.9999999997915552
 51
180.0
  0
ARC
  5
332
  8
0
  6
CONTINUOUS
 62
     3
 10
7.0000591518501087
 20
201.0001030287922106
 30
0.0
 40
2.5
 50
180.0
 51
270.0000000000521254
  0
ARC
  5
333
  8
0
  6
CONTINUOUS
 62
     3
 10
70.0000591517755311
 20
206.0001030287421884
 30
0.0
 40
2.5
 50
0.0
 51
89.9999999999869686
  0
ARC
  5
334
  8
0
  6
CONTINUOUS
 62
     3
 10
70.0000591517709836
 20
201.0001030287531023
 30
0.0
 40
2.5
 50
269.9999999999088232
 51
359.9999999999740226
  0
ARC
  5
335
  8
0
  6
CONTINUOUS
 62
     3
 10
67.5000591517755311
 20
392.881439245783497
 30
0.0
 40
5.0
 50
0.0
 51
87.555762220299215
  0
ARC
  5
336
  8
0
  6
CONTINUOUS
 62
     3
 10
38.5000591516363784
 20
-286.4998969826826851
 30
0.0
 40
685.0000000114554268
 50
87.5557622202471748
 51
92.4442377797397938
  0
ARC
  5
337
  8
0
  6
CONTINUOUS
 62
     3
 10
9.5000591517255089
 20
392.8814392457916256
 30
0.0
 40
5.0
 50
92.4442377796877537
 51
180.0
  0
POLYLINE
  5
338
  8
0
  6
CONTINUOUS
 62
     3
 10
35.0000591517637076
 20
15.1968138840893481
 30
0.0
 66
     1
 70
     8
  0
VERTEX
  8
0
  5
23BB
 10
35.0001
 20
15.1968
 30
0.00000
  70
    32
  0
VERTEX
  8
0
  5
23BC
 10
35.0038
 20
15.1201
 30
0.00000
  70
    32
  0
VERTEX
  8
0
  5
23BD
 10
35.0160
 20
15.0435
 30
0.00000
  70
    32
  0
VERTEX
  8
0
  5
23BE
 10
35.0365
 20
14.9673
 30
0.00000
  70
    32
  0
VERTEX
  8
0
  5
23BF
 10
35.0654
 20
14.8915
 30
0.00000
  70
    32
  0
VERTEX
  8
0
  5
23C0
 10
35.1026
 20
14.8164
 30
0.00000
  70
    32
  0
VERTEX
  8
0
  5
23C1
 10
35.1479
 20
14.7422
 30
0.00000
  70
    32
  0
VERTEX
  8
0
  5
23C2
 10
35.2014
 20
14.6690
 30
0.00000
  70
    32
  0
VERTEX
  8
0
  5
23C3
 10
35.2627
 20
14.5971
 30
0.00000
  70
    32
  0
VERTEX
  8
0
  5
23C4
 10
35.3319
 20
14.5265
 30
0.00000
  70
    32
  0
VERTEX
  8
0
  5
23C5
 10
35.4087
 20
14.4575
 30
0.00000
  70
    32
  0
VERTEX
  8
0
  5
23C6
 10
35.4930
 20
14.3903
 30
0.00000
  70
    32
  0
VERTEX
  8
0
  5
23C7
 10
35.5845
 20
14.3249
 30
0.00000
  70
    32
  0
VERTEX
  8
0
  5
23C8
 10
35.6830
 20
14.2615
 30
0.00000
  70
    32
  0
VERTEX
  8
0
  5
23C9
 10
35.7883
 20
14.2004
 30
0.00000
  70
    32
  0
VERTEX
  8
0
  5
23CA
 10
35.9002
 20
14.1416
 30
0.00000
  70
    32
  0
VERTEX
  8
0
  5
23CB
 10
36.0183
 20
14.0853
 30
0.00000
  70
    32
  0
VERTEX
  8
0
  5
23CC
 10
36.1424
 20
14.0317
 30
0.00000
  70
    32
  0
VERTEX
  8
0
  5
23CD
 10
36.2721
 20
13.9807
 30
0.00000
  70
    32
  0
VERTEX
  8
0
  5
23CE
 10
36.4073
 20
13.9327
 30
0.00000
  70
    32
  0
VERTEX
  8
0
  5
23CF
 10
36.5475
 20
13.8877
 30
0.00000
  70
    32
  0
VERTEX
  8
0
  5
23D0
 10
36.6923
 20
13.8457
 30
0.00000
  70
    32
  0
VERTEX
  8
0
  5
23D1
 10
36.8416
 20
13.8070
 30
0.00000
  70
    32
  0
VERTEX
  8
0
  5
23D2
 10
36.9948
 20
13.7715
 30
0.00000
  70
    32
  0
VERTEX
  8
0
  5
23D3
 10
37.1517
 20
13.7395
 30
0.00000
  70
    32
  0
VERTEX
  8
0
  5
23D4
 10
37.3118
 20
13.7109
 30
0.00000
  70
    32
  0
VERTEX
  8
0
  5
23D5
 10
37.4747
 20
13.6858
 30
0.00000
  70
    32
  0
VERTEX
  8
0
  5
23D6
 10
37.6402
 20
13.6643
 30
0.00000
  70
    32
  0
VERTEX
  8
0
  5
23D7
 10
37.8077
 20
13.6464
 30
0.00000
  70
    32
  0
VERTEX
  8
0
  5
23D8
 10
37.9769
 20
13.6323
 30
0.00000
  70
    32
  0
VERTEX
  8
0
  5
23D9
 10
38.1473
 20
13.6218
 30
0.00000
  70
    32
  0
VERTEX
  8
0
  5
23DA
 10
38.3186
 20
13.6151
 30
0.00000
  70
    32
  0
VERTEX
  8
0
  5
23DB
 10
38.4903
 20
13.6121
 30
0.00000
  70
    32
  0
VERTEX
  8
0
  5
23DC
 10
38.6621
 20
13.6130
 30
0.00000
  70
    32
  0
VERTEX
  8
0
  5
23DD
 10
38.8334
 20
13.6175
 30
0.00000
  70
    32
  0
VERTEX
  8
0
  5
23DE
 10
39.0040
 20
13.6259
 30
0.00000
  70
    32
  0
VERTEX
  8
0
  5
23DF
 10
39.1733
 20
13.6379
 30
0.00000
  70
    32
  0
VERTEX
  8
0
  5
23E0
 10
39.3410
 20
13.6537
 30
0.00000
  70
    32
  0
VERTEX
  8
0
  5
23E1
 10
39.5067
 20
13.6731
 30
0.00000
  70
    32
  0
VERTEX
  8
0
  5
23E2
 10
39.6700
 20
13.6961
 30
0.00000
  70
    32
  0
VERTEX
  8
0
  5
23E3
 10
39.8304
 20
13.7228
 30
0.00000
  70
    32
  0
VERTEX
  8
0
  5
23E4
 10
39.9877
 20
13.7529
 30
0.00000
  70
    32
  0
VERTEX
  8
0
  5
23E5
 10
40.1413
 20
13.7864
 30
0.00000
  70
    32
  0
VERTEX
  8
0
  5
23E6
 10
40.2911
 20
13.8233
 30
0.00000
  70
    32
  0
VERTEX
  8
0
  5
23E7
 10
40.4364
 20
13.8634
 30
0.00000
  70
    32
  0
VERTEX
  8
0
  5
23E8
 10
40.5772
 20
13.9067
 30
0.00000
  70
    32
  0
VERTEX
  8
0
  5
23E9
 10
40.7129
 20
13.9530
 30
0.00000
  70
    32
  0
VERTEX
  8
0
  5
23EA
 10
40.8433
 20
14.0023
 30
0.00000
  70
    32
  0
VERTEX
  8
0
  5
23EB
 10
40.9680
 20
14.0544
 30
0.00000
  70
    32
  0
VERTEX
  8
0
  5
23EC
 10
41.0868
 20
14.1093
 30
0.00000
  70
    32
  0
VERTEX
  8
0
  5
23ED
 10
41.1994
 20
14.1666
 30
0.00000
  70
    32
  0
VERTEX
  8
0
  5
23EE
 10
41.3055
 20
14.2265
 30
0.00000
  70
    32
  0
VERTEX
  8
0
  5
23EF
 10
41.4048
 20
14.2886
 30
0.00000
  70
    32
  0
VERTEX
  8
0
  5
23F0
 10
41.4971
 20
14.3528
 30
0.00000
  70
    32
  0
VERTEX
  8
0
  5
23F1
 10
41.5822
 20
14.4190
 30
0.00000
  70
    32
  0
VERTEX
  8
0
  5
23F2
 10
41.6599
 20
14.4870
 30
0.00000
  70
    32
  0
VERTEX
  8
0
  5
23F3
 10
41.7299
 20
14.5567
 30
0.00000
  70
    32
  0
VERTEX
  8
0
  5
23F4
 10
41.7922
 20
14.6279
 30
0.00000
  70
    32
  0
VERTEX
  8
0
  5
23F5
 10
41.8465
 20
14.7004
 30
0.00000
  70
    32
  0
VERTEX
  8
0
  5
23F6
 10
41.8928
 20
14.7741
 30
0.00000
  70
    32
  0
VERTEX
  8
0
  5
23F7
 10
41.9309
 20
14.8487
 30
0.00000
  70
    32
  0
VERTEX
  8
0
  5
23F8
 10
41.9607
 20
14.9241
 30
0.00000
  70
    32
  0
VERTEX
  8
0
  5
23F9
 10
41.9822
 20
15.0001
 30
0.00000
  70
    32
  0
VERTEX
  8
0
  5
23FA
 10
41.9954
 20
15.0765
 30
0.00000
  70
    32
  0
VERTEX
  8
0
  5
23FB
 10
42.0001
 20
15.1531
 30
0.00000
  70
    32
  0
VERTEX
  8
0
  5
23FC
 10
41.9963
 20
15.2298
 30
0.00000
  70
    32
  0
VERTEX
  8
0
  5
23FD
 10
41.9842
 20
15.3064
 30
0.00000
  70
    32
  0
VERTEX
  8
0
  5
23FE
 10
41.9636
 20
15.3827
 30
0.00000
  70
    32
  0
VERTEX
  8
0
  5
23FF
 10
41.9347
 20
15.4584
 30
0.00000
  70
    32
  0
VERTEX
  8
0
  5
2400
 10
41.8975
 20
15.5335
 30
0.00000
  70
    32
  0
VERTEX
  8
0
  5
2401
 10
41.8522
 20
15.6077
 30
0.00000
  70
    32
  0
VERTEX
  8
0
  5
2402
 10
41.7987
 20
15.6809
 30
0.00000
  70
    32
  0
VERTEX
  8
0
  5
2403
 10
41.7374
 20
15.7529
 30
0.00000
  70
    32
  0
VERTEX
  8
0
  5
2404
 10
41.6682
 20
15.8234
 30
0.00000
  70
    32
  0
VERTEX
  8
0
  5
2405
 10
41.5914
 20
15.8924
 30
0.00000
  70
    32
  0
VERTEX
  8
0
  5
2406
 10
41.5071
 20
15.9597
 30
0.00000
  70
    32
  0
VERTEX
  8
0
  5
2407
 10
41.4156
 20
16.0251
 30
0.00000
  70
    32
  0
VERTEX
  8
0
  5
2408
 10
41.3171
 20
16.0884
 30
0.00000
  70
    32
  0
VERTEX
  8
0
  5
2409
 10
41.2118
 20
16.1495
 30
0.00000
  70
    32
  0
VERTEX
  8
0
  5
240A
 10
41.0999
 20
16.2083
 30
0.00000
  70
    32
  0
VERTEX
  8
0
  5
240B
 10
40.9818
 20
16.2646
 30
0.00000
  70
    32
  0
VERTEX
  8
0
  5
240C
 10
40.8577
 20
16.3183
 30
0.00000
  70
    32
  0
VERTEX
  8
0
  5
240D
 10
40.7280
 20
16.3692
 30
0.00000
  70
    32
  0
VERTEX
  8
0
  5
240E
 10
40.5928
 20
16.4172
 30
0.00000
  70
    32
  0
VERTEX
  8
0
  5
240F
 10
40.4527
 20
16.4623
 30
0.00000
  70
    32
  0
VERTEX
  8
0
  5
2410
 10
40.3078
 20
16.5042
 30
0.00000
  70
    32
  0
VERTEX
  8
0
  5
2411
 10
40.1585
 20
16.5430
 30
0.00000
  70
    32
  0
VERTEX
  8
0
  5
2412
 10
40.0053
 20
16.5784
 30
0.00000
  70
    32
  0
VERTEX
  8
0
  5
2413
 10
39.8485
 20
16.6105
 30
0.00000
  70
    32
  0
VERTEX
  8
0
  5
2414
 10
39.6884
 20
16.6391
 30
0.00000
  70
    32
  0
VERTEX
  8
0
  5
2415
 10
39.5254
 20
16.6642
 30
0.00000
  70
    32
  0
VERTEX
  8
0
  5
2416
 10
39.3599
 20
16.6857
 30
0.00000
  70
    32
  0
VERTEX
  8
0
  5
2417
 10
39.1924
 20
16.7035
 30
0.00000
  70
    32
  0
VERTEX
  8
0
  5
2418
 10
39.0233
 20
16.7177
 30
0.00000
  70
    32
  0
VERTEX
  8
0
  5
2419
 10
38.8528
 20
16.7281
 30
0.00000
  70
    32
  0
VERTEX
  8
0
  5
241A
 10
38.6815
 20
16.7348
 30
0.00000
  70
    32
  0
VERTEX
  8
0
  5
241B
 10
38.5098
 20
16.7378
 30
0.00000
  70
    32
  0
VERTEX
  8
0
  5
241C
 10
38.3381
 20
16.7370
 30
0.00000
  70
    32
  0
VERTEX
  8
0
  5
241D
 10
38.1667
 20
16.7324
 30
0.00000
  70
    32
  0
VERTEX
  8
0
  5
241E
 10
37.9961
 20
16.7241
 30
0.00000
  70
    32
  0
VERTEX
  8
0
  5
241F
 10
37.8268
 20
16.7120
 30
0.00000
  70
    32
  0
VERTEX
  8
0
  5
2420
 10
37.6591
 20
16.6963
 30
0.00000
  70
    32
  0
VERTEX
  8
0
  5
2421
 10
37.4934
 20
16.6768
 30
0.00000
  70
    32
  0
VERTEX
  8
0
  5
2422
 10
37.3301
 20
16.6538
 30
0.00000
  70
    32
  0
VERTEX
  8
0
  5
2423
 10
37.1697
 20
16.6272
 30
0.00000
  70
    32
  0
VERTEX
  8
0
  5
2424
 10
37.0124
 20
16.5971
 30
0.00000
  70
    32
  0
VERTEX
  8
0
  5
2425
 10
36.8588
 20
16.5636
 30
0.00000
  70
    32
  0
VERTEX
  8
0
  5
2426
 10
36.7091
 20
16.5267
 30
0.00000
  70
    32
  0
VERTEX
  8
0
  5
2427
 10
36.5637
 20
16.4866
 30
0.00000
  70
    32
  0
VERTEX
  8
0
  5
2428
 10
36.4229
 20
16.4433
 30
0.00000
  70
    32
  0
VERTEX
  8
0
  5
2429
 10
36.2872
 20
16.3969
 30
0.00000
  70
    32
  0
VERTEX
  8
0
  5
242A
 10
36.1568
 20
16.3476
 30
0.00000
  70
    32
  0
VERTEX
  8
0
  5
242B
 10
36.0321
 20
16.2955
 30
0.00000
  70
    32
  0
VERTEX
  8
0
  5
242C
 10
35.9133
 20
16.2407
 30
0.00000
  70
    32
  0
VERTEX
  8
0
  5
242D
 10
35.8007
 20
16.1833
 30
0.00000
  70
    32
  0
VERTEX
  8
0
  5
242E
 10
35.6946
 20
16.1235
 30
0.00000
  70
    32
  0
VERTEX
  8
0
  5
242F
 10
35.5953
 20
16.0614
 30
0.00000
  70
    32
  0
VERTEX
  8
0
  5
2430
 10
35.5030
 20
15.9972
 30
0.00000
  70
    32
  0
VERTEX
  8
0
  5
2431
 10
35.4179
 20
15.9309
 30
0.00000
  70
    32
  0
VERTEX
  8
0
  5
2432
 10
35.3403
 20
15.8629
 30
0.00000
  70
    32
  0
VERTEX
  8
0
  5
2433
 10
35.2702
 20
15.7932
 30
0.00000
  70
    32
  0
VERTEX
  8
0
  5
2434
 10
35.2079
 20
15.7220
 30
0.00000
  70
    32
  0
VERTEX
  8
0
  5
2435
 10
35.1536
 20
15.6495
 30
0.00000
  70
    32
  0
VERTEX
  8
0
  5
2436
 10
35.1073
 20
15.5759
 30
0.00000
  70
    32
  0
VERTEX
  8
0
  5
2437
 10
35.0692
 20
15.5013
 30
0.00000
  70
    32
  0
VERTEX
  8
0
  5
2438
 10
35.0394
 20
15.4259
 30
0.00000
  70
    32
  0
VERTEX
  8
0
  5
2439
 10
35.0179
 20
15.3499
 30
0.00000
  70
    32
  0
VERTEX
  8
0
  5
243A
 10
35.0048
 20
15.2735
 30
0.00000
  70
    32
  0
VERTEX
  8
0
  5
243B
 10
35.0001
 20
15.1968
 30
0.00000
  70
    32
  0
SEQEND
  8
0
  5
243C
  0
ENDBLK
  5
339
  8
0
 62
     7
  0
BLOCK
  8
0
 62
     3
  2
A$C3FE03FDA
 70
     0
 10
0.0
 20
0.0
 30
0.0
  3
A$C3FE03FDA
  1

  0
INSERT
  5
33E
  8
0
 62
     3
  2
A$C0DC71B30
 10
-0.000107692736492
 20
-0.000104754091808
 30
0.0
  0
ENDBLK
  5
33F
  8
0
 62
     3
  0
BLOCK
  8
0
  2
A$C51C070DC
 70
     0
 10
0.0
 20
0.0
 30
0.0
  3
A$C51C070DC
  1

  0
LINE
  5
344
  8
0
  6
CENTER2
 62
     4
 10
-0.0000841985129227
 20
75.1618252247790224
 30
0.0
 11
99.9999158014870915
 21
75.1618252247790224
 31
0.0
  0
CIRCLE
  5
345
  8
0
 62
     3
 10
49.9999158014870773
 20
55.1618252247790224
 30
0.0
 40
10.0
  0
CIRCLE
  5
346
  8
0
 62
     3
 10
49.9999158014870773
 20
95.1618252247790366
 30
0.0
 40
10.0
  0
LINE
  5
347
  8
0
  6
CENTER2
 62
     4
 10
49.9999158014870773
 20
150.3236902247807905
 30
0.0
 11
49.9999158014870773
 21
-0.000039775215555
 31
0.0
  0
POLYLINE
  5
348
  8
0
  6
HIDDEN2
 62
     3
 66
     1
 10
0.0
 20
0.0
 30
0.0
 70
     1
  0
VERTEX
  5
22BC
  8
0
  6
HIDDEN2
 62
     3
 10
79.9999158014870773
 20
30.1618252247790188
 30
0.0
  0
VERTEX
  5
22BD
  8
0
  6
HIDDEN2
 62
     3
 10
79.9999158014870773
 20
120.161825224778994
 30
0.0
  0
VERTEX
  5
22BE
  8
0
  6
HIDDEN2
 62
     3
 10
19.9999158014870808
 20
120.161825224778994
 30
0.0
  0
VERTEX
  5
22BF
  8
0
  6
HIDDEN2
 62
     3
 10
19.9999158014870808
 20
30.1618252247790188
 30
0.0
  0
SEQEND
  5
22C0
  8
0
  6
HIDDEN2
 62
     3
  0
ENDBLK
  5
349
  8
0
  0
BLOCK
  8
0
  2
A$C5756186B
 70
     0
 10
0.0
 20
0.0
 30
0.0
  3
A$C5756186B
  1

  0
LINE
  5
34E
  8
0
  6
CENTER2
 62
     4
 10
30.0001275829599798
 20
119.2820257094062981
 30
0.0
 11
30.0001275829599798
 21
0.0000437094058725
 31
0.0
  0
POLYLINE
  5
34F
  8
0
  6
HIDDEN2
 62
     3
 66
     1
 10
0.0
 20
0.0
 30
0.0
 70
     1
  0
VERTEX
  5
22C1
  8
0
  6
HIDDEN2
 62
     3
 10
0.0001275829599763
 20
0.0000437094058725
 30
0.0
  0
VERTEX
  5
22C2
  8
0
  6
HIDDEN2
 62
     3
 10
0.0001275829599763
 20
50.0000437094058725
 30
0.0
  0
VERTEX
  5
22C3
  8
0
  6
HIDDEN2
 62
     3
 10
60.0001275829599834
 20
50.0000437094058725
 30
0.0
  0
VERTEX
  5
22C4
  8
0
  6
HIDDEN2
 62
     3
 10
60.0001275829599834
 20
0.0000437094058725
 30
0.0
  0
SEQEND
  5
22C5
  8
0
  6
HIDDEN2
 62
     3
  0
ENDBLK
  5
350
  8
0
  0
BLOCK
  8
0
  2
A$C4E7F6CC5
 70
     0
 10
0.0
 20
0.0
 30
0.0
  3
A$C4E7F6CC5
  1

  0
LINE
  5
355
  8
0
  6
HIDDEN2
 62
     3
 10
-0.0000954992974584
 20
49.9999570132859006
 30
0.0
 11
39.9999045007025416
 21
119.2819390132863049
 31
0.0
  0
LINE
  5
356
  8
0
  6
HIDDEN2
 62
     3
 10
-0.0000954992974584
 20
119.2819390132863049
 30
0.0
 11
39.9999045007025416
 21
49.9999570132859006
 31
0.0
  0
LINE
  5
357
  8
0
  6
CENTER2
 62
     4
 10
19.9999045007025416
 20
150.3236870132896001
 30
0.0
 11
19.9999045007025416
 21
-0.0000429867141065
 31
0.0
  0
LINE
  5
358
  8
0
  6
HIDDEN2
 62
     3
 10
29.9999045007025416
 20
49.9999570132859006
 30
0.0
 11
29.9999045007025416
 21
-0.0000429867141065
 31
0.0
  0
LINE
  5
359
  8
0
  6
HIDDEN2
 62
     3
 10
9.9999045007025416
 20
49.9999570132859006
 30
0.0
 11
9.9999045007025416
 21
-0.0000429867141065
 31
0.0
  0
LINE
  5
35A
  8
0
  6
HIDDEN2
 62
     3
 10
44.9999045007025416
 20
99.6410700132910421
 30
0.0
 11
44.9999045007025416
 21
69.6410700132910279
 31
0.0
  0
LINE
  5
35B
  8
0
  6
HIDDEN2
 62
     3
 10
39.9999045007025416
 20
49.9999570132859006
 30
0.0
 11
-0.0000954992974584
 21
49.9999570132859006
 31
0.0
  0
LINE
  5
35C
  8
0
  6
HIDDEN2
 62
     3
 10
19.9999045007025416
 20
84.6410700132910137
 30
0.0
 11
44.9999045007025416
 21
84.6410700132910137
 31
0.0
  0
LINE
  5
35D
  8
0
  6
HIDDEN2
 62
     3
 10
39.9999045007025416
 20
119.2819390132863049
 30
0.0
 11
-0.0000954992974584
 21
119.2819390132863049
 31
0.0
  0
ENDBLK
  5
35E
  8
0
  0
BLOCK
  8
0
  2
A$C24BB75B8
 70
     0
 10
0.0
 20
0.0
 30
0.0
  3
A$C24BB75B8
  1

  0
LINE
  5
363
  8
0
  6
CENTER2
 62
     4
 10
49.99996041995837
 20
178.819543966208613
 30
0.0
 11
49.99996041995837
 21
-0.0000173060107045
 31
0.0
  0
POLYLINE
  5
364
  8
0
  6
HIDDEN
 62
     3
 66
     1
 10
0.0
 20
0.0
 30
0.0
 70
     1
  0
VERTEX
  5
22C6
  8
0
  6
HIDDEN
 62
     3
 10
99.99996041995837
 20
64.7411936939897714
 30
0.0
  0
VERTEX
  5
22C7
  8
0
  6
HIDDEN
 62
     3
 10
99.99996041995837
 20
139.7411936939897998
 30
0.0
  0
VERTEX
  5
22C8
  8
0
  6
HIDDEN
 62
     3
 10
-0.00003958004163
 20
139.7411936939897998
 30
0.0
  0
VERTEX
  5
22C9
  8
0
  6
HIDDEN
 62
     3
 10
-0.00003958004163
 20
64.7411936939897714
 30
0.0
  0
SEQEND
  5
22CA
  8
0
  6
HIDDEN
 62
     3
  0
ENDBLK
  5
365
  8
0
  0
BLOCK
  8
0
  2
A$C1AEA2420
 70
     0
 10
0.0
 20
0.0
 30
0.0
  3
A$C1AEA2420
  1

  0
LINE
  5
36A
  8
0
  6
PHANTOM2
 62
     3
 10
93.4517887394431455
 20
89.9999713946526754
 30
0.0
 11
93.4517887394431455
 21
499.9999713946526185
 31
0.0
  0
LINE
  5
36B
  8
0
  6
PHANTOM2
 62
     3
 10
73.4517887394431455
 20
89.9999713946526754
 30
0.0
 11
73.4517887394431455
 21
499.9999713946526185
 31
0.0
  0
LINE
  5
36C
  8
0
  6
CENTER2
 62
     4
 10
170.0970280262880863
 20
44.9998493946550298
 30
0.0
 11
0.0001287394443352
 21
44.9999713946526683
 31
0.0
  0
LINE
  5
36D
  8
0
  6
HIDDEN
 62
     3
 10
108.4517887394431028
 20
89.9999713946526754
 30
0.0
 11
108.4517887394431028
 21
-0.0000286053473246
 31
0.0
  0
LINE
  5
36E
  8
0
  6
HIDDEN
 62
     3
 10
33.4517887394431526
 20
-0.0000286053473246
 30
0.0
 11
108.4517887394431028
 21
-0.0000286053473246
 31
0.0
  0
LINE
  5
36F
  8
0
  6
HIDDEN
 62
     3
 10
33.4517887394431526
 20
89.9999713946526754
 30
0.0
 11
108.4517887394431028
 21
89.9999713946526754
 31
0.0
  0
ARC
  5
370
  8
0
  6
CONTINUOUS
 62
     1
 10
88.4517893258489494
 20
497.4604863881685901
 30
0.0
 40
5.607939600699841
 50
26.9258859113436202
 51
153.0741200885383932
  0
ARC
  5
371
  8
0
  6
CONTINUOUS
 62
     1
 10
78.4517890599418024
 20
502.5394568490301026
 30
0.0
 40
5.607939600699841
 50
206.9258859113436131
 51
333.0741200885383932
  0
ARC
  5
372
  8
0
  6
CONTINUOUS
 62
     1
 10
78.4517890599418024
 20
497.4604863881685901
 30
0.0
 40
5.607939600699841
 50
26.9258799114615606
 51
153.0741140886563016
  0
LINE
  5
373
  8
0
  6
HIDDEN
 62
     3
 10
33.4517887394431526
 20
89.9999713946526754
 30
0.0
 11
33.4517887394431526
 21
-0.0000286053473246
 31
0.0
  0
ENDBLK
  5
374
  8
0
  0
BLOCK
  8
0
 62
     7
  2
A$C014B713B
 70
     0
 10
0.0
 20
0.0
 30
0.0
  3
A$C014B713B
  1

  0
ARC
  5
378
  8
0
  6
CONTINUOUS
 62
     3
 10
329.0
 20
-10.0
 30
0.0
 40
10.0
 50
0.0
 51
90.0
  0
ARC
  5
379
  8
0
  6
CONTINUOUS
 62
     3
 10
329.0
 20
-94.0
 30
0.0
 40
10.0
 50
270.0
 51
0.0
  0
ARC
  5
37A
  8
0
  6
CONTINUOUS
 62
     3
 10
-329.0
 20
-94.0
 30
0.0
 40
10.0
 50
180.0
 51
270.0
  0
ARC
  5
37B
  8
0
  6
CONTINUOUS
 62
     3
 10
-329.0
 20
-10.0
 30
0.0
 40
10.0
 50
90.0
 51
180.0
  0
CIRCLE
  5
37C
  8
0
  6
CONTINUOUS
 62
     3
 10
-331.0
 20
-52.0
 30
0.0
 40
6.0
  0
CIRCLE
  5
37D
  8
0
  6
CONTINUOUS
 62
     3
 10
331.0
 20
-52.0
 30
0.0
 40
2.5
  0
LINE
  5
37E
  8
0
  6
CONTINUOUS
 62
     3
 10
324.0000000000036948
 20
-10.0
 30
0.0
 11
324.0000000000036948
 21
-94.0
 31
0.0
  0
LINE
  5
37F
  8
0
  6
CONTINUOUS
 62
     3
 10
-324.0
 20
-10.0
 30
0.0
 11
-324.0
 21
-94.0
 31
0.0
  0
LINE
  5
380
  8
0
  6
CONTINUOUS
 62
     3
 10
-329.0
 20
0.0
 30
0.0
 11
329.0
 21
0.0
 31
0.0
  0
LINE
  5
381
  8
0
  6
CONTINUOUS
 62
     3
 10
339.0
 20
-10.0
 30
0.0
 11
339.0
 21
-94.0
 31
0.0
  0
LINE
  5
382
  8
0
  6
CONTINUOUS
 62
     3
 10
-329.0
 20
-104.0
 30
0.0
 11
329.0
 21
-104.0
 31
0.0
  0
LINE
  5
383
  8
0
  6
CONTINUOUS
 62
     3
 10
-339.0
 20
-10.0
 30
0.0
 11
-339.0
 21
-94.0
 31
0.0
  0
ENDBLK
  5
384
  8
0
 62
     7
  0
BLOCK
  8
0
  2
A$C615207BD
 70
     0
 10
0.0
 20
0.0
 30
0.0
  3
A$C615207BD
  1

  0
ARC
  5
389
  8
0
  6
CONTINUOUS
 62
     3
 10
599.9999142697197385
 20
52.0000602628206181
 30
0.0
 40
600.0
 50
175.0281284318583914
 51
184.9718715681416086
  0
LINE
  5
38A
  8
0
  6
CONTINUOUS
 62
     3
 10
4.2574948280343961
 20
104.0000602628205968
 30
0.0
 11
4.2574948280343961
 21
0.0000602628169872
 31
0.0
  0
LINE
  5
38B
  8
0
  6
CONTINUOUS
 62
     3
 10
2.2574948280343961
 20
104.0000602628170014
 30
0.0
 11
4.2574948280343961
 21
104.0000602628205968
 31
0.0
  0
LINE
  5
38C
  8
0
  6
CONTINUOUS
 62
     3
 10
2.2574948280343961
 20
104.0000602628170014
 30
0.0
 11
2.2574948280343961
 21
0.0000602628169872
 31
0.0
  0
LINE
  5
38D
  8
0
  6
CONTINUOUS
 62
     3
 10
2.2574948280343961
 20
0.0000602628169872
 30
0.0
 11
4.2574948280343961
 21
0.0000602628169872
 31
0.0
  0
ENDBLK
  5
38E
  8
0
  0
BLOCK
  8
0
 62
     6
  2
A$C4CD329FB
 70
     0
 10
0.0
 20
0.0
 30
0.0
  3
A$C4CD329FB
  1

  0
ARC
  5
393
  8
0
  6
CONTINUOUS
 62
     3
 10
-193.1291950000012889
 20
945.7409829999996873
 30
0.0
 40
4.0
 50
293.0283430002054956
 51
357.945854999968617
  0
ARC
  5
394
  8
0
  6
CONTINUOUS
 62
     3
 10
-184.134979000002204
 20
945.4183869999977787
 30
0.0
 40
5.0
 50
124.3243519999374058
 51
177.9458549999685033
  0
LINE
  5
395
  8
0
  6
CONTINUOUS
 62
     3
 10
-180.00000900000299
 20
950.8640559999985271
 30
0.0
 11
-186.9543640000046878
 21
949.5476809999963734
 31
0.0
  0
LINE
  5
396
  8
0
  6
CONTINUOUS
 62
     3
 10
-640.0000020000006771
 20
-0.0000010244912119
 30
0.0
 11
0.0
 21
0.0
 31
0.0
  0
LINE
  5
397
  8
0
  6
CONTINUOUS
 62
     3
 10
-640.614571000005526
 20
351.9999989999996046
 30
0.0
 11
-627.7403700000068056
 21
351.9999989999996046
 31
0.0
  0
LINE
  5
398
  8
0
  6
CONTINUOUS
 62
     3
 10
-640.0000250000011874
 20
347.9999989999996046
 30
0.0
 11
-640.0000000580330379
 21
-0.0000010244912119
 31
0.0
  0
LINE
  5
399
  8
0
  6
CONTINUOUS
 62
     3
 10
-640.0000250000011874
 20
347.9999989999996046
 30
0.0
 11
-627.7000030000053812
 21
347.9999989999996046
 31
0.0
  0
LINE
  5
39A
  8
0
  6
CONTINUOUS
 62
     3
 10
-627.7000030000053812
 20
347.9999989999996046
 30
0.0
 11
-627.7000030000125435
 21
-0.0000010048024706
 31
0.0
  0
LINE
  5
39B
  8
0
  6
CONTINUOUS
 62
     3
 10
-771.1960450000042329
 20
774.4519419999995762
 30
0.0
 11
-758.3218370000031427
 21
774.4519159999980502
 31
0.0
  0
LINE
  5
39C
  8
0
  6
CONTINUOUS
 62
     3
 10
-758.3218370000031427
 20
774.4519159999980502
 30
0.0
 11
-627.7403700000068056
 21
351.9999989999996046
 31
0.0
  0
LINE
  5
39D
  8
0
  6
CONTINUOUS
 62
     3
 10
-180.0003160000051139
 20
931.7300969999995459
 30
0.0
 11
-743.1108050000037792
 21
825.1509000000005472
 31
0.0
  0
LINE
  5
39E
  8
0
  6
CONTINUOUS
 62
     3
 10
-743.1108040000035544
 20
825.1508990000000949
 30
0.0
 11
-752.5454370000005611
 21
778.4517889999988256
 31
0.0
  0
LINE
  5
39F
  8
0
  6
CONTINUOUS
 62
     3
 10
-189.1414127808166086
 20
929.9999733854856458
 30
0.0
 11
0.0
 21
929.999994999998421
 31
0.0
  0
LINE
  5
3A0
  8
0
  6
CONTINUOUS
 62
     3
 10
0.0
 20
0.0
 30
0.0
 11
0.0
 21
930.9999949999983073
 31
0.0
  0
ARC
  5
3A1
  8
0
  6
CONTINUOUS
 62
     3
 10
-720.8758040000028586
 20
839.9451379999991332
 30
0.0
 40
4.0
 50
39.0577559999466217
 51
76.6445919998810439
  0
LINE
  5
3A2
  8
0
  6
CONTINUOUS
 62
     3
 10
-827.6900929553739843
 20
869.72955864677715
 30
0.0
 11
-719.9518410000018775
 21
843.8369839999976421
 31
0.0
  0
LINE
  5
3A3
  8
0
  6
CONTINUOUS
 62
     3
 10
-837.0000014720935724
 20
778.4519634416318468
 30
0.0
 11
-752.5454780000000028
 21
778.4519220000000814
 31
0.0
  0
LINE
  5
3A4
  8
0
  6
CONTINUOUS
 62
     3
 10
-771.1960450000042329
 20
774.4519419999995762
 30
0.0
 11
-640.614571000005526
 21
351.9999989999996046
 31
0.0
  0
LINE
  5
3A5
  8
0
  6
CONTINUOUS
 62
     3
 10
-0.0003280000019004
 20
930.9999949999983073
 30
0.0
 11
-0.0003160000051139
 21
2029.9999049999969429
 31
0.0
  0
LINE
  5
3A6
  8
0
  6
CONTINUOUS
 62
     3
 10
-180.0003240000004894
 20
2029.9999069999980748
 30
0.0
 11
-0.0003160000051139
 21
2029.9999049999969429
 31
0.0
  0
LINE
  5
3A7
  8
0
  6
CONTINUOUS
 62
     3
 10
-180.0003240000004894
 20
2029.9999069999980748
 30
0.0
 11
-180.0003040000009946
 21
929.9999739999983603
 31
0.0
  0
LINE
  5
3A8
  8
0
  6
CONTINUOUS
 62
     3
 10
-180.0003160000051139
 20
944.2484679999979562
 30
0.0
 11
-717.769759000002523
 21
842.4655379999967408
 31
0.0
  0
LINE
  5
3A9
  8
0
  6
CONTINUOUS
 62
     3
 10
-840.000000000007276
 20
781.4519634416283225
 30
0.0
 11
-840.0
 21
859.9999990758004742
 31
0.0
  0
ARC
  5
3AA
  8
0
  6
CONTINUOUS
 62
     3
 10
-837.0000000000071623
 20
781.4519634416283225
 30
0.0
 40
3.0
 50
180.0
 51
269.9999718850838235
  0
ARC
  5
3AB
  8
0
  6
CONTINUOUS
 62
     3
 10
-830.0
 20
859.9999990758004742
 30
0.0
 40
10.0
 50
76.6445943329243136
 51
180.0
  0
ARC
  5
3AC
  8
0
  6
HIDDEN
 62
     4
 10
-211.0842794331038021
 20
899.815452951239422
 30
0.0
 40
10.0
 50
100.7199999997717015
 51
175.7199999998175883
  0
LINE
  5
3AD
  8
0
  6
HIDDEN
 62
     4
 10
-360.4254564331059214
 20
454.7195486544515006
 30
0.0
 11
-352.0549784331087722
 21
456.5033196544536054
 31
0.0
  0
ARC
  5
3AE
  8
0
  6
HIDDEN
 62
     4
 10
-360.0086114331061253
 20
452.763470654455773
 30
0.0
 40
2.0
 50
102.0299319999387961
 51
180.7199999998518081
  0
ARC
  5
3AF
  8
0
  6
HIDDEN
 62
     4
 10
-479.9991364331071964
 20
451.2555456544504864
 30
0.0
 40
2.0
 50
0.7200000000602885
 51
79.4100680001110391
  0
ARC
  5
3B0
  8
0
  6
HIDDEN
 62
     4
 10
-465.9077514331074212
 20
444.0716596544517074
 30
0.0
 40
2.0
 50
0.7200000000602885
 51
90.7200000000602955
  0
ARC
  5
3B1
  8
0
  6
HIDDEN
 62
     4
 10
-373.9150154331073281
 20
445.2277346544506145
 30
0.0
 40
2.0
 50
90.7200000000602955
 51
180.7199999998518081
  0
ARC
  5
3B2
  8
0
  6
HIDDEN
 62
     4
 10
-474.9698704331094063
 20
448.958169654455503
 30
0.0
 40
3.0
 50
180.7199999998518081
 51
270.7200000000602813
  0
LINE
  5
3B3
  8
0
  6
HIDDEN
 62
     4
 10
-474.9321724331093151
 20
445.9584066544557004
 30
0.0
 11
-364.9408574331101249
 21
447.340671654455889
 31
0.0
  0
ARC
  5
3B4
  8
0
  6
HIDDEN
 62
     4
 10
-364.9785554331101025
 20
450.3404346544556915
 30
0.0
 40
3.0
 50
270.7200000000602813
 51
0.7200000000602885
  0
LINE
  5
3B5
  8
0
  6
HIDDEN
 62
     4
 10
-361.9787924331030808
 20
450.3781326544557828
 30
0.0
 11
-362.0084534331107875
 21
452.7383386544534005
 31
0.0
  0
LINE
  5
3B6
  8
0
  6
HIDDEN
 62
     4
 10
-479.6315794331093798
 20
453.2214806544507155
 30
0.0
 11
-488.0442404331114972
 21
454.7943376544499188
 31
0.0
  0
LINE
  5
3B7
  8
0
  6
HIDDEN
 62
     4
 10
-477.9992944331096965
 20
451.2806776544529725
 30
0.0
 11
-477.9696334331092089
 21
448.9204716544555254
 31
0.0
  0
LINE
  5
3B8
  8
0
  6
HIDDEN
 62
     4
 10
-478.0198974331069053
 20
452.9201556544502978
 30
0.0
 11
-478.0076504331080969
 21
451.945620654456377
 31
0.0
  0
LINE
  5
3B9
  8
0
  6
HIDDEN
 62
     4
 10
-478.0198974331069053
 20
452.9201556544502978
 30
0.0
 11
-478.9298754331102259
 21
453.0902886544499779
 31
0.0
  0
LINE
  5
3BA
  8
0
  6
HIDDEN
 62
     4
 10
-463.7191534331067828
 20
429.0769096544535159
 30
0.0
 11
-463.9079084331096965
 21
444.0967916544540799
 31
0.0
  0
LINE
  5
3BB
  8
0
  6
HIDDEN
 62
     4
 10
-375.7261014331087949
 20
430.1827216544551789
 30
0.0
 11
-375.914857433104828
 21
445.2026026544554043
 31
0.0
  0
LINE
  5
3BC
  8
0
  6
HIDDEN
 62
     4
 10
-250.2095714331080956
 20
521.5382596544513945
 30
0.0
 11
-221.0563914330996056
 21
900.5617599512405604
 31
0.0
  0
ARC
  5
3BD
  8
0
  6
HIDDEN
 62
     4
 10
-330.9836824331068783
 20
527.5833406544552417
 30
0.0
 40
81.0
 50
272.7200000001868148
 51
355.7199999998176168
  0
LINE
  5
3BE
  8
0
  6
HIDDEN
 62
     4
 10
-349.2670354331057752
 20
445.6233636544566252
 30
0.0
 11
-327.1398174331116024
 21
446.6745976544552832
 31
0.0
  0
ARC
  5
3BF
  8
0
  6
HIDDEN
 62
     4
 10
-330.9836824331068783
 20
527.5833406544552417
 30
0.0
 40
70.0
 50
272.7200000001868148
 51
355.7199999998176168
  0
LINE
  5
3C0
  8
0
  6
HIDDEN
 62
     4
 10
-358.7274444331123959
 20
430.3963436544509022
 30
0.0
 11
-358.791694433108205
 21
435.5089696544528124
 31
0.0
  0
ARC
  5
3C1
  8
0
  6
HIDDEN
 62
     4
 10
-348.7924844331064946
 20
435.6346296544506913
 30
0.0
 40
10.0
 50
92.7200000001867579
 51
180.7199999998518081
  0
ARC
  5
3C2
  8
0
  6
HIDDEN
 62
     4
 10
-490.7812724331088248
 20
433.8502526544543798
 30
0.0
 40
10.0
 50
0.7200000000602885
 51
88.7200000002212334
  0
LINE
  5
3C3
  8
0
  6
HIDDEN
 62
     4
 10
-490.557888433104381
 20
443.847756654453292
 30
0.0
 11
-527.6675114331083023
 21
444.6769316544522894
 31
0.0
  0
LINE
  5
3C4
  8
0
  6
HIDDEN
 62
     4
 10
-358.7274444331123959
 20
430.3963436544509022
 30
0.0
 11
-480.7178114331035772
 21
428.8632866544502917
 31
0.0
  0
LINE
  5
3C5
  8
0
  6
HIDDEN
 62
     4
 10
-480.7178114331035772
 20
428.8632866544502917
 30
0.0
 11
-480.7820614331067191
 21
433.9759126544522019
 31
0.0
  0
ARC
  5
3C6
  8
0
  6
HIDDEN
 62
     4
 10
-525.8581084331090096
 20
525.6567196544565377
 30
0.0
 40
70.0
 50
200.7199999998518081
 51
268.7200000002213187
  0
ARC
  5
3C7
  8
0
  6
HIDDEN
 62
     4
 10
-525.8581084331090096
 20
525.6567196544565377
 30
0.0
 40
81.0
 50
200.7199999998518081
 51
268.7200030000141737
  0
LINE
  5
3C8
  8
0
  6
HIDDEN
 62
     4
 10
-719.521725058213633
 20
829.2609387060219888
 30
0.0
 11
-591.0702780000136727
 21
500.2025627616822021
 31
0.0
  0
LINE
  5
3C9
  8
0
  6
HIDDEN
 62
     4
 10
-488.0442404331114972
 20
454.7943376544499188
 30
0.0
 11
-527.4217934331098832
 21
455.6741876544547267
 31
0.0
  0
LINE
  5
3CA
  8
0
  6
HIDDEN
 62
     4
 10
-352.0549784331087722
 20
456.5033196544536054
 30
0.0
 11
-327.6618234331107828
 21
457.6622046544507043
 31
0.0
  0
ARC
  5
3CB
  8
0
  6
HIDDEN
 62
     4
 10
-730.1623164331031148
 20
798.0354069512395654
 30
0.0
 40
10.0
 50
20.7199999998517903
 51
90.7200000000602955
  0
LINE
  5
3CC
  8
0
  6
HIDDEN
 62
     4
 10
-730.2879774331013323
 20
808.0346179512415574
 30
0.0
 11
-746.6102515856617856
 21
807.8294952165450695
 31
0.0
  0
LINE
  5
3CD
  8
0
  6
HIDDEN
 62
     4
 10
-601.6190764331113314
 20
496.9988106544550988
 30
0.0
 11
-720.809111433096291
 21
801.5734209512411326
 31
0.0
  0
LINE
  5
3CE
  8
0
  6
HIDDEN
 62
     4
 10
-183.5092734331047097
 20
915.2133949512425488
 30
0.0
 11
-186.2994174331032866
 21
929.9516139512415975
 31
0.0
  0
LINE
  5
3CF
  8
0
  6
HIDDEN
 62
     4
 10
-212.9443754331005039
 20
909.6409319512384855
 30
0.0
 11
-183.5092734331047097
 21
915.2133949512425488
 31
0.0
  0
LINE
  5
3D0
  8
0
  6
HIDDEN
 62
     4
 10
-230.4386974330990938
 20
922.5882989512391532
 30
0.0
 11
-261.178895433105879
 21
522.3591966544554452
 31
0.0
  0
ARC
  5
3D1
  8
0
  6
HIDDEN
 62
     4
 10
-215.4419871809732001
 20
922.274162652982227
 30
0.0
 40
15.0
 50
100.717522000359196
 51
178.7999999999765919
  0
LINE
  5
3D2
  8
0
  6
CENTER2
 62
     4
 10
-419.730813933099796
 20
913.3219027999292621
 30
0.0
 11
-419.730813933107072
 21
256.3379599932376891
 31
0.0
  0
LINE
  5
3D3
  8
0
  6
HIDDEN
 62
     4
 10
-477.6970147198226186
 20
428.9012491072352873
 30
0.0
 11
-451.338479933110591
 21
297.1087001544510144
 31
0.0
  0
LINE
  5
3D4
  8
0
  6
HIDDEN
 62
     4
 10
-362.0023623794986065
 20
430.3551876516867196
 30
0.0
 11
-388.1460979331095018
 21
297.144100154451678
 31
0.0
  0
LINE
  5
3D5
  8
0
  6
HIDDEN
 62
     4
 10
-441.5328159331111237
 20
289.0698811544497744
 30
0.0
 11
-397.9590859331074171
 21
289.0698811544497744
 31
0.0
  0
LINE
  5
3D6
  8
0
  6
HIDDEN
 62
     4
 10
-444.730813933107072
 20
279.0698811544497744
 30
0.0
 11
-394.730813933107072
 21
279.0698811544497744
 31
0.0
  0
LINE
  5
3D7
  8
0
  6
HIDDEN
 62
     4
 10
-444.730813933107072
 20
289.0698811544497744
 30
0.0
 11
-444.730813933107072
 21
279.0698811544497744
 31
0.0
  0
ARC
  5
3D8
  8
0
  6
HIDDEN
 62
     4
 10
-441.5328159331111237
 20
299.0698811544497744
 30
0.0
 40
10.0
 50
191.3099379997863139
 51
270.0000009996822996
  0
LINE
  5
3D9
  8
0
  6
HIDDEN
 62
     4
 10
-394.730813933107072
 20
289.0698811544497744
 30
0.0
 11
-394.730813933107072
 21
279.0698811544497744
 31
0.0
  0
ARC
  5
3DA
  8
0
  6
HIDDEN
 62
     4
 10
-397.9590859331074171
 20
299.0698811544497744
 30
0.0
 40
10.0
 50
270.0000009996822996
 51
348.8963630001310889
  0
ENDBLK
  5
3DB
  8
0
 62
     6
  0
BLOCK
  8
0
 62
     7
  2
A$C0FEC19CC
 70
     0
 10
0.0
 20
0.0
 30
0.0
  3
A$C0FEC19CC
  1

  0
LINE
  5
40D
  8
0
  6
CONTINUOUS
 62
     3
 10
-0.0000040485815589
 20
8.9999951167483232
 30
0.0
 11
-0.0000040485815589
 21
10.9999951167483196
 31
0.0
  0
LINE
  5
40E
  8
0
  6
CONTINUOUS
 62
     3
 10
-0.0000040485815589
 20
8.9999951167483232
 30
0.0
 11
677.9999959514175316
 21
8.9999951167483232
 31
0.0
  0
LINE
  5
40F
  8
0
  6
CONTINUOUS
 62
     3
 10
14.9999959514184393
 20
6.7419951167503314
 30
0.0
 11
14.9999959514184393
 21
8.9999951167483232
 31
0.0
  0
LINE
  5
410
  8
0
  6
CONTINUOUS
 62
     3
 10
14.9999959514184393
 20
6.7419951167503314
 30
0.0
 11
662.9999959514175316
 21
6.7419951167503314
 31
0.0
  0
LINE
  5
411
  8
0
  6
CONTINUOUS
 62
     3
 10
662.9999959514175316
 20
6.7419951167503314
 30
0.0
 11
662.9999959514175316
 21
8.9999951167483232
 31
0.0
  0
LINE
  5
412
  8
0
  6
CONTINUOUS
 62
     4
 10
2.7499959519586801
 20
7.4999951167192194
 30
0.0
 11
13.2499959519586792
 21
7.4999951167192194
 31
0.0
  0
LINE
  5
413
  8
0
  6
CONTINUOUS
 62
     4
 10
13.2499959519586792
 20
7.4999951167192194
 30
0.0
 11
13.2499959519586792
 21
8.9999951167192194
 31
0.0
  0
LINE
  5
414
  8
0
  6
CONTINUOUS
 62
     4
 10
2.7499959519586801
 20
7.4999951167192194
 30
0.0
 11
2.7499959519568611
 21
8.9999951167192194
 31
0.0
  0
LINE
  5
415
  8
0
  6
CONTINUOUS
 62
     4
 10
1.9999959519586801
 20
6.4999951167192194
 30
0.0
 11
13.9999959519568602
 21
6.4999951167192194
 31
0.0
  0
LINE
  5
416
  8
0
  6
CONTINUOUS
 62
     4
 10
13.9999959519586792
 20
0.9999951167192193
 30
0.0
 11
13.9999959519568602
 21
6.4999951167192194
 31
0.0
  0
LINE
  5
417
  8
0
  6
CONTINUOUS
 62
     4
 10
1.9999959519604991
 20
0.9999951167192193
 30
0.0
 11
1.9999959519586801
 21
6.4999951167192194
 31
0.0
  0
LINE
  5
418
  8
0
  6
CONTINUOUS
 62
     4
 10
1.9999959519604991
 20
0.9999951167192193
 30
0.0
 11
13.9999959519586792
 21
0.9999951167192193
 31
0.0
  0
LINE
  5
419
  8
0
  6
CONTINUOUS
 62
     4
 10
12.1999959519557706
 20
0.9999951167192193
 30
0.0
 11
12.1999959519612293
 21
6.4999951167192194
 31
0.0
  0
LINE
  5
41A
  8
0
  6
CONTINUOUS
 62
     4
 10
10.3999959519610403
 20
0.9999951167192193
 30
0.0
 11
10.3999959519610403
 21
6.4999951167192194
 31
0.0
  0
LINE
  5
41B
  8
0
  6
CONTINUOUS
 62
     4
 10
8.5999959519572258
 20
0.9999951167192193
 30
0.0
 11
8.5999959519608637
 21
6.4999951167192194
 31
0.0
  0
LINE
  5
41C
  8
0
  6
CONTINUOUS
 62
     4
 10
6.7999959519634103
 20
0.9999951167192193
 30
0.0
 11
6.7999959519615913
 21
6.4999951167192194
 31
0.0
  0
LINE
  5
41D
  8
0
  6
CONTINUOUS
 62
     4
 10
4.9999959519568611
 20
0.9999951167192193
 30
0.0
 11
4.9999959519604991
 21
6.4999951167192194
 31
0.0
  0
LINE
  5
41E
  8
0
  6
CONTINUOUS
 62
     4
 10
3.199995951962137
 20
0.9999951167192193
 30
0.0
 11
3.1999959519612271
 21
6.4999951167155814
 31
0.0
  0
LINE
  5
41F
  8
0
  6
CONTINUOUS
 62
     4
 10
664.7499959520714583
 20
7.4999951167519612
 30
0.0
 11
675.2499959520713446
 21
7.4999951167519612
 31
0.0
  0
LINE
  5
420
  8
0
  6
CONTINUOUS
 62
     4
 10
675.2499959520713446
 20
7.4999951167519612
 30
0.0
 11
675.2499959520713446
 21
8.9999951167519612
 31
0.0
  0
LINE
  5
421
  8
0
  6
CONTINUOUS
 62
     4
 10
664.7499959520714583
 20
7.4999951167519612
 30
0.0
 11
664.7499959520696393
 21
8.9999951167519612
 31
0.0
  0
LINE
  5
422
  8
0
  6
CONTINUOUS
 62
     4
 10
663.9999959520713446
 20
6.4999951167519612
 30
0.0
 11
675.9999959520696393
 21
6.4999951167519612
 31
0.0
  0
LINE
  5
423
  8
0
  6
CONTINUOUS
 62
     4
 10
675.9999959520713446
 20
0.9999951167519611
 30
0.0
 11
675.9999959520696393
 21
6.4999951167519612
 31
0.0
  0
LINE
  5
424
  8
0
  6
CONTINUOUS
 62
     4
 10
663.9999959520713446
 20
0.9999951167519611
 30
0.0
 11
663.9999959520713446
 21
6.4999951167519612
 31
0.0
  0
LINE
  5
425
  8
0
  6
CONTINUOUS
 62
     4
 10
663.9999959520713446
 20
0.9999951167519611
 30
0.0
 11
675.9999959520696393
 21
0.9999951167519611
 31
0.0
  0
LINE
  5
426
  8
0
  6
CONTINUOUS
 62
     4
 10
674.1999959520685479
 20
0.9999951167519611
 30
0.0
 11
674.1999959520740049
 21
6.4999951167519612
 31
0.0
  0
LINE
  5
427
  8
0
  6
CONTINUOUS
 62
     4
 10
672.3999959520747325
 20
0.9999951167519611
 30
0.0
 11
672.3999959520718903
 21
6.4999951167519612
 31
0.0
  0
LINE
  5
428
  8
0
  6
CONTINUOUS
 62
     4
 10
670.5999959520689799
 20
0.9999951167519611
 30
0.0
 11
670.5999959520736411
 21
6.4999951167519612
 31
0.0
  0
LINE
  5
429
  8
0
  6
CONTINUOUS
 62
     4
 10
668.7999959520769835
 20
0.9999951167519611
 30
0.0
 11
668.7999959520725497
 21
6.4999951167519612
 31
0.0
  0
LINE
  5
42A
  8
0
  6
CONTINUOUS
 62
     4
 10
666.9999959520696393
 20
0.9999951167519611
 30
0.0
 11
666.9999959520731636
 21
6.4999951167519612
 31
0.0
  0
LINE
  5
42B
  8
0
  6
CONTINUOUS
 62
     4
 10
665.1999959520757102
 20
0.9999951167519611
 30
0.0
 11
665.1999959520740049
 21
6.4999951167519612
 31
0.0
  0
LINE
  5
42C
  8
0
  6
CONTINUOUS
 62
     3
 10
677.9999959514175316
 20
8.9999951166828396
 30
0.0
 11
677.9999959514175316
 21
10.9999951167483196
 31
0.0
  0
ARC
  5
42D
  8
0
  6
CONTINUOUS
 62
     4
 10
7.9999959519586801
 20
18.4999951167301298
 30
0.0
 40
18.500000000012701
 50
251.0753555839849867
 51
288.9246444160149849
  0
ARC
  5
42E
  8
0
  6
CONTINUOUS
 62
     4
 10
3.249995951971413
 20
6.9999951167192194
 30
0.0
 40
0.5
 50
270.0
 51
90.0
  0
ARC
  5
42F
  8
0
  6
CONTINUOUS
 62
     4
 10
12.7499959519714103
 20
6.9999951167192194
 30
0.0
 40
0.5000000000003411
 50
90.0
 51
270.0
  0
ARC
  5
430
  8
0
  6
CONTINUOUS
 62
     4
 10
669.9999959520713446
 20
18.4999951167665095
 30
0.0
 40
18.500000000012701
 50
251.0753555839849867
 51
288.9246444160149849
  0
ARC
  5
431
  8
0
  6
CONTINUOUS
 62
     4
 10
665.2499959520841912
 20
6.9999951167519612
 30
0.0
 40
0.5
 50
270.0
 51
90.0
  0
ARC
  5
432
  8
0
  6
CONTINUOUS
 62
     4
 10
674.7499959520840775
 20
6.9999951167519612
 30
0.0
 40
0.5000000000003411
 50
90.0
 51
270.0
  0
LINE
  5
433
  8
0
  6
CONTINUOUS
 62
     3
 10
-0.0000040485815589
 20
10.9999951167483196
 30
0.0
 11
677.9999959514175316
 21
10.9999951167483196
 31
0.0
  0
ENDBLK
  5
434
  8
0
 62
     7
  0
BLOCK
  8
0
 62
     7
  2
A$C187A0370
 70
     0
 10
0.0
 20
0.0
 30
0.0
  3
A$C187A0370
  1

  0
LINE
  5
439
  8
0
  6
CONTINUOUS
 62
     3
 10
160.5040301612802978
 20
-114.221296802996207
 30
0.0
 11
187.5040301612839926
 21
-114.2212968029889026
 31
0.0
  0
LINE
  5
43A
  8
0
  6
CENTER2
 62
     4
 10
214.7612982755971132
 20
-149.2212968029998024
 30
0.0
 11
133.2467620470004874
 21
-149.2212968029998024
 31
0.0
  0
LINE
  5
43B
  8
0
  6
CONTINUOUS
 62
     3
 10
187.5040301612839926
 20
-114.2212968029889026
 30
0.0
 11
187.504030161282202
 21
-173.0959695756318979
 31
0.0
  0
LINE
  5
43C
  8
0
  6
CONTINUOUS
 62
     3
 10
160.5040301612785072
 20
-173.0959695756318979
 30
0.0
 11
160.5040301612802978
 21
-114.221296802996207
 31
0.0
  0
LINE
  5
43D
  8
0
  6
CONTINUOUS
 62
     3
 10
162.5040301612802978
 20
-122.2212968029998024
 30
0.0
 11
185.5040301612839926
 21
-122.221296802996207
 31
0.0
  0
LINE
  5
43E
  8
0
  6
CONTINUOUS
 62
     3
 10
151.5040301613003066
 20
69.7787031970801763
 30
0.0
 11
196.5040301613003066
 21
69.7787031970801763
 31
0.0
  0
LINE
  5
43F
  8
0
  6
CENTER2
 62
     4
 10
174.0040301612984877
 20
-194.1236045803271111
 30
0.0
 11
174.0040301613003066
 21
85.7787031970019456
 31
0.0
  0
LINE
  5
440
  8
0
  6
CONTINUOUS
 62
     3
 10
156.0040301612912117
 20
69.7787031969492091
 30
0.0
 11
156.0040301612912117
 21
52.7787031969492091
 31
0.0
  0
LINE
  5
441
  8
0
  6
CONTINUOUS
 62
     3
 10
156.0040301612912117
 20
52.7787031969492091
 30
0.0
 11
157.0040301613003066
 21
51.7787031969492091
 31
0.0
  0
LINE
  5
442
  8
0
  6
CONTINUOUS
 62
     3
 10
192.0040301612912117
 20
69.7787031969492091
 30
0.0
 11
192.0040301612912117
 21
52.7787031969492091
 31
0.0
  0
LINE
  5
443
  8
0
  6
CONTINUOUS
 62
     3
 10
192.0040301612912117
 20
52.7787031969492091
 30
0.0
 11
191.0040301612820883
 21
51.7787031969492091
 31
0.0
  0
LINE
  5
444
  8
0
  6
CONTINUOUS
 62
     3
 10
157.0040301613003066
 20
51.7787031969492091
 30
0.0
 11
191.0040301612820883
 21
51.7787031969492091
 31
0.0
  0
LINE
  5
445
  8
0
  6
CONTINUOUS
 62
     3
 10
160.2541676612923141
 20
43.7788031969503209
 30
0.0
 11
187.7538926612928094
 21
43.7788031969503209
 31
0.0
  0
LINE
  5
446
  8
0
  6
CONTINUOUS
 62
     3
 10
187.7538926612928094
 20
43.7788031969503209
 30
0.0
 11
187.7538926612901093
 21
51.77870319695284
 31
0.0
  0
LINE
  5
447
  8
0
  6
CONTINUOUS
 62
     3
 10
160.2541676612885908
 20
51.7787031969273812
 30
0.0
 11
160.2541676612923141
 21
43.7788031969503209
 31
0.0
  0
LINE
  5
448
  8
0
  6
CONTINUOUS
 62
     3
 10
156.0040301612856979
 20
52.7787031969892269
 30
0.0
 11
192.0040301612912117
 21
52.7787031969892269
 31
0.0
  0
LINE
  5
449
  8
0
  6
CONTINUOUS
 62
     3
 10
186.5040301612758071
 20
-114.2212968029889026
 30
0.0
 11
186.504030161255713
 21
43.7788031968811922
 31
0.0
  0
LINE
  5
44A
  8
0
  6
CONTINUOUS
 62
     3
 10
161.5040301612758071
 20
-114.221296802996207
 30
0.0
 11
161.5040301612621079
 21
43.7788031970339873
 31
0.0
  0
LINE
  5
44B
  8
0
  6
CONTINUOUS
 62
     4
 10
312.00403016124028
 20
81.5207031970057869
 30
0.0
 11
312.00403016124028
 21
78.7787031970001408
 31
0.0
  0
LINE
  5
44C
  8
0
  6
CONTINUOUS
 62
     3
 10
202.4831605329104036
 20
78.7787031970001408
 30
0.0
 11
202.4831605328485864
 21
75.2787031970547105
 31
0.0
  0
LINE
  5
44D
  8
0
  6
CONTINUOUS
 62
     3
 10
145.5248997899684014
 20
78.7787031970001408
 30
0.0
 11
145.5248997897502079
 21
75.2787031970729004
 31
0.0
  0
LINE
  5
44E
  8
0
  6
CONTINUOUS
 62
     4
 10
9.0040301612430085
 20
78.7787031970001408
 30
0.0
 11
312.00403016124028
 21
78.7787031970001408
 31
0.0
  0
LINE
  5
44F
  8
0
  6
CONTINUOUS
 62
     4
 10
9.0040301612430085
 20
81.5207031970057869
 30
0.0
 11
9.0040301612430085
 21
78.7787031970001408
 31
0.0
  0
ARC
  5
450
  8
0
  6
CONTINUOUS
 62
     3
 10
174.0040301612802978
 20
-149.2212968029961928
 30
0.0
 40
28.5
 50
118.2737136312947968
 51
61.7262863685755008
  0
ARC
  5
451
  8
0
  6
CONTINUOUS
 62
     3
 10
174.0040301612802978
 20
-149.2212968029961928
 30
0.0
 40
20.0
 50
132.4541502043115031
 51
227.5458497956884969
  0
ARC
  5
452
  8
0
  6
CONTINUOUS
 62
     3
 10
174.0040301612802978
 20
-149.2212968029961928
 30
0.0
 40
23.0
 50
125.9413298913347035
 51
234.0586701086652113
  0
ARC
  5
453
  8
0
  6
CONTINUOUS
 62
     3
 10
174.0040301612802978
 20
-149.2212968029961928
 30
0.0
 40
20.0
 50
312.45415020445148
 51
47.5458497955484773
  0
ARC
  5
454
  8
0
  6
CONTINUOUS
 62
     3
 10
174.0040301612802978
 20
-149.2212968029961928
 30
0.0
 40
23.0
 50
305.9413298911917991
 51
54.0586701088081583
  0
ARC
  5
455
  8
0
  6
CONTINUOUS
 62
     3
 10
185.5040301612785072
 20
-173.0959695756318979
 30
0.0
 40
2.0
 50
295.7192795022119753
 51
0.0
  0
ARC
  5
456
  8
0
  6
CONTINUOUS
 62
     3
 10
162.5040301612785072
 20
-173.0959695756318979
 30
0.0
 40
2.0
 50
180.0
 51
244.2807204977879962
  0
ARC
  5
457
  8
0
  6
CONTINUOUS
 62
     3
 10
162.5040301612802978
 20
-124.2212968030034972
 30
0.0
 40
2.0
 50
90.0
 51
180.0
  0
ARC
  5
458
  8
0
  6
CONTINUOUS
 62
     3
 10
185.5040301612839926
 20
-124.221296802996207
 30
0.0
 40
2.0
 50
0.0
 51
90.0
  0
ARC
  5
459
  8
0
  6
CONTINUOUS
 62
     3
 10
196.5040301613003066
 20
75.7787031970801763
 30
0.0
 40
6.0
 50
270.0
 51
355.219808152556709
  0
ARC
  5
45A
  8
0
  6
CONTINUOUS
 62
     3
 10
151.5040301613003066
 20
75.7787031970801763
 30
0.0
 40
6.0
 50
184.7801918472339935
 51
270.0
  0
LINE
  5
45B
  8
0
  6
CONTINUOUS
 62
     4
 10
9.0040301612430085
 20
81.5207031970057869
 30
0.0
 11
312.00403016124028
 21
81.5207031970057869
 31
0.0
  0
ENDBLK
  5
45C
  8
0
 62
     7
  0
BLOCK
  8
0
 62
     7
  2
A$C35C419CB
 70
     0
 10
0.0
 20
0.0
 30
0.0
  3
A$C35C419CB
  1

  0
LINE
  5
461
  8
0
  6
CONTINUOUS
 62
     4
 10
77.0001157449987659
 20
823.9520739547295989
 30
0.0
 11
376.0001157450024039
 21
823.9520739547515404
 31
0.0
  0
LINE
  5
462
  8
0
  6
CONTINUOUS
 62
     4
 10
75.0001157449996754
 20
833.9520739547295989
 30
0.0
 11
378.000115745005985
 21
833.9520739547479025
 31
0.0
  0
LINE
  5
463
  8
0
  6
CONTINUOUS
 62
     4
 10
77.0001157449978564
 20
136.9520739547332937
 30
0.0
 11
376.0001157449923994
 21
136.9520739547405981
 31
0.0
  0
LINE
  5
464
  8
0
  6
CONTINUOUS
 62
     4
 10
75.0001157449978564
 20
126.9520739547332937
 30
0.0
 11
378.0001157449951279
 21
126.9520739547370027
 31
0.0
  0
LINE
  5
465
  8
0
  6
CONTINUOUS
 62
     4
 10
75.0001157450005849
 20
833.9520739547295989
 30
0.0
 11
75.0001157449960374
 21
126.9520739547370027
 31
0.0
  0
LINE
  5
466
  8
0
  6
CONTINUOUS
 62
     4
 10
378.0001157449923994
 20
126.9520739547405981
 30
0.0
 11
378.000115745005985
 21
833.9520739547479025
 31
0.0
  0
LINE
  5
467
  8
0
  6
CONTINUOUS
 62
     4
 10
440.5001157447732112
 20
727.9520739545476999
 30
0.0
 11
440.5001157447667879
 21
766.9520739546242112
 31
0.0
  0
LINE
  5
468
  8
0
  6
CONTINUOUS
 62
     4
 10
390.5001157448805884
 20
727.9520739544968819
 30
0.0
 11
390.5001157446658908
 21
766.9520739545441756
 31
0.0
  0
LINE
  5
469
  8
0
  6
CONTINUOUS
 62
     4
 10
393.5001157448822937
 20
724.9520739545478136
 30
0.0
 11
437.5001157447749733
 21
724.9520739545114338
 31
0.0
  0
LINE
  5
46A
  8
0
  6
CONTINUOUS
 62
     4
 10
393.5001157446586149
 20
769.9520739545150718
 30
0.0
 11
437.5001157447586024
 21
769.9520739546460391
 31
0.0
  0
LINE
  5
46B
  8
0
  6
CONTINUOUS
 62
     3
 10
0.0001157450069513
 20
972.9520769547852979
 30
0.0
 11
480.0001157450033134
 21
972.9520769547925738
 31
0.0
  0
LINE
  5
46C
  8
0
  6
CONTINUOUS
 62
     3
 10
0.0001157450069513
 20
62.9520769547852979
 30
0.0
 11
0.0001157450069513
 21
972.9520769547852979
 31
0.0
  0
LINE
  5
46D
  8
0
  6
CONTINUOUS
 62
     3
 10
0.0001157450069513
 20
62.9520769547852979
 30
0.0
 11
480.0001157450024039
 21
62.9520769547852979
 31
0.0
  0
LINE
  5
46E
  8
0
  6
CONTINUOUS
 62
     3
 10
480.0001157450024039
 20
62.9520769547852979
 30
0.0
 11
480.0001157450033134
 21
972.9520769547925738
 31
0.0
  0
CIRCLE
  5
46F
  8
0
  6
CONTINUOUS
 62
     4
 10
425.5001157447094897
 20
754.9520739546060213
 30
0.0
 40
3.0
  0
CIRCLE
  5
470
  8
0
  6
CONTINUOUS
 62
     4
 10
405.5001157447094897
 20
754.9520739546060213
 30
0.0
 40
3.0
  0
CIRCLE
  5
471
  8
0
  6
CONTINUOUS
 62
     4
 10
415.5001157447094897
 20
739.9520739546060213
 30
0.0
 40
3.0
  0
CIRCLE
  5
472
  8
0
  6
CONTINUOUS
 62
     4
 10
420.0001157450050755
 20
468.4520739547987773
 30
0.0
 40
17.5
  0
CIRCLE
  5
473
  8
0
  6
CONTINUOUS
 62
     4
 10
420.0001157450050755
 20
468.4520739547987773
 30
0.0
 40
29.0
  0
ARC
  5
474
  8
0
  6
CONTINUOUS
 62
     4
 10
77.0001157449987659
 20
825.9520739547295989
 30
0.0
 40
2.0
 50
180.0
 51
270.0000000000521254
  0
ARC
  5
475
  8
0
  6
CONTINUOUS
 62
     4
 10
376.0001157450033134
 20
825.9520739547479025
 30
0.0
 40
2.0
 50
269.9999999999478746
 51
0.0
  0
ARC
  5
476
  8
0
  6
CONTINUOUS
 62
     4
 10
376.0001157449942184
 20
134.9520739547405981
 30
0.0
 40
2.0
 50
0.0
 51
90.0000000000521254
  0
ARC
  5
477
  8
0
  6
CONTINUOUS
 62
     4
 10
77.0001157449960374
 20
134.9520739547332937
 30
0.0
 40
2.0
 50
89.9999999999478888
 51
180.0
  0
ARC
  5
478
  8
0
  6
CONTINUOUS
 62
     4
 10
437.5001157447667879
 20
766.9520739546204595
 30
0.0
 40
3.0
 50
0.0
 51
90.0000000001042082
  0
ARC
  5
479
  8
0
  6
CONTINUOUS
 62
     4
 10
437.5001157447732112
 20
727.9520739545476999
 30
0.0
 40
3.0
 50
270.0000000000521254
 51
0.0
  0
ARC
  5
47A
  8
0
  6
CONTINUOUS
 62
     4
 10
393.5001157448822937
 20
727.9520739545114338
 30
0.0
 40
3.0
 50
180.000000000208388
 51
270.0
  0
ARC
  5
47B
  8
0
  6
CONTINUOUS
 62
     4
 10
393.5001157446658908
 20
766.9520739545441756
 30
0.0
 40
3.0
 50
90.0000000001563336
 51
180.0
  0
ARC
  5
47C
  8
0
  6
CONTINUOUS
 62
     3
 10
240.0001157449987943
 20
342.7520769541588948
 30
0.0
 40
28.5
 50
335.124275852546873
 51
38.7129202391822105
  0
ARC
  5
47D
  8
0
  6
CONTINUOUS
 62
     3
 10
240.0001157449987943
 20
342.7520769541588948
 30
0.0
 40
28.5
 50
141.2870797608177895
 51
204.8757241474530986
  0
LINE
  5
47E
  8
0
  6
CONTINUOUS
 62
     3
 10
212.7501157449987943
 20
306.2520769541587811
 30
0.0
 11
267.2501157449988227
 21
306.2520769541587811
 31
0.0
1001
ACAD
1000
ASC_BOUNDS
1002
{
1070
    19
1002
}
  0
LINE
  5
47F
  8
0
  6
CONTINUOUS
 62
     4
 10
239.2600351228647924
 20
337.8447963222387784
 30
0.0
 11
242.9214036603152067
 21
341.4347752153407782
 31
0.0
  0
CIRCLE
  5
480
  8
0
  6
CONTINUOUS
 62
     4
 10
240.0001157449987943
 20
340.7520769541588948
 30
0.0
 40
3.0
  0
LINE
  5
481
  8
0
  6
CONTINUOUS
 62
     4
 10
237.0098628925188962
 20
340.5104411161083249
 30
0.0
 11
240.300577225574699
 21
343.7369928489025028
 31
0.0
  0
LINE
  5
482
  8
0
  6
CONTINUOUS
 62
     4
 10
237.024498254104401
 20
341.13378436552739
 30
0.0
 11
239.6770666558913945
 21
343.7346327853265961
 31
0.0
  0
LINE
  5
483
  8
0
  6
CONTINUOUS
 62
     4
 10
238.7998996525165865
 20
338.0026258577855174
 30
0.0
 11
242.7726639225730025
 21
341.8979288656336735
 31
0.0
  0
CIRCLE
  5
484
  8
0
  6
CONTINUOUS
 62
     4
 10
240.0001157449987943
 20
340.7520769541588948
 30
0.0
 40
5.0
  0
CIRCLE
  5
485
  8
0
  6
CONTINUOUS
 62
     4
 10
240.0001157449987943
 20
340.7520769541588948
 30
0.0
 40
6.0
  0
POINT
  5
486
  8
0
  6
CONTINUOUS
 62
     3
 10
213.0001157449987943
 20
319.2520769541587811
 30
0.0
  0
POINT
  5
487
  8
0
  6
CONTINUOUS
 62
     3
 10
267.0001157449988227
 20
319.2520769541587811
 30
0.0
  0
TEXT
  5
488
  8
0
 62
     1
 10
404.6551029325946729
 20
745.4903730563163435
 30
0.0
 40
4.0
  1
殺菌灯時間計
 41
0.9
  7
\U+FF7D\U+FF80\U+FF72\U+FF991
  0
TEXT
  5
489
  8
0
 62
     1
 10
402.5360851374553022
 20
729.9951688897380109
 30
0.0
 40
4.0
  1
時間計リセット
 41
0.9
  7
\U+FF7D\U+FF80\U+FF72\U+FF991
  0
LINE
  5
48A
  8
0
  6
CONTINUOUS
 62
     3
 10
226.500115744998709
 20
391.7520769541587811
 30
0.0
 11
226.500115744998709
 21
332.7520769541587811
 31
0.0
1001
ACAD
1000
ASC_BOUNDS
1002
{
1070
    19
1002
}
  0
LINE
  5
48B
  8
0
  6
CONTINUOUS
 62
     3
 10
226.500115744998709
 20
332.7520769541587811
 30
0.0
 11
253.500115744998709
 21
332.7520769541587811
 31
0.0
1001
ACAD
1000
ASC_BOUNDS
1002
{
1070
    19
1002
}
  0
LINE
  5
48C
  8
0
  6
CONTINUOUS
 62
     3
 10
253.500115744998709
 20
332.7520769541587811
 30
0.0
 11
253.500115744998709
 21
391.7520769541587811
 31
0.0
1001
ACAD
1000
ASC_BOUNDS
1002
{
1070
    19
1002
}
  0
LINE
  5
48D
  8
0
  6
CONTINUOUS
 62
     3
 10
213.0001157449987943
 20
320.7520769541587811
 30
0.0
 11
217.0001157449987943
 21
355.7520769541587811
 31
0.0
1001
ACAD
1000
ASC_BOUNDS
1002
{
1070
    19
1002
}
  0
LINE
  5
48E
  8
0
  6
CONTINUOUS
 62
     3
 10
263.0001157449988227
 20
355.7520769541587811
 30
0.0
 11
267.0001157449988227
 21
320.7520769541587811
 31
0.0
1001
ACAD
1000
ASC_BOUNDS
1002
{
1070
    19
1002
}
  0
LINE
  5
48F
  8
0
  6
CONTINUOUS
 62
     3
 10
213.0001157449987943
 20
320.7520769541587811
 30
0.0
 11
213.0001157449987943
 21
317.7520769541588948
 31
0.0
  0
LINE
  5
490
  8
0
  6
CONTINUOUS
 62
     3
 10
213.0001157449987943
 20
317.7520769541588948
 30
0.0
 11
267.0001157449988227
 21
317.7520769541588948
 31
0.0
  0
LINE
  5
491
  8
0
  6
CONTINUOUS
 62
     3
 10
267.0001157449988227
 20
317.7520769541588948
 30
0.0
 11
267.0001157449988227
 21
320.7520769541587811
 31
0.0
  0
LINE
  5
492
  8
0
  6
CONTINUOUS
 62
     3
 10
267.0001157449988227
 20
320.7520769541587811
 30
0.0
 11
213.0001157449987943
 21
320.7520769541587811
 31
0.0
  0
LINE
  5
493
  8
0
  6
CONTINUOUS
 62
     3
 10
213.5001157449987943
 20
314.7520769541587811
 30
0.0
 11
213.5001157449987943
 21
316.7520769541587811
 31
0.0
  0
LINE
  5
494
  8
0
  6
CONTINUOUS
 62
     3
 10
213.5001157449987943
 20
316.7520769541587811
 30
0.0
 11
266.5001157449988227
 21
316.7520769541587811
 31
0.0
  0
LINE
  5
495
  8
0
  6
CONTINUOUS
 62
     3
 10
266.5001157449988227
 20
316.7520769541587811
 30
0.0
 11
266.5001157449988227
 21
314.7520769541587811
 31
0.0
  0
LINE
  5
496
  8
0
  6
CONTINUOUS
 62
     3
 10
214.5001157449987943
 20
316.7520769541587811
 30
0.0
 11
214.5001157449987943
 21
317.7520769541588948
 31
0.0
  0
LINE
  5
497
  8
0
  6
CONTINUOUS
 62
     3
 10
265.5001157449988227
 20
317.7520769541588948
 30
0.0
 11
265.5001157449988227
 21
316.7520769541587811
 31
0.0
  0
LINE
  5
498
  8
0
  6
CONTINUOUS
 62
     3
 10
212.7501157449987943
 20
306.2520769541587811
 30
0.0
 11
212.7501157449987943
 21
314.7520769541587811
 31
0.0
1001
ACAD
1000
ASC_BOUNDS
1002
{
1070
    19
1002
}
  0
LINE
  5
499
  8
0
  6
CONTINUOUS
 62
     3
 10
212.7501157449987943
 20
314.7520769541587811
 30
0.0
 11
267.2501157449988227
 21
314.7520769541587811
 31
0.0
1001
ACAD
1000
ASC_BOUNDS
1002
{
1070
    19
1002
}
  0
LINE
  5
49A
  8
0
  6
CONTINUOUS
 62
     3
 10
267.2501157449988227
 20
314.7520769541587811
 30
0.0
 11
267.2501157449988227
 21
306.2520769541587811
 31
0.0
1001
ACAD
1000
ASC_BOUNDS
1002
{
1070
    19
1002
}
  0
LINE
  5
49B
  8
0
  6
CONTINUOUS
 62
     3
 10
267.2501157449988227
 20
306.2520769541587811
 30
0.0
 11
266.7501157449988227
 21
305.7520769541587811
 31
0.0
1001
ACAD
1000
ASC_BOUNDS
1002
{
1070
    19
1002
}
  0
LINE
  5
49C
  8
0
  6
CONTINUOUS
 62
     3
 10
266.7501157449988227
 20
305.7520769541587811
 30
0.0
 11
213.2501157449987943
 21
305.7520769541587811
 31
0.0
1001
ACAD
1000
ASC_BOUNDS
1002
{
1070
    19
1002
}
  0
LINE
  5
49D
  8
0
  6
CONTINUOUS
 62
     3
 10
213.2501157449987943
 20
305.7520769541587811
 30
0.0
 11
212.7501157449987943
 21
306.2520769541587811
 31
0.0
1001
ACAD
1000
ASC_BOUNDS
1002
{
1070
    19
1002
}
  0
LINE
  5
49E
  8
0
  6
CONTINUOUS
 62
     4
 10
239.000115744998709
 20
335.8530974685926935
 30
0.0
 11
239.000115744998709
 21
337.9236498294122271
 31
0.0
  0
LINE
  5
49F
  8
0
  6
CONTINUOUS
 62
     4
 10
241.000115744998709
 20
337.9236498294122271
 30
0.0
 11
241.000115744998709
 21
335.8530974685926935
 31
0.0
  0
LINE
  5
4A0
  8
0
  6
CONTINUOUS
 62
     4
 10
239.000115744998709
 20
343.5805040789055056
 30
0.0
 11
239.000115744998709
 21
345.6510564397249254
 31
0.0
  0
LINE
  5
4A1
  8
0
  6
CONTINUOUS
 62
     4
 10
241.000115744998709
 20
345.6510564397249254
 30
0.0
 11
241.000115744998709
 21
343.5805040789055056
 31
0.0
  0
ARC
  5
4A2
  8
0
  6
CONTINUOUS
 62
     3
 10
251.500115744998709
 20
391.7520769541587811
 30
0.0
 40
2.0
 50
0.0
 51
90.0
1001
ACAD
1000
ASC_BOUNDS
1002
{
1070
    19
1002
}
  0
LINE
  5
4A3
  8
0
  6
CONTINUOUS
 62
     3
 10
251.500115744998709
 20
393.7520769541587811
 30
0.0
 11
228.500115744998709
 21
393.7520769541587811
 31
0.0
1001
ACAD
1000
ASC_BOUNDS
1002
{
1070
    19
1002
}
  0
ARC
  5
4A4
  8
0
  6
CONTINUOUS
 62
     3
 10
228.500115744998709
 20
391.7520769541587811
 30
0.0
 40
2.0
 50
90.0
 51
180.0
1001
ACAD
1000
ASC_BOUNDS
1002
{
1070
    19
1002
}
  0
LINE
  5
4A5
  8
0
  6
CONTINUOUS
 62
     3
 10
253.500115744998709
 20
374.7520769541587811
 30
0.0
 11
259.1456218470157182
 21
374.7520769541587811
 31
0.0
1001
ACAD
1000
ASC_BOUNDS
1002
{
1070
    19
1002
}
  0
ARC
  5
4A6
  8
0
  6
CONTINUOUS
 62
     3
 10
259.1456218470157182
 20
373.7520769541588948
 30
0.0
 40
1.0
 50
8.9726266148205394
 51
90.0
1001
ACAD
1000
ASC_BOUNDS
1002
{
1070
    19
1002
}
  0
LINE
  5
4A7
  8
0
  6
CONTINUOUS
 62
     3
 10
260.1333848123430812
 20
373.9080395276324111
 30
0.0
 11
263.0001157449988227
 21
355.7520769541587811
 31
0.0
1001
ACAD
1000
ASC_BOUNDS
1002
{
1070
    19
1002
}
  0
LINE
  5
4A8
  8
0
  6
CONTINUOUS
 62
     3
 10
263.0001157449988227
 20
355.7520769541587811
 30
0.0
 11
217.0001157449987943
 21
355.7520769541587811
 31
0.0
1001
ACAD
1000
ASC_BOUNDS
1002
{
1070
    19
1002
}
  0
LINE
  5
4A9
  8
0
  6
CONTINUOUS
 62
     3
 10
217.0001157449987943
 20
355.7520769541587811
 30
0.0
 11
219.8668466776508126
 21
373.9080395276324111
 31
0.0
1001
ACAD
1000
ASC_BOUNDS
1002
{
1070
    19
1002
}
  0
ARC
  5
4AA
  8
0
  6
CONTINUOUS
 62
     3
 10
220.8546096429818135
 20
373.7520769541588948
 30
0.0
 40
0.9999999999997262
 50
90.0
 51
171.027373385179402
1001
ACAD
1000
ASC_BOUNDS
1002
{
1070
    19
1002
}
  0
LINE
  5
4AB
  8
0
  6
CONTINUOUS
 62
     3
 10
220.8546096429818135
 20
374.7520769541587811
 30
0.0
 11
226.500115744998709
 21
374.7520769541587811
 31
0.0
1001
ACAD
1000
ASC_BOUNDS
1002
{
1070
    19
1002
}
  0
LINE
  5
4AC
  8
0
  6
CENTER2
 62
     4
 10
240.0001157450068945
 20
-0.0000120458389574
 30
0.0
 11
240.0001157450068945
 21
1085.7520769541590653
 31
0.0
  0
ENDBLK
  5
4AD
  8
0
 62
     7
  0
BLOCK
  8
0
 62
     7
  2
A$C1C185600
 70
     0
 10
0.0
 20
0.0
 30
0.0
  3
A$C1C185600
  1

  0
LINE
  5
4B2
  8
0
  6
CONTINUOUS
 62
     4
 10
77.0001157449987659
 20
823.9520739547295989
 30
0.0
 11
376.0001157450024039
 21
823.9520739547515404
 31
0.0
  0
LINE
  5
4B3
  8
0
  6
CONTINUOUS
 62
     4
 10
75.0001157449996754
 20
833.9520739547295989
 30
0.0
 11
378.000115745005985
 21
833.9520739547479025
 31
0.0
  0
LINE
  5
4B4
  8
0
  6
CONTINUOUS
 62
     4
 10
77.0001157449978564
 20
136.9520739547332937
 30
0.0
 11
376.0001157449923994
 21
136.9520739547405981
 31
0.0
  0
LINE
  5
4B5
  8
0
  6
CONTINUOUS
 62
     4
 10
75.0001157449978564
 20
126.9520739547332937
 30
0.0
 11
378.0001157449951279
 21
126.9520739547370027
 31
0.0
  0
LINE
  5
4B6
  8
0
  6
CONTINUOUS
 62
     4
 10
75.0001157450005849
 20
833.9520739547295989
 30
0.0
 11
75.0001157449960374
 21
126.9520739547370027
 31
0.0
  0
LINE
  5
4B7
  8
0
  6
CONTINUOUS
 62
     4
 10
378.0001157449923994
 20
126.9520739547405981
 30
0.0
 11
378.000115745005985
 21
833.9520739547479025
 31
0.0
  0
LINE
  5
4B8
  8
0
  6
CONTINUOUS
 62
     4
 10
440.5001157447732112
 20
727.9520739545476999
 30
0.0
 11
440.5001157447667879
 21
766.9520739546242112
 31
0.0
  0
LINE
  5
4B9
  8
0
  6
CONTINUOUS
 62
     4
 10
390.5001157448805884
 20
727.9520739544968819
 30
0.0
 11
390.5001157446658908
 21
766.9520739545441756
 31
0.0
  0
LINE
  5
4BA
  8
0
  6
CONTINUOUS
 62
     4
 10
393.5001157448822937
 20
724.9520739545478136
 30
0.0
 11
437.5001157447749733
 21
724.9520739545114338
 31
0.0
  0
LINE
  5
4BB
  8
0
  6
CONTINUOUS
 62
     4
 10
393.5001157446586149
 20
769.9520739545150718
 30
0.0
 11
437.5001157447586024
 21
769.9520739546460391
 31
0.0
  0
LINE
  5
4BC
  8
0
  6
CONTINUOUS
 62
     3
 10
0.0001157450069513
 20
972.9520769547852979
 30
0.0
 11
480.0001157450033134
 21
972.9520769547925738
 31
0.0
  0
LINE
  5
4BD
  8
0
  6
CONTINUOUS
 62
     3
 10
0.0001157450069513
 20
62.9520769547852979
 30
0.0
 11
0.0001157450069513
 21
972.9520769547852979
 31
0.0
  0
LINE
  5
4BE
  8
0
  6
CONTINUOUS
 62
     3
 10
0.0001157450069513
 20
62.9520769547852979
 30
0.0
 11
480.0001157450024039
 21
62.9520769547852979
 31
0.0
  0
LINE
  5
4BF
  8
0
  6
CONTINUOUS
 62
     3
 10
480.0001157450024039
 20
62.9520769547852979
 30
0.0
 11
480.0001157450033134
 21
972.9520769547925738
 31
0.0
  0
CIRCLE
  5
4C0
  8
0
  6
CONTINUOUS
 62
     4
 10
425.5001157447094897
 20
754.9520739546060213
 30
0.0
 40
3.0
  0
CIRCLE
  5
4C1
  8
0
  6
CONTINUOUS
 62
     4
 10
405.5001157447094897
 20
754.9520739546060213
 30
0.0
 40
3.0
  0
CIRCLE
  5
4C2
  8
0
  6
CONTINUOUS
 62
     4
 10
415.5001157447094897
 20
739.9520739546060213
 30
0.0
 40
3.0
  0
CIRCLE
  5
4C3
  8
0
  6
CONTINUOUS
 62
     4
 10
420.0001157450050755
 20
468.4520739547987773
 30
0.0
 40
17.5
  0
CIRCLE
  5
4C4
  8
0
  6
CONTINUOUS
 62
     4
 10
420.0001157450050755
 20
468.4520739547987773
 30
0.0
 40
29.0
  0
ARC
  5
4C5
  8
0
  6
CONTINUOUS
 62
     4
 10
77.0001157449987659
 20
825.9520739547295989
 30
0.0
 40
2.0
 50
180.0
 51
270.0000000000521254
  0
ARC
  5
4C6
  8
0
  6
CONTINUOUS
 62
     4
 10
376.0001157450033134
 20
825.9520739547479025
 30
0.0
 40
2.0
 50
269.9999999999478746
 51
0.0
  0
ARC
  5
4C7
  8
0
  6
CONTINUOUS
 62
     4
 10
376.0001157449942184
 20
134.9520739547405981
 30
0.0
 40
2.0
 50
0.0
 51
90.0000000000521254
  0
ARC
  5
4C8
  8
0
  6
CONTINUOUS
 62
     4
 10
77.0001157449960374
 20
134.9520739547332937
 30
0.0
 40
2.0
 50
89.9999999999478888
 51
180.0
  0
ARC
  5
4C9
  8
0
  6
CONTINUOUS
 62
     4
 10
437.5001157447667879
 20
766.9520739546204595
 30
0.0
 40
3.0
 50
0.0
 51
90.0000000001042082
  0
ARC
  5
4CA
  8
0
  6
CONTINUOUS
 62
     4
 10
437.5001157447732112
 20
727.9520739545476999
 30
0.0
 40
3.0
 50
270.0000000000521254
 51
0.0
  0
ARC
  5
4CB
  8
0
  6
CONTINUOUS
 62
     4
 10
393.5001157448822937
 20
727.9520739545114338
 30
0.0
 40
3.0
 50
180.000000000208388
 51
270.0
  0
ARC
  5
4CC
  8
0
  6
CONTINUOUS
 62
     4
 10
393.5001157446658908
 20
766.9520739545441756
 30
0.0
 40
3.0
 50
90.0000000001563336
 51
180.0
  0
ARC
  5
4CD
  8
0
  6
CONTINUOUS
 62
     3
 10
240.0001157449987943
 20
342.7520769541588948
 30
0.0
 40
28.5
 50
335.124275852546873
 51
38.7129202391822105
  0
ARC
  5
4CE
  8
0
  6
CONTINUOUS
 62
     3
 10
240.0001157449987943
 20
342.7520769541588948
 30
0.0
 40
28.5
 50
141.2870797608177895
 51
204.8757241474530986
  0
LINE
  5
4CF
  8
0
  6
CONTINUOUS
 62
     3
 10
212.7501157449987943
 20
306.2520769541587811
 30
0.0
 11
267.2501157449988227
 21
306.2520769541587811
 31
0.0
1001
ACAD
1000
ASC_BOUNDS
1002
{
1070
    19
1002
}
  0
LINE
  5
4D0
  8
0
  6
CONTINUOUS
 62
     4
 10
239.2600351228647924
 20
337.8447963222387784
 30
0.0
 11
242.9214036603152067
 21
341.4347752153407782
 31
0.0
  0
CIRCLE
  5
4D1
  8
0
  6
CONTINUOUS
 62
     4
 10
240.0001157449987943
 20
340.7520769541588948
 30
0.0
 40
3.0
  0
LINE
  5
4D2
  8
0
  6
CONTINUOUS
 62
     4
 10
237.0098628925188962
 20
340.5104411161083249
 30
0.0
 11
240.300577225574699
 21
343.7369928489025028
 31
0.0
  0
LINE
  5
4D3
  8
0
  6
CONTINUOUS
 62
     4
 10
237.024498254104401
 20
341.13378436552739
 30
0.0
 11
239.6770666558913945
 21
343.7346327853265961
 31
0.0
  0
LINE
  5
4D4
  8
0
  6
CONTINUOUS
 62
     4
 10
238.7998996525165865
 20
338.0026258577855174
 30
0.0
 11
242.7726639225730025
 21
341.8979288656336735
 31
0.0
  0
CIRCLE
  5
4D5
  8
0
  6
CONTINUOUS
 62
     4
 10
240.0001157449987943
 20
340.7520769541588948
 30
0.0
 40
5.0
  0
CIRCLE
  5
4D6
  8
0
  6
CONTINUOUS
 62
     4
 10
240.0001157449987943
 20
340.7520769541588948
 30
0.0
 40
6.0
  0
POINT
  5
4D7
  8
0
  6
CONTINUOUS
 62
     3
 10
213.0001157449987943
 20
319.2520769541587811
 30
0.0
  0
POINT
  5
4D8
  8
0
  6
CONTINUOUS
 62
     3
 10
267.0001157449988227
 20
319.2520769541587811
 30
0.0
  0
TEXT
  5
4D9
  8
0
 62
     1
 10
404.6551029325946729
 20
745.4903730563163435
 30
0.0
 40
4.0
  1
殺菌灯時間計
 41
0.9
  7
\U+FF7D\U+FF80\U+FF72\U+FF991
  0
TEXT
  5
4DA
  8
0
 62
     1
 10
402.5360851374553022
 20
729.9951688897380109
 30
0.0
 40
4.0
  1
時間計リセット
 41
0.9
  7
\U+FF7D\U+FF80\U+FF72\U+FF991
  0
LINE
  5
4DB
  8
0
  6
CONTINUOUS
 62
     3
 10
226.500115744998709
 20
391.7520769541587811
 30
0.0
 11
226.500115744998709
 21
332.7520769541587811
 31
0.0
1001
ACAD
1000
ASC_BOUNDS
1002
{
1070
    19
1002
}
  0
LINE
  5
4DC
  8
0
  6
CONTINUOUS
 62
     3
 10
226.500115744998709
 20
332.7520769541587811
 30
0.0
 11
253.500115744998709
 21
332.7520769541587811
 31
0.0
1001
ACAD
1000
ASC_BOUNDS
1002
{
1070
    19
1002
}
  0
LINE
  5
4DD
  8
0
  6
CONTINUOUS
 62
     3
 10
253.500115744998709
 20
332.7520769541587811
 30
0.0
 11
253.500115744998709
 21
391.7520769541587811
 31
0.0
1001
ACAD
1000
ASC_BOUNDS
1002
{
1070
    19
1002
}
  0
LINE
  5
4DE
  8
0
  6
CONTINUOUS
 62
     3
 10
213.0001157449987943
 20
320.7520769541587811
 30
0.0
 11
217.0001157449987943
 21
355.7520769541587811
 31
0.0
1001
ACAD
1000
ASC_BOUNDS
1002
{
1070
    19
1002
}
  0
LINE
  5
4DF
  8
0
  6
CONTINUOUS
 62
     3
 10
263.0001157449988227
 20
355.7520769541587811
 30
0.0
 11
267.0001157449988227
 21
320.7520769541587811
 31
0.0
1001
ACAD
1000
ASC_BOUNDS
1002
{
1070
    19
1002
}
  0
LINE
  5
4E0
  8
0
  6
CONTINUOUS
 62
     3
 10
213.0001157449987943
 20
320.7520769541587811
 30
0.0
 11
213.0001157449987943
 21
317.7520769541588948
 31
0.0
  0
LINE
  5
4E1
  8
0
  6
CONTINUOUS
 62
     3
 10
213.0001157449987943
 20
317.7520769541588948
 30
0.0
 11
267.0001157449988227
 21
317.7520769541588948
 31
0.0
  0
LINE
  5
4E2
  8
0
  6
CONTINUOUS
 62
     3
 10
267.0001157449988227
 20
317.7520769541588948
 30
0.0
 11
267.0001157449988227
 21
320.7520769541587811
 31
0.0
  0
LINE
  5
4E3
  8
0
  6
CONTINUOUS
 62
     3
 10
267.0001157449988227
 20
320.7520769541587811
 30
0.0
 11
213.0001157449987943
 21
320.7520769541587811
 31
0.0
  0
LINE
  5
4E4
  8
0
  6
CONTINUOUS
 62
     3
 10
213.5001157449987943
 20
314.7520769541587811
 30
0.0
 11
213.5001157449987943
 21
316.7520769541587811
 31
0.0
  0
LINE
  5
4E5
  8
0
  6
CONTINUOUS
 62
     3
 10
213.5001157449987943
 20
316.7520769541587811
 30
0.0
 11
266.5001157449988227
 21
316.7520769541587811
 31
0.0
  0
LINE
  5
4E6
  8
0
  6
CONTINUOUS
 62
     3
 10
266.5001157449988227
 20
316.7520769541587811
 30
0.0
 11
266.5001157449988227
 21
314.7520769541587811
 31
0.0
  0
LINE
  5
4E7
  8
0
  6
CONTINUOUS
 62
     3
 10
214.5001157449987943
 20
316.7520769541587811
 30
0.0
 11
214.5001157449987943
 21
317.7520769541588948
 31
0.0
  0
LINE
  5
4E8
  8
0
  6
CONTINUOUS
 62
     3
 10
265.5001157449988227
 20
317.7520769541588948
 30
0.0
 11
265.5001157449988227
 21
316.7520769541587811
 31
0.0
  0
LINE
  5
4E9
  8
0
  6
CONTINUOUS
 62
     3
 10
212.7501157449987943
 20
306.2520769541587811
 30
0.0
 11
212.7501157449987943
 21
314.7520769541587811
 31
0.0
1001
ACAD
1000
ASC_BOUNDS
1002
{
1070
    19
1002
}
  0
LINE
  5
4EA
  8
0
  6
CONTINUOUS
 62
     3
 10
212.7501157449987943
 20
314.7520769541587811
 30
0.0
 11
267.2501157449988227
 21
314.7520769541587811
 31
0.0
1001
ACAD
1000
ASC_BOUNDS
1002
{
1070
    19
1002
}
  0
LINE
  5
4EB
  8
0
  6
CONTINUOUS
 62
     3
 10
267.2501157449988227
 20
314.7520769541587811
 30
0.0
 11
267.2501157449988227
 21
306.2520769541587811
 31
0.0
1001
ACAD
1000
ASC_BOUNDS
1002
{
1070
    19
1002
}
  0
LINE
  5
4EC
  8
0
  6
CONTINUOUS
 62
     3
 10
267.2501157449988227
 20
306.2520769541587811
 30
0.0
 11
266.7501157449988227
 21
305.7520769541587811
 31
0.0
1001
ACAD
1000
ASC_BOUNDS
1002
{
1070
    19
1002
}
  0
LINE
  5
4ED
  8
0
  6
CONTINUOUS
 62
     3
 10
266.7501157449988227
 20
305.7520769541587811
 30
0.0
 11
213.2501157449987943
 21
305.7520769541587811
 31
0.0
1001
ACAD
1000
ASC_BOUNDS
1002
{
1070
    19
1002
}
  0
LINE
  5
4EE
  8
0
  6
CONTINUOUS
 62
     3
 10
213.2501157449987943
 20
305.7520769541587811
 30
0.0
 11
212.7501157449987943
 21
306.2520769541587811
 31
0.0
1001
ACAD
1000
ASC_BOUNDS
1002
{
1070
    19
1002
}
  0
LINE
  5
4EF
  8
0
  6
CONTINUOUS
 62
     4
 10
239.000115744998709
 20
335.8530974685926935
 30
0.0
 11
239.000115744998709
 21
337.9236498294122271
 31
0.0
  0
LINE
  5
4F0
  8
0
  6
CONTINUOUS
 62
     4
 10
241.000115744998709
 20
337.9236498294122271
 30
0.0
 11
241.000115744998709
 21
335.8530974685926935
 31
0.0
  0
LINE
  5
4F1
  8
0
  6
CONTINUOUS
 62
     4
 10
239.000115744998709
 20
343.5805040789055056
 30
0.0
 11
239.000115744998709
 21
345.6510564397249254
 31
0.0
  0
LINE
  5
4F2
  8
0
  6
CONTINUOUS
 62
     4
 10
241.000115744998709
 20
345.6510564397249254
 30
0.0
 11
241.000115744998709
 21
343.5805040789055056
 31
0.0
  0
ARC
  5
4F3
  8
0
  6
CONTINUOUS
 62
     3
 10
251.500115744998709
 20
391.7520769541587811
 30
0.0
 40
2.0
 50
0.0
 51
90.0
1001
ACAD
1000
ASC_BOUNDS
1002
{
1070
    19
1002
}
  0
LINE
  5
4F4
  8
0
  6
CONTINUOUS
 62
     3
 10
251.500115744998709
 20
393.7520769541587811
 30
0.0
 11
228.500115744998709
 21
393.7520769541587811
 31
0.0
1001
ACAD
1000
ASC_BOUNDS
1002
{
1070
    19
1002
}
  0
ARC
  5
4F5
  8
0
  6
CONTINUOUS
 62
     3
 10
228.500115744998709
 20
391.7520769541587811
 30
0.0
 40
2.0
 50
90.0
 51
180.0
1001
ACAD
1000
ASC_BOUNDS
1002
{
1070
    19
1002
}
  0
LINE
  5
4F6
  8
0
  6
CONTINUOUS
 62
     3
 10
253.500115744998709
 20
374.7520769541587811
 30
0.0
 11
259.1456218470157182
 21
374.7520769541587811
 31
0.0
1001
ACAD
1000
ASC_BOUNDS
1002
{
1070
    19
1002
}
  0
ARC
  5
4F7
  8
0
  6
CONTINUOUS
 62
     3
 10
259.1456218470157182
 20
373.7520769541588948
 30
0.0
 40
1.0
 50
8.9726266148205394
 51
90.0
1001
ACAD
1000
ASC_BOUNDS
1002
{
1070
    19
1002
}
  0
LINE
  5
4F8
  8
0
  6
CONTINUOUS
 62
     3
 10
260.1333848123430812
 20
373.9080395276324111
 30
0.0
 11
263.0001157449988227
 21
355.7520769541587811
 31
0.0
1001
ACAD
1000
ASC_BOUNDS
1002
{
1070
    19
1002
}
  0
LINE
  5
4F9
  8
0
  6
CONTINUOUS
 62
     3
 10
263.0001157449988227
 20
355.7520769541587811
 30
0.0
 11
217.0001157449987943
 21
355.7520769541587811
 31
0.0
1001
ACAD
1000
ASC_BOUNDS
1002
{
1070
    19
1002
}
  0
LINE
  5
4FA
  8
0
  6
CONTINUOUS
 62
     3
 10
217.0001157449987943
 20
355.7520769541587811
 30
0.0
 11
219.8668466776508126
 21
373.9080395276324111
 31
0.0
1001
ACAD
1000
ASC_BOUNDS
1002
{
1070
    19
1002
}
  0
ARC
  5
4FB
  8
0
  6
CONTINUOUS
 62
     3
 10
220.8546096429818135
 20
373.7520769541588948
 30
0.0
 40
0.9999999999997262
 50
90.0
 51
171.027373385179402
1001
ACAD
1000
ASC_BOUNDS
1002
{
1070
    19
1002
}
  0
LINE
  5
4FC
  8
0
  6
CONTINUOUS
 62
     3
 10
220.8546096429818135
 20
374.7520769541587811
 30
0.0
 11
226.500115744998709
 21
374.7520769541587811
 31
0.0
1001
ACAD
1000
ASC_BOUNDS
1002
{
1070
    19
1002
}
  0
LINE
  5
4FD
  8
0
  6
CENTER2
 62
     4
 10
240.0001157450068945
 20
-0.0000120458389574
 30
0.0
 11
240.0001157450068945
 21
1085.7520769541590653
 31
0.0
  0
CIRCLE
  5
4FE
  8
0
  6
CONTINUOUS
 62
     4
 10
420.0001157449759717
 20
543.4520739547697303
 30
0.0
 40
7.5
  0
CIRCLE
  5
4FF
  8
0
  6
CONTINUOUS
 62
     4
 10
420.0001157449759717
 20
543.4520739547697303
 30
0.0
 40
9.0
  0
ENDBLK
  5
500
  8
0
 62
     7
  0
BLOCK
  8
0
 62
     4
  2
A$C441705F2
 70
     0
 10
0.0
 20
0.0
 30
0.0
  3
A$C441705F2
  1

  0
POLYLINE
  5
505
  8
0
  6
CONTINUOUS
 62
     3
 10
20.5010199960461321
 20
38.9735320327428809
 30
0.0
 66
     1
 70
     8
  0
VERTEX
  8
0
  5
243D
 10
20.5010
 20
38.9735
 30
0.00000
  70
    32
  0
VERTEX
  8
0
  5
243E
 10
20.5049
 20
38.8626
 30
0.00000
  70
    32
  0
VERTEX
  8
0
  5
243F
 10
20.5167
 20
38.7517
 30
0.00000
  70
    32
  0
VERTEX
  8
0
  5
2440
 10
20.5362
 20
38.6409
 30
0.00000
  70
    32
  0
VERTEX
  8
0
  5
2441
 10
20.5636
 20
38.5304
 30
0.00000
  70
    32
  0
VERTEX
  8
0
  5
2442
 10
20.5988
 20
38.4201
 30
0.00000
  70
    32
  0
VERTEX
  8
0
  5
2443
 10
20.6417
 20
38.3101
 30
0.00000
  70
    32
  0
VERTEX
  8
0
  5
2444
 10
20.6924
 20
38.2006
 30
0.00000
  70
    32
  0
VERTEX
  8
0
  5
2445
 10
20.7508
 20
38.0915
 30
0.00000
  70
    32
  0
VERTEX
  8
0
  5
2446
 10
20.8169
 20
37.9829
 30
0.00000
  70
    32
  0
VERTEX
  8
0
  5
2447
 10
20.8906
 20
37.8749
 30
0.00000
  70
    32
  0
VERTEX
  8
0
  5
2448
 10
20.9719
 20
37.7676
 30
0.00000
  70
    32
  0
VERTEX
  8
0
  5
2449
 10
21.0608
 20
37.6611
 30
0.00000
  70
    32
  0
VERTEX
  8
0
  5
244A
 10
21.1572
 20
37.5553
 30
0.00000
  70
    32
  0
VERTEX
  8
0
  5
244B
 10
21.2609
 20
37.4503
 30
0.00000
  70
    32
  0
VERTEX
  8
0
  5
244C
 10
21.3721
 20
37.3463
 30
0.00000
  70
    32
  0
VERTEX
  8
0
  5
244D
 10
21.4906
 20
37.2433
 30
0.00000
  70
    32
  0
VERTEX
  8
0
  5
244E
 10
21.6163
 20
37.1413
 30
0.00000
  70
    32
  0
VERTEX
  8
0
  5
244F
 10
21.7492
 20
37.0404
 30
0.00000
  70
    32
  0
VERTEX
  8
0
  5
2450
 10
21.8891
 20
36.9407
 30
0.00000
  70
    32
  0
VERTEX
  8
0
  5
2451
 10
22.0360
 20
36.8422
 30
0.00000
  70
    32
  0
VERTEX
  8
0
  5
2452
 10
22.1899
 20
36.7450
 30
0.00000
  70
    32
  0
VERTEX
  8
0
  5
2453
 10
22.3505
 20
36.6491
 30
0.00000
  70
    32
  0
VERTEX
  8
0
  5
2454
 10
22.5179
 20
36.5546
 30
0.00000
  70
    32
  0
VERTEX
  8
0
  5
2455
 10
22.6919
 20
36.4616
 30
0.00000
  70
    32
  0
VERTEX
  8
0
  5
2456
 10
22.8724
 20
36.3701
 30
0.00000
  70
    32
  0
VERTEX
  8
0
  5
2457
 10
23.0593
 20
36.2802
 30
0.00000
  70
    32
  0
VERTEX
  8
0
  5
2458
 10
23.2525
 20
36.1919
 30
0.00000
  70
    32
  0
VERTEX
  8
0
  5
2459
 10
23.4519
 20
36.1052
 30
0.00000
  70
    32
  0
VERTEX
  8
0
  5
245A
 10
23.6573
 20
36.0203
 30
0.00000
  70
    32
  0
VERTEX
  8
0
  5
245B
 10
23.8687
 20
35.9372
 30
0.00000
  70
    32
  0
VERTEX
  8
0
  5
245C
 10
24.0858
 20
35.8559
 30
0.00000
  70
    32
  0
VERTEX
  8
0
  5
245D
 10
24.3086
 20
35.7765
 30
0.00000
  70
    32
  0
VERTEX
  8
0
  5
245E
 10
24.5370
 20
35.6990
 30
0.00000
  70
    32
  0
VERTEX
  8
0
  5
245F
 10
24.7708
 20
35.6234
 30
0.00000
  70
    32
  0
VERTEX
  8
0
  5
2460
 10
25.0098
 20
35.5499
 30
0.00000
  70
    32
  0
VERTEX
  8
0
  5
2461
 10
25.2539
 20
35.4785
 30
0.00000
  70
    32
  0
VERTEX
  8
0
  5
2462
 10
25.5030
 20
35.4091
 30
0.00000
  70
    32
  0
VERTEX
  8
0
  5
2463
 10
25.7569
 20
35.3420
 30
0.00000
  70
    32
  0
VERTEX
  8
0
  5
2464
 10
26.0155
 20
35.2769
 30
0.00000
  70
    32
  0
VERTEX
  8
0
  5
2465
 10
26.2786
 20
35.2142
 30
0.00000
  70
    32
  0
VERTEX
  8
0
  5
2466
 10
26.5461
 20
35.1537
 30
0.00000
  70
    32
  0
VERTEX
  8
0
  5
2467
 10
26.8177
 20
35.0954
 30
0.00000
  70
    32
  0
VERTEX
  8
0
  5
2468
 10
27.0933
 20
35.0396
 30
0.00000
  70
    32
  0
VERTEX
  8
0
  5
2469
 10
27.3729
 20
34.9861
 30
0.00000
  70
    32
  0
VERTEX
  8
0
  5
246A
 10
27.6561
 20
34.9350
 30
0.00000
  70
    32
  0
VERTEX
  8
0
  5
246B
 10
27.9428
 20
34.8863
 30
0.00000
  70
    32
  0
VERTEX
  8
0
  5
246C
 10
28.2329
 20
34.8401
 30
0.00000
  70
    32
  0
VERTEX
  8
0
  5
246D
 10
28.5261
 20
34.7964
 30
0.00000
  70
    32
  0
VERTEX
  8
0
  5
246E
 10
28.8224
 20
34.7551
 30
0.00000
  70
    32
  0
VERTEX
  8
0
  5
246F
 10
29.1215
 20
34.7165
 30
0.00000
  70
    32
  0
VERTEX
  8
0
  5
2470
 10
29.4232
 20
34.6804
 30
0.00000
  70
    32
  0
VERTEX
  8
0
  5
2471
 10
29.7273
 20
34.6469
 30
0.00000
  70
    32
  0
VERTEX
  8
0
  5
2472
 10
30.0338
 20
34.6160
 30
0.00000
  70
    32
  0
VERTEX
  8
0
  5
2473
 10
30.3423
 20
34.5877
 30
0.00000
  70
    32
  0
VERTEX
  8
0
  5
2474
 10
30.6527
 20
34.5620
 30
0.00000
  70
    32
  0
VERTEX
  8
0
  5
2475
 10
30.9648
 20
34.5391
 30
0.00000
  70
    32
  0
VERTEX
  8
0
  5
2476
 10
31.2785
 20
34.5188
 30
0.00000
  70
    32
  0
VERTEX
  8
0
  5
2477
 10
31.5935
 20
34.5011
 30
0.00000
  70
    32
  0
VERTEX
  8
0
  5
2478
 10
31.9097
 20
34.4862
 30
0.00000
  70
    32
  0
VERTEX
  8
0
  5
2479
 10
32.2268
 20
34.4740
 30
0.00000
  70
    32
  0
VERTEX
  8
0
  5
247A
 10
32.5447
 20
34.4644
 30
0.00000
  70
    32
  0
VERTEX
  8
0
  5
247B
 10
32.8631
 20
34.4576
 30
0.00000
  70
    32
  0
VERTEX
  8
0
  5
247C
 10
33.1820
 20
34.4535
 30
0.00000
  70
    32
  0
VERTEX
  8
0
  5
247D
 10
33.5010
 20
34.4522
 30
0.00000
  70
    32
  0
VERTEX
  8
0
  5
247E
 10
33.8201
 20
34.4535
 30
0.00000
  70
    32
  0
VERTEX
  8
0
  5
247F
 10
34.1389
 20
34.4576
 30
0.00000
  70
    32
  0
VERTEX
  8
0
  5
2480
 10
34.4574
 20
34.4644
 30
0.00000
  70
    32
  0
VERTEX
  8
0
  5
2481
 10
34.7752
 20
34.4740
 30
0.00000
  70
    32
  0
VERTEX
  8
0
  5
2482
 10
35.0924
 20
34.4862
 30
0.00000
  70
    32
  0
VERTEX
  8
0
  5
2483
 10
35.4085
 20
34.5011
 30
0.00000
  70
    32
  0
VERTEX
  8
0
  5
2484
 10
35.7235
 20
34.5188
 30
0.00000
  70
    32
  0
VERTEX
  8
0
  5
2485
 10
36.0372
 20
34.5391
 30
0.00000
  70
    32
  0
VERTEX
  8
0
  5
2486
 10
36.3493
 20
34.5620
 30
0.00000
  70
    32
  0
VERTEX
  8
0
  5
2487
 10
36.6598
 20
34.5877
 30
0.00000
  70
    32
  0
VERTEX
  8
0
  5
2488
 10
36.9683
 20
34.6160
 30
0.00000
  70
    32
  0
VERTEX
  8
0
  5
2489
 10
37.2747
 20
34.6469
 30
0.00000
  70
    32
  0
VERTEX
  8
0
  5
248A
 10
37.5789
 20
34.6804
 30
0.00000
  70
    32
  0
VERTEX
  8
0
  5
248B
 10
37.8806
 20
34.7165
 30
0.00000
  70
    32
  0
VERTEX
  8
0
  5
248C
 10
38.1797
 20
34.7551
 30
0.00000
  70
    32
  0
VERTEX
  8
0
  5
248D
 10
38.4759
 20
34.7964
 30
0.00000
  70
    32
  0
VERTEX
  8
0
  5
248E
 10
38.7692
 20
34.8401
 30
0.00000
  70
    32
  0
VERTEX
  8
0
  5
248F
 10
39.0592
 20
34.8863
 30
0.00000
  70
    32
  0
VERTEX
  8
0
  5
2490
 10
39.3460
 20
34.9350
 30
0.00000
  70
    32
  0
VERTEX
  8
0
  5
2491
 10
39.6292
 20
34.9861
 30
0.00000
  70
    32
  0
VERTEX
  8
0
  5
2492
 10
39.9087
 20
35.0396
 30
0.00000
  70
    32
  0
VERTEX
  8
0
  5
2493
 10
40.1844
 20
35.0954
 30
0.00000
  70
    32
  0
VERTEX
  8
0
  5
2494
 10
40.4560
 20
35.1537
 30
0.00000
  70
    32
  0
VERTEX
  8
0
  5
2495
 10
40.7234
 20
35.2142
 30
0.00000
  70
    32
  0
VERTEX
  8
0
  5
2496
 10
40.9865
 20
35.2769
 30
0.00000
  70
    32
  0
VERTEX
  8
0
  5
2497
 10
41.2451
 20
35.3420
 30
0.00000
  70
    32
  0
VERTEX
  8
0
  5
2498
 10
41.4990
 20
35.4091
 30
0.00000
  70
    32
  0
VERTEX
  8
0
  5
2499
 10
41.7481
 20
35.4785
 30
0.00000
  70
    32
  0
VERTEX
  8
0
  5
249A
 10
41.9923
 20
35.5499
 30
0.00000
  70
    32
  0
VERTEX
  8
0
  5
249B
 10
42.2313
 20
35.6234
 30
0.00000
  70
    32
  0
VERTEX
  8
0
  5
249C
 10
42.4650
 20
35.6990
 30
0.00000
  70
    32
  0
VERTEX
  8
0
  5
249D
 10
42.6934
 20
35.7765
 30
0.00000
  70
    32
  0
VERTEX
  8
0
  5
249E
 10
42.9162
 20
35.8559
 30
0.00000
  70
    32
  0
VERTEX
  8
0
  5
249F
 10
43.1334
 20
35.9372
 30
0.00000
  70
    32
  0
VERTEX
  8
0
  5
24A0
 10
43.3447
 20
36.0203
 30
0.00000
  70
    32
  0
VERTEX
  8
0
  5
24A1
 10
43.5502
 20
36.1052
 30
0.00000
  70
    32
  0
VERTEX
  8
0
  5
24A2
 10
43.7495
 20
36.1919
 30
0.00000
  70
    32
  0
VERTEX
  8
0
  5
24A3
 10
43.9427
 20
36.2802
 30
0.00000
  70
    32
  0
VERTEX
  8
0
  5
24A4
 10
44.1296
 20
36.3701
 30
0.00000
  70
    32
  0
VERTEX
  8
0
  5
24A5
 10
44.3101
 20
36.4616
 30
0.00000
  70
    32
  0
VERTEX
  8
0
  5
24A6
 10
44.4841
 20
36.5546
 30
0.00000
  70
    32
  0
VERTEX
  8
0
  5
24A7
 10
44.6515
 20
36.6491
 30
0.00000
  70
    32
  0
VERTEX
  8
0
  5
24A8
 10
44.8122
 20
36.7450
 30
0.00000
  70
    32
  0
VERTEX
  8
0
  5
24A9
 10
44.9660
 20
36.8422
 30
0.00000
  70
    32
  0
VERTEX
  8
0
  5
24AA
 10
45.1129
 20
36.9407
 30
0.00000
  70
    32
  0
VERTEX
  8
0
  5
24AB
 10
45.2529
 20
37.0404
 30
0.00000
  70
    32
  0
VERTEX
  8
0
  5
24AC
 10
45.3857
 20
37.1413
 30
0.00000
  70
    32
  0
VERTEX
  8
0
  5
24AD
 10
45.5115
 20
37.2433
 30
0.00000
  70
    32
  0
VERTEX
  8
0
  5
24AE
 10
45.6299
 20
37.3463
 30
0.00000
  70
    32
  0
VERTEX
  8
0
  5
24AF
 10
45.7411
 20
37.4503
 30
0.00000
  70
    32
  0
VERTEX
  8
0
  5
24B0
 10
45.8449
 20
37.5553
 30
0.00000
  70
    32
  0
VERTEX
  8
0
  5
24B1
 10
45.9412
 20
37.6611
 30
0.00000
  70
    32
  0
VERTEX
  8
0
  5
24B2
 10
46.0301
 20
37.7676
 30
0.00000
  70
    32
  0
VERTEX
  8
0
  5
24B3
 10
46.1114
 20
37.8749
 30
0.00000
  70
    32
  0
VERTEX
  8
0
  5
24B4
 10
46.1851
 20
37.9829
 30
0.00000
  70
    32
  0
VERTEX
  8
0
  5
24B5
 10
46.2512
 20
38.0915
 30
0.00000
  70
    32
  0
VERTEX
  8
0
  5
24B6
 10
46.3096
 20
38.2006
 30
0.00000
  70
    32
  0
VERTEX
  8
0
  5
24B7
 10
46.3603
 20
38.3101
 30
0.00000
  70
    32
  0
VERTEX
  8
0
  5
24B8
 10
46.4033
 20
38.4201
 30
0.00000
  70
    32
  0
VERTEX
  8
0
  5
24B9
 10
46.4384
 20
38.5304
 30
0.00000
  70
    32
  0
VERTEX
  8
0
  5
24BA
 10
46.4658
 20
38.6409
 30
0.00000
  70
    32
  0
VERTEX
  8
0
  5
24BB
 10
46.4854
 20
38.7517
 30
0.00000
  70
    32
  0
VERTEX
  8
0
  5
24BC
 10
46.4971
 20
38.8626
 30
0.00000
  70
    32
  0
VERTEX
  8
0
  5
24BD
 10
46.5010
 20
38.9735
 30
0.00000
  70
    32
  0
SEQEND
  8
0
  5
24BE
  0
ARC
  5
506
  8
0
  6
CONTINUOUS
 62
     3
 10
33.5010199960670434
 20
22.9998660717392411
 30
0.0
 40
17.3249999999999993
 50
138.6216368673775889
 51
149.972087730667397
  0
ARC
  5
507
  8
0
  6
CONTINUOUS
 62
     3
 10
33.5010199960670434
 20
22.9998660717392411
 30
0.0
 40
17.3249999999999993
 50
30.0286445981752586
 51
41.3783631326223329
  0
ARC
  5
508
  8
0
  6
CONTINUOUS
 62
     3
 10
33.5010199960670434
 20
22.9998660717392411
 30
0.0
 40
23.0
 50
130.7057068309545969
 51
0.0
  0
ARC
  5
509
  8
0
  6
CONTINUOUS
 62
     3
 10
33.5010199960670434
 20
22.9998660717392411
 30
0.0
 40
23.0
 50
0.0
 51
49.2942931690454031
  0
ARC
  5
50A
  8
0
  6
CONTINUOUS
 62
     3
 10
38.5010199960670505
 20
196.1467278473427882
 30
0.0
 40
2.4999999998267408
 50
202.7990312720756094
 51
337.2009687279243053
  0
ARC
  5
50B
  8
0
  6
CONTINUOUS
 62
     3
 10
38.5010199960088428
 20
280.1467278445488773
 30
0.0
 40
84.999999997214573
 50
261.2025892887534155
 51
278.7974107112465845
  0
ARC
  5
50C
  8
0
  6
CONTINUOUS
 62
     3
 10
38.5010199962416735
 20
280.2498660723795183
 30
0.0
 40
77.2500000006403127
 50
254.8031619553796077
 51
285.1968380446203923
  0
ARC
  5
50D
  8
0
  6
CONTINUOUS
 62
     3
 10
9.3592666741460562
 20
215.2320168815203942
 30
0.0
 40
5.0
 50
199.9349903278609872
 51
245.8575246240177989
  0
ARC
  5
50E
  8
0
  6
CONTINUOUS
 62
     3
 10
38.5010199962416735
 20
280.2498660723795183
 30
0.0
 40
76.2500000006403127
 50
245.8575246240177989
 51
294.1424753759823147
  0
ARC
  5
50F
  8
0
  6
CONTINUOUS
 62
     3
 10
67.6427733179880306
 20
215.2320168814040073
 30
0.0
 40
5.0
 50
294.1424753759823147
 51
340.0650096721390128
  0
ARC
  5
510
  8
0
  6
CONTINUOUS
 62
     3
 10
9.3592666741460562
 20
220.2320168815786019
 30
0.0
 40
5.0
 50
182.6025622040141059
 51
245.8575246240177989
  0
ARC
  5
511
  8
0
  6
CONTINUOUS
 62
     3
 10
38.5010199962416735
 20
285.2498660723795183
 30
0.0
 40
76.2500000006403127
 50
245.8575246240177989
 51
294.1424753759823147
  0
ARC
  5
512
  8
0
  6
CONTINUOUS
 62
     3
 10
67.6427733179880306
 20
220.2320168814040073
 30
0.0
 40
5.0
 50
294.1424753759823147
 51
357.3974377959859225
  0
CIRCLE
  5
513
  8
0
  6
CONTINUOUS
 62
     3
 10
38.5010199960670505
 20
280.4998660717391772
 30
0.0
 40
2.4999999999986349
  0
LINE
  5
514
  8
0
  6
CONTINUOUS
 62
     3
 10
18.5010199960670398
 20
55.9998660717392269
 30
0.0
 11
20.5010199960670398
 21
55.9998660717392269
 31
0.0
  0
LINE
  5
515
  8
0
  6
CONTINUOUS
 62
     3
 10
48.5010199960670434
 20
55.9998660717392269
 30
0.0
 11
46.5010199960670434
 21
55.9998660717392269
 31
0.0
  0
LINE
  5
516
  8
0
  6
CONTINUOUS
 62
     3
 10
48.5010199960670434
 20
31.6698660717229394
 30
0.0
 11
48.5010199960670434
 21
55.9998660717392269
 31
0.0
  0
LINE
  5
517
  8
0
  6
CONTINUOUS
 62
     3
 10
18.5010199960670398
 20
31.6698660717229394
 30
0.0
 11
18.5010199960670398
 21
55.9998660717392269
 31
0.0
  0
LINE
  5
518
  8
0
  6
CONTINUOUS
 62
     3
 10
46.5010199960670434
 20
34.4521857053041529
 30
0.0
 11
46.5010199960670434
 21
195.5240358551382087
 31
0.0
  0
LINE
  5
519
  8
0
  6
CONTINUOUS
 62
     3
 10
20.5010199960670398
 20
34.4521857054787688
 30
0.0
 11
20.5010199960670398
 21
205.1262179974582978
 31
0.0
  0
LINE
  5
51A
  8
0
  6
CONTINUOUS
 62
     3
 10
20.5010199960670398
 20
38.9735320327454318
 30
0.0
 11
46.5010199960670434
 21
38.9735320327454318
 31
0.0
  0
LINE
  5
51B
  8
0
  6
CONTINUOUS
 62
     3
 10
1.501019996183458
 20
282.9998660717392909
 30
0.0
 11
0.0010199962416664
 21
282.9998660717392909
 31
0.0
  0
LINE
  5
51C
  8
0
  6
CONTINUOUS
 62
     3
 10
1.728292723302729
 20
277.9998660716810264
 30
0.0
 11
0.0010199960670434
 21
277.9998660716228187
 31
0.0
  0
LINE
  5
51D
  8
0
  6
CONTINUOUS
 62
     3
 10
0.0010199961834587
 20
277.9998660717391772
 30
0.0
 11
0.0010199962416664
 21
282.9998660717392909
 31
0.0
  0
LINE
  5
51E
  8
0
  6
CONTINUOUS
 62
     3
 10
75.2737472688313431
 20
277.9998660717391772
 30
0.0
 11
77.0010199958924204
 21
277.9998660717391772
 31
0.0
  0
LINE
  5
51F
  8
0
  6
CONTINUOUS
 62
     3
 10
75.5010199960670434
 20
282.9998660717392909
 30
0.0
 11
77.0010199959506139
 21
282.9998660717392909
 31
0.0
  0
LINE
  5
520
  8
0
  6
CONTINUOUS
 62
     3
 10
77.0010199958924204
 20
277.9998660717391772
 30
0.0
 11
77.0010199959506139
 21
282.9998660717392909
 31
0.0
  0
LINE
  5
521
  8
0
  6
CONTINUOUS
 62
     3
 10
25.5010199958342092
 20
196.1467278474009959
 30
0.0
 11
25.5010199960088393
 21
204.1015732478117002
 31
0.0
  0
LINE
  5
522
  8
0
  6
CONTINUOUS
 62
     3
 10
51.5010199960670434
 20
196.1467278473427882
 30
0.0
 11
51.5010199961252511
 21
204.1015732477534925
 31
0.0
  0
LINE
  5
523
  8
0
  6
CONTINUOUS
 62
     3
 10
58.7510199960670434
 20
205.7012242329655862
 30
0.0
 11
58.7510199960670434
 21
206.7379622737061879
 31
0.0
  0
LINE
  5
524
  8
0
  6
CONTINUOUS
 62
     3
 10
18.2510199960670398
 20
205.7012242330237939
 30
0.0
 11
18.2510199960670398
 21
206.7379622738226033
 31
0.0
  0
LINE
  5
525
  8
0
  6
CONTINUOUS
 62
     3
 10
75.5010199960670434
 20
282.9998660717392909
 30
0.0
 11
72.3431737335049547
 21
213.5272482947912067
 31
0.0
  0
LINE
  5
526
  8
0
  6
CONTINUOUS
 62
     3
 10
1.5010199960670429
 20
282.9998660717392909
 30
0.0
 11
4.6588662586291321
 21
213.5272482949075936
 31
0.0
  0
LINE
  5
527
  8
0
  6
CONTINUOUS
 62
     3
 10
73.5010199960670434
 20
286.9998660717391772
 30
0.0
 11
73.5010199960670434
 21
288.9998660717391772
 31
0.0
  0
LINE
  5
528
  8
0
  6
CONTINUOUS
 62
     3
 10
1.5010199960670429
 20
282.9998660717392909
 30
0.0
 11
1.5010199960670429
 21
284.741866071766708
 31
0.0
  0
LINE
  5
529
  8
0
  6
CONTINUOUS
 62
     3
 10
75.5010199960670434
 20
286.9998660717391772
 30
0.0
 11
65.5008369963034056
 21
286.9998660717391772
 31
0.0
  0
LINE
  5
52A
  8
0
  6
CONTINUOUS
 62
     3
 10
75.5010199960670434
 20
282.9998660717392909
 30
0.0
 11
75.5010199960670434
 21
286.9998660717391772
 31
0.0
  0
ENDBLK
  5
52B
  8
0
 62
     4
  0
BLOCK
  8
0
 62
     4
  2
A$C06D866C6
 70
     0
 10
0.0
 20
0.0
 30
0.0
  3
A$C06D866C6
  1

  0
POLYLINE
  5
530
  8
0
  6
CONTINUOUS
 62
     3
 10
20.499162981556772
 20
38.9735320327428809
 30
0.0
 66
     1
 70
     8
  0
VERTEX
  8
0
  5
24BF
 10
20.4992
 20
38.9735
 30
0.00000
  70
    32
  0
VERTEX
  8
0
  5
24C0
 10
20.5031
 20
38.8626
 30
0.00000
  70
    32
  0
VERTEX
  8
0
  5
24C1
 10
20.5148
 20
38.7517
 30
0.00000
  70
    32
  0
VERTEX
  8
0
  5
24C2
 10
20.5344
 20
38.6409
 30
0.00000
  70
    32
  0
VERTEX
  8
0
  5
24C3
 10
20.5618
 20
38.5304
 30
0.00000
  70
    32
  0
VERTEX
  8
0
  5
24C4
 10
20.5969
 20
38.4201
 30
0.00000
  70
    32
  0
VERTEX
  8
0
  5
24C5
 10
20.6399
 20
38.3101
 30
0.00000
  70
    32
  0
VERTEX
  8
0
  5
24C6
 10
20.6906
 20
38.2006
 30
0.00000
  70
    32
  0
VERTEX
  8
0
  5
24C7
 10
20.7490
 20
38.0915
 30
0.00000
  70
    32
  0
VERTEX
  8
0
  5
24C8
 10
20.8150
 20
37.9829
 30
0.00000
  70
    32
  0
VERTEX
  8
0
  5
24C9
 10
20.8888
 20
37.8749
 30
0.00000
  70
    32
  0
VERTEX
  8
0
  5
24CA
 10
20.9701
 20
37.7676
 30
0.00000
  70
    32
  0
VERTEX
  8
0
  5
24CB
 10
21.0589
 20
37.6611
 30
0.00000
  70
    32
  0
VERTEX
  8
0
  5
24CC
 10
21.1553
 20
37.5553
 30
0.00000
  70
    32
  0
VERTEX
  8
0
  5
24CD
 10
21.2591
 20
37.4503
 30
0.00000
  70
    32
  0
VERTEX
  8
0
  5
24CE
 10
21.3703
 20
37.3463
 30
0.00000
  70
    32
  0
VERTEX
  8
0
  5
24CF
 10
21.4887
 20
37.2433
 30
0.00000
  70
    32
  0
VERTEX
  8
0
  5
24D0
 10
21.6144
 20
37.1413
 30
0.00000
  70
    32
  0
VERTEX
  8
0
  5
24D1
 10
21.7473
 20
37.0404
 30
0.00000
  70
    32
  0
VERTEX
  8
0
  5
24D2
 10
21.8872
 20
36.9407
 30
0.00000
  70
    32
  0
VERTEX
  8
0
  5
24D3
 10
22.0342
 20
36.8422
 30
0.00000
  70
    32
  0
VERTEX
  8
0
  5
24D4
 10
22.1880
 20
36.7450
 30
0.00000
  70
    32
  0
VERTEX
  8
0
  5
24D5
 10
22.3487
 20
36.6491
 30
0.00000
  70
    32
  0
VERTEX
  8
0
  5
24D6
 10
22.5161
 20
36.5546
 30
0.00000
  70
    32
  0
VERTEX
  8
0
  5
24D7
 10
22.6901
 20
36.4616
 30
0.00000
  70
    32
  0
VERTEX
  8
0
  5
24D8
 10
22.8706
 20
36.3701
 30
0.00000
  70
    32
  0
VERTEX
  8
0
  5
24D9
 10
23.0575
 20
36.2802
 30
0.00000
  70
    32
  0
VERTEX
  8
0
  5
24DA
 10
23.2507
 20
36.1919
 30
0.00000
  70
    32
  0
VERTEX
  8
0
  5
24DB
 10
23.4500
 20
36.1052
 30
0.00000
  70
    32
  0
VERTEX
  8
0
  5
24DC
 10
23.6554
 20
36.0203
 30
0.00000
  70
    32
  0
VERTEX
  8
0
  5
24DD
 10
23.8668
 20
35.9372
 30
0.00000
  70
    32
  0
VERTEX
  8
0
  5
24DE
 10
24.0840
 20
35.8559
 30
0.00000
  70
    32
  0
VERTEX
  8
0
  5
24DF
 10
24.3068
 20
35.7765
 30
0.00000
  70
    32
  0
VERTEX
  8
0
  5
24E0
 10
24.5351
 20
35.6990
 30
0.00000
  70
    32
  0
VERTEX
  8
0
  5
24E1
 10
24.7689
 20
35.6234
 30
0.00000
  70
    32
  0
VERTEX
  8
0
  5
24E2
 10
25.0079
 20
35.5499
 30
0.00000
  70
    32
  0
VERTEX
  8
0
  5
24E3
 10
25.2521
 20
35.4785
 30
0.00000
  70
    32
  0
VERTEX
  8
0
  5
24E4
 10
25.5012
 20
35.4091
 30
0.00000
  70
    32
  0
VERTEX
  8
0
  5
24E5
 10
25.7551
 20
35.3420
 30
0.00000
  70
    32
  0
VERTEX
  8
0
  5
24E6
 10
26.0137
 20
35.2769
 30
0.00000
  70
    32
  0
VERTEX
  8
0
  5
24E7
 10
26.2767
 20
35.2142
 30
0.00000
  70
    32
  0
VERTEX
  8
0
  5
24E8
 10
26.5442
 20
35.1537
 30
0.00000
  70
    32
  0
VERTEX
  8
0
  5
24E9
 10
26.8158
 20
35.0954
 30
0.00000
  70
    32
  0
VERTEX
  8
0
  5
24EA
 10
27.0915
 20
35.0396
 30
0.00000
  70
    32
  0
VERTEX
  8
0
  5
24EB
 10
27.3710
 20
34.9861
 30
0.00000
  70
    32
  0
VERTEX
  8
0
  5
24EC
 10
27.6542
 20
34.9350
 30
0.00000
  70
    32
  0
VERTEX
  8
0
  5
24ED
 10
27.9409
 20
34.8863
 30
0.00000
  70
    32
  0
VERTEX
  8
0
  5
24EE
 10
28.2310
 20
34.8401
 30
0.00000
  70
    32
  0
VERTEX
  8
0
  5
24EF
 10
28.5243
 20
34.7964
 30
0.00000
  70
    32
  0
VERTEX
  8
0
  5
24F0
 10
28.8205
 20
34.7551
 30
0.00000
  70
    32
  0
VERTEX
  8
0
  5
24F1
 10
29.1196
 20
34.7165
 30
0.00000
  70
    32
  0
VERTEX
  8
0
  5
24F2
 10
29.4213
 20
34.6804
 30
0.00000
  70
    32
  0
VERTEX
  8
0
  5
24F3
 10
29.7255
 20
34.6469
 30
0.00000
  70
    32
  0
VERTEX
  8
0
  5
24F4
 10
30.0319
 20
34.6160
 30
0.00000
  70
    32
  0
VERTEX
  8
0
  5
24F5
 10
30.3404
 20
34.5877
 30
0.00000
  70
    32
  0
VERTEX
  8
0
  5
24F6
 10
30.6508
 20
34.5620
 30
0.00000
  70
    32
  0
VERTEX
  8
0
  5
24F7
 10
30.9630
 20
34.5391
 30
0.00000
  70
    32
  0
VERTEX
  8
0
  5
24F8
 10
31.2767
 20
34.5188
 30
0.00000
  70
    32
  0
VERTEX
  8
0
  5
24F9
 10
31.5917
 20
34.5011
 30
0.00000
  70
    32
  0
VERTEX
  8
0
  5
24FA
 10
31.9078
 20
34.4862
 30
0.00000
  70
    32
  0
VERTEX
  8
0
  5
24FB
 10
32.2249
 20
34.4740
 30
0.00000
  70
    32
  0
VERTEX
  8
0
  5
24FC
 10
32.5428
 20
34.4644
 30
0.00000
  70
    32
  0
VERTEX
  8
0
  5
24FD
 10
32.8613
 20
34.4576
 30
0.00000
  70
    32
  0
VERTEX
  8
0
  5
24FE
 10
33.1801
 20
34.4535
 30
0.00000
  70
    32
  0
VERTEX
  8
0
  5
24FF
 10
33.4992
 20
34.4522
 30
0.00000
  70
    32
  0
VERTEX
  8
0
  5
2500
 10
33.8182
 20
34.4535
 30
0.00000
  70
    32
  0
VERTEX
  8
0
  5
2501
 10
34.1370
 20
34.4576
 30
0.00000
  70
    32
  0
VERTEX
  8
0
  5
2502
 10
34.4555
 20
34.4644
 30
0.00000
  70
    32
  0
VERTEX
  8
0
  5
2503
 10
34.7734
 20
34.4740
 30
0.00000
  70
    32
  0
VERTEX
  8
0
  5
2504
 10
35.0905
 20
34.4862
 30
0.00000
  70
    32
  0
VERTEX
  8
0
  5
2505
 10
35.4067
 20
34.5011
 30
0.00000
  70
    32
  0
VERTEX
  8
0
  5
2506
 10
35.7217
 20
34.5188
 30
0.00000
  70
    32
  0
VERTEX
  8
0
  5
2507
 10
36.0353
 20
34.5391
 30
0.00000
  70
    32
  0
VERTEX
  8
0
  5
2508
 10
36.3475
 20
34.5620
 30
0.00000
  70
    32
  0
VERTEX
  8
0
  5
2509
 10
36.6579
 20
34.5877
 30
0.00000
  70
    32
  0
VERTEX
  8
0
  5
250A
 10
36.9664
 20
34.6160
 30
0.00000
  70
    32
  0
VERTEX
  8
0
  5
250B
 10
37.2729
 20
34.6469
 30
0.00000
  70
    32
  0
VERTEX
  8
0
  5
250C
 10
37.5770
 20
34.6804
 30
0.00000
  70
    32
  0
VERTEX
  8
0
  5
250D
 10
37.8787
 20
34.7165
 30
0.00000
  70
    32
  0
VERTEX
  8
0
  5
250E
 10
38.1778
 20
34.7551
 30
0.00000
  70
    32
  0
VERTEX
  8
0
  5
250F
 10
38.4740
 20
34.7964
 30
0.00000
  70
    32
  0
VERTEX
  8
0
  5
2510
 10
38.7673
 20
34.8401
 30
0.00000
  70
    32
  0
VERTEX
  8
0
  5
2511
 10
39.0574
 20
34.8863
 30
0.00000
  70
    32
  0
VERTEX
  8
0
  5
2512
 10
39.3441
 20
34.9350
 30
0.00000
  70
    32
  0
VERTEX
  8
0
  5
2513
 10
39.6273
 20
34.9861
 30
0.00000
  70
    32
  0
VERTEX
  8
0
  5
2514
 10
39.9068
 20
35.0396
 30
0.00000
  70
    32
  0
VERTEX
  8
0
  5
2515
 10
40.1825
 20
35.0954
 30
0.00000
  70
    32
  0
VERTEX
  8
0
  5
2516
 10
40.4541
 20
35.1537
 30
0.00000
  70
    32
  0
VERTEX
  8
0
  5
2517
 10
40.7216
 20
35.2142
 30
0.00000
  70
    32
  0
VERTEX
  8
0
  5
2518
 10
40.9847
 20
35.2769
 30
0.00000
  70
    32
  0
VERTEX
  8
0
  5
2519
 10
41.2433
 20
35.3420
 30
0.00000
  70
    32
  0
VERTEX
  8
0
  5
251A
 10
41.4972
 20
35.4091
 30
0.00000
  70
    32
  0
VERTEX
  8
0
  5
251B
 10
41.7463
 20
35.4785
 30
0.00000
  70
    32
  0
VERTEX
  8
0
  5
251C
 10
41.9904
 20
35.5499
 30
0.00000
  70
    32
  0
VERTEX
  8
0
  5
251D
 10
42.2294
 20
35.6234
 30
0.00000
  70
    32
  0
VERTEX
  8
0
  5
251E
 10
42.4632
 20
35.6990
 30
0.00000
  70
    32
  0
VERTEX
  8
0
  5
251F
 10
42.6916
 20
35.7765
 30
0.00000
  70
    32
  0
VERTEX
  8
0
  5
2520
 10
42.9144
 20
35.8559
 30
0.00000
  70
    32
  0
VERTEX
  8
0
  5
2521
 10
43.1315
 20
35.9372
 30
0.00000
  70
    32
  0
VERTEX
  8
0
  5
2522
 10
43.3429
 20
36.0203
 30
0.00000
  70
    32
  0
VERTEX
  8
0
  5
2523
 10
43.5483
 20
36.1052
 30
0.00000
  70
    32
  0
VERTEX
  8
0
  5
2524
 10
43.7477
 20
36.1919
 30
0.00000
  70
    32
  0
VERTEX
  8
0
  5
2525
 10
43.9409
 20
36.2802
 30
0.00000
  70
    32
  0
VERTEX
  8
0
  5
2526
 10
44.1278
 20
36.3701
 30
0.00000
  70
    32
  0
VERTEX
  8
0
  5
2527
 10
44.3083
 20
36.4616
 30
0.00000
  70
    32
  0
VERTEX
  8
0
  5
2528
 10
44.4823
 20
36.5546
 30
0.00000
  70
    32
  0
VERTEX
  8
0
  5
2529
 10
44.6496
 20
36.6491
 30
0.00000
  70
    32
  0
VERTEX
  8
0
  5
252A
 10
44.8103
 20
36.7450
 30
0.00000
  70
    32
  0
VERTEX
  8
0
  5
252B
 10
44.9641
 20
36.8422
 30
0.00000
  70
    32
  0
VERTEX
  8
0
  5
252C
 10
45.1111
 20
36.9407
 30
0.00000
  70
    32
  0
VERTEX
  8
0
  5
252D
 10
45.2510
 20
37.0404
 30
0.00000
  70
    32
  0
VERTEX
  8
0
  5
252E
 10
45.3839
 20
37.1413
 30
0.00000
  70
    32
  0
VERTEX
  8
0
  5
252F
 10
45.5096
 20
37.2433
 30
0.00000
  70
    32
  0
VERTEX
  8
0
  5
2530
 10
45.6281
 20
37.3463
 30
0.00000
  70
    32
  0
VERTEX
  8
0
  5
2531
 10
45.7392
 20
37.4503
 30
0.00000
  70
    32
  0
VERTEX
  8
0
  5
2532
 10
45.8430
 20
37.5553
 30
0.00000
  70
    32
  0
VERTEX
  8
0
  5
2533
 10
45.9394
 20
37.6611
 30
0.00000
  70
    32
  0
VERTEX
  8
0
  5
2534
 10
46.0283
 20
37.7676
 30
0.00000
  70
    32
  0
VERTEX
  8
0
  5
2535
 10
46.1096
 20
37.8749
 30
0.00000
  70
    32
  0
VERTEX
  8
0
  5
2536
 10
46.1833
 20
37.9829
 30
0.00000
  70
    32
  0
VERTEX
  8
0
  5
2537
 10
46.2494
 20
38.0915
 30
0.00000
  70
    32
  0
VERTEX
  8
0
  5
2538
 10
46.3078
 20
38.2006
 30
0.00000
  70
    32
  0
VERTEX
  8
0
  5
2539
 10
46.3585
 20
38.3101
 30
0.00000
  70
    32
  0
VERTEX
  8
0
  5
253A
 10
46.4014
 20
38.4201
 30
0.00000
  70
    32
  0
VERTEX
  8
0
  5
253B
 10
46.4366
 20
38.5304
 30
0.00000
  70
    32
  0
VERTEX
  8
0
  5
253C
 10
46.4639
 20
38.6409
 30
0.00000
  70
    32
  0
VERTEX
  8
0
  5
253D
 10
46.4835
 20
38.7517
 30
0.00000
  70
    32
  0
VERTEX
  8
0
  5
253E
 10
46.4952
 20
38.8626
 30
0.00000
  70
    32
  0
VERTEX
  8
0
  5
253F
 10
46.4992
 20
38.9735
 30
0.00000
  70
    32
  0
SEQEND
  8
0
  5
2540
  0
ARC
  5
531
  8
0
  6
CONTINUOUS
 62
     3
 10
33.4991629815776903
 20
22.9998660717392411
 30
0.0
 40
17.3249999999999993
 50
138.6216368673775889
 51
149.972087730667397
  0
ARC
  5
532
  8
0
  6
CONTINUOUS
 62
     3
 10
33.4991629815776903
 20
22.9998660717392411
 30
0.0
 40
17.3249999999999993
 50
30.0286445981752586
 51
41.3783631326223329
  0
ARC
  5
533
  8
0
  6
CONTINUOUS
 62
     3
 10
33.4991629815776903
 20
22.9998660717392411
 30
0.0
 40
23.0
 50
130.7057068309545969
 51
0.0
  0
ARC
  5
534
  8
0
  6
CONTINUOUS
 62
     3
 10
33.4991629815776903
 20
22.9998660717392411
 30
0.0
 40
23.0
 50
0.0
 51
49.2942931690454031
  0
ARC
  5
535
  8
0
  6
CONTINUOUS
 62
     3
 10
38.4991629815776903
 20
196.1467278473427882
 30
0.0
 40
2.4999999998267408
 50
202.7990312720756094
 51
337.2009687279243053
  0
ARC
  5
536
  8
0
  6
CONTINUOUS
 62
     3
 10
38.4991629815194827
 20
280.1467278445488773
 30
0.0
 40
84.999999997214573
 50
261.2025892887534155
 51
278.7974107112465845
  0
ARC
  5
537
  8
0
  6
CONTINUOUS
 62
     3
 10
38.4991629817522991
 20
280.2498660723795183
 30
0.0
 40
77.2500000006403127
 50
254.8031619553796077
 51
285.1968380446203923
  0
ARC
  5
538
  8
0
  6
CONTINUOUS
 62
     3
 10
9.357409659656696
 20
215.2320168815203942
 30
0.0
 40
5.0
 50
199.9349903278609872
 51
245.8575246240177989
  0
ARC
  5
539
  8
0
  6
CONTINUOUS
 62
     3
 10
38.4991629817522991
 20
280.2498660723795183
 30
0.0
 40
76.2500000006403127
 50
245.8575246240177989
 51
294.1424753759823147
  0
ARC
  5
53A
  8
0
  6
CONTINUOUS
 62
     3
 10
67.6409163034986705
 20
215.2320168814040073
 30
0.0
 40
5.0
 50
294.1424753759823147
 51
340.0650096721390128
  0
ARC
  5
53B
  8
0
  6
CONTINUOUS
 62
     3
 10
9.357409659656696
 20
220.2320168815786019
 30
0.0
 40
5.0
 50
182.6025622040141059
 51
245.8575246240177989
  0
ARC
  5
53C
  8
0
  6
CONTINUOUS
 62
     3
 10
38.4991629817522991
 20
285.2498660723795183
 30
0.0
 40
76.2500000006403127
 50
245.8575246240177989
 51
294.1424753759823147
  0
ARC
  5
53D
  8
0
  6
CONTINUOUS
 62
     3
 10
67.6409163034986705
 20
220.2320168814040073
 30
0.0
 40
5.0
 50
294.1424753759823147
 51
357.3974377959859225
  0
CIRCLE
  5
53E
  8
0
  6
CONTINUOUS
 62
     3
 10
38.4991629815776903
 20
280.4998660717391772
 30
0.0
 40
2.4999999999986349
  0
LINE
  5
53F
  8
0
  6
CONTINUOUS
 62
     3
 10
18.4991629815776797
 20
55.9998660717392269
 30
0.0
 11
20.4991629815776797
 21
55.9998660717392269
 31
0.0
  0
LINE
  5
540
  8
0
  6
CONTINUOUS
 62
     3
 10
48.4991629815776903
 20
55.9998660717392269
 30
0.0
 11
46.4991629815776832
 21
55.9998660717392269
 31
0.0
  0
LINE
  5
541
  8
0
  6
CONTINUOUS
 62
     3
 10
48.4991629815776903
 20
31.6698660717229394
 30
0.0
 11
48.4991629815776903
 21
55.9998660717392269
 31
0.0
  0
LINE
  5
542
  8
0
  6
CONTINUOUS
 62
     3
 10
18.4991629815776797
 20
31.6698660717229394
 30
0.0
 11
18.4991629815776797
 21
55.9998660717392269
 31
0.0
  0
LINE
  5
543
  8
0
  6
CONTINUOUS
 62
     3
 10
46.4991629815776832
 20
34.4521857053041529
 30
0.0
 11
46.4991629815776832
 21
195.5240358551382087
 31
0.0
  0
LINE
  5
544
  8
0
  6
CONTINUOUS
 62
     3
 10
20.4991629815776797
 20
34.4521857054787688
 30
0.0
 11
20.4991629815776797
 21
205.1262179974582978
 31
0.0
  0
LINE
  5
545
  8
0
  6
CONTINUOUS
 62
     3
 10
20.4991629815776797
 20
38.9735320327454318
 30
0.0
 11
46.4991629815776832
 21
38.9735320327454318
 31
0.0
  0
LINE
  5
546
  8
0
  6
CONTINUOUS
 62
     3
 10
1.4991629816940979
 20
282.9998660717392909
 30
0.0
 11
-0.0008370182476938
 21
282.9998660717392909
 31
0.0
  0
LINE
  5
547
  8
0
  6
CONTINUOUS
 62
     3
 10
1.7264357088133691
 20
277.9998660716810264
 30
0.0
 11
-0.0008370184223168
 21
277.9998660716228187
 31
0.0
  0
LINE
  5
548
  8
0
  6
CONTINUOUS
 62
     3
 10
-0.0008370183059014
 20
277.9998660717391772
 30
0.0
 11
-0.0008370182476938
 21
282.9998660717392909
 31
0.0
  0
LINE
  5
549
  8
0
  6
CONTINUOUS
 62
     3
 10
75.2718902543419972
 20
277.9998660717391772
 30
0.0
 11
76.9991629814030603
 21
277.9998660717391772
 31
0.0
  0
LINE
  5
54A
  8
0
  6
CONTINUOUS
 62
     3
 10
75.4991629815776832
 20
282.9998660717392909
 30
0.0
 11
76.9991629814612679
 21
282.9998660717392909
 31
0.0
  0
LINE
  5
54B
  8
0
  6
CONTINUOUS
 62
     3
 10
76.9991629814030603
 20
277.9998660717391772
 30
0.0
 11
76.9991629814612679
 21
282.9998660717392909
 31
0.0
  0
LINE
  5
54C
  8
0
  6
CONTINUOUS
 62
     3
 10
25.4991629813448597
 20
196.1467278474009959
 30
0.0
 11
25.4991629815194791
 21
204.1015732478117002
 31
0.0
  0
LINE
  5
54D
  8
0
  6
CONTINUOUS
 62
     3
 10
51.4991629815776832
 20
196.1467278473427882
 30
0.0
 11
51.4991629816358909
 21
204.1015732477534925
 31
0.0
  0
LINE
  5
54E
  8
0
  6
CONTINUOUS
 62
     3
 10
58.7491629815776832
 20
205.7012242329655862
 30
0.0
 11
58.7491629815776832
 21
206.7379622737061879
 31
0.0
  0
LINE
  5
54F
  8
0
  6
CONTINUOUS
 62
     3
 10
18.2491629815776797
 20
205.7012242330237939
 30
0.0
 11
18.2491629815776797
 21
206.7379622738226033
 31
0.0
  0
LINE
  5
550
  8
0
  6
CONTINUOUS
 62
     3
 10
75.4991629815776832
 20
282.9998660717392909
 30
0.0
 11
72.3413167190155946
 21
213.5272482947912067
 31
0.0
  0
LINE
  5
551
  8
0
  6
CONTINUOUS
 62
     3
 10
1.499162981577683
 20
282.9998660717392909
 30
0.0
 11
4.657009244139771
 21
213.5272482949075936
 31
0.0
  0
LINE
  5
552
  8
0
  6
CONTINUOUS
 62
     3
 10
73.4991629815776832
 20
286.9998660717391772
 30
0.0
 11
73.4991629815776832
 21
288.9998660717391772
 31
0.0
  0
LINE
  5
553
  8
0
  6
CONTINUOUS
 62
     3
 10
3.4991629815776828
 20
286.9998660717391772
 30
0.0
 11
3.4991629815776828
 21
288.9998660717391772
 31
0.0
  0
LINE
  5
554
  8
0
  6
CONTINUOUS
 62
     3
 10
1.499162981577683
 20
282.9998660717392909
 30
0.0
 11
1.499162981577683
 21
286.9998660717391772
 31
0.0
  0
LINE
  5
555
  8
0
  6
CONTINUOUS
 62
     3
 10
11.4991019808803703
 20
286.9998660717391772
 30
0.0
 11
1.499162981577683
 21
286.9998660717391772
 31
0.0
  0
LINE
  5
556
  8
0
  6
CONTINUOUS
 62
     3
 10
75.4991629815776832
 20
282.9998660717392909
 30
0.0
 11
75.4991629815776832
 21
284.741866071766708
 31
0.0
  0
ENDBLK
  5
557
  8
0
 62
     4
  0
BLOCK
  8
0
 62
     4
  2
A$C4FD37710
 70
     0
 10
0.0
 20
0.0
 30
0.0
  3
A$C4FD37710
  1

  0
CIRCLE
  5
55C
  8
0
 62
     4
 10
50.0015907141496427
 20
50.0001173253403977
 30
0.0
 40
40.0
  0
CIRCLE
  5
55D
  8
0
 62
     4
 10
50.0015907141496427
 20
50.0001173253403977
 30
0.0
 40
50.0
  0
LINE
  5
55E
  8
0
 62
     1
 10
20.0015907141496392
 20
76.4576304359943606
 30
0.0
 11
20.0015907141496392
 21
23.5426042146864383
 31
0.0
  0
LINE
  5
55F
  8
0
 62
     1
 10
30.0015907141496498
 20
84.6407423253403977
 30
0.0
 11
30.0015907141496498
 21
15.3594923253403994
 31
0.0
  0
LINE
  5
560
  8
0
 62
     1
 10
40.0015907141496427
 20
88.7299507873831317
 30
0.0
 11
40.0015907141496427
 21
11.2702838632394506
 31
0.0
  0
LINE
  5
561
  8
0
 62
     1
 10
50.0015907141496427
 20
90.0001173253403834
 30
0.0
 11
50.0015907141496427
 21
10.0001173253403994
 31
0.0
  0
LINE
  5
562
  8
0
 62
     1
 10
60.0015907141496427
 20
88.7299507873831317
 30
0.0
 11
60.0015907141496427
 21
11.2702838632394506
 31
0.0
  0
LINE
  5
563
  8
0
 62
     1
 10
70.0015907141496427
 20
84.6407423253403977
 30
0.0
 11
70.0015907141496427
 21
15.3591011739335901
 31
0.0
  0
LINE
  5
564
  8
0
 62
     1
 10
80.0015907141496427
 20
74.6407423253403977
 30
0.0
 11
80.0015907141496427
 21
23.5426042146864383
 31
0.0
  0
ENDBLK
  5
565
  8
0
 62
     4
  0
BLOCK
  8
0
 62
     7
  2
A$C76071F4B
 70
     0
 10
0.0
 20
0.0
 30
0.0
  3
A$C76071F4B
  1

  0
LINE
  5
594
  8
0
  6
HIDDEN2
 62
     4
 10
71.000011077059753
 20
64.999993486871972
 30
0.0
 11
71.000011077059753
 21
43.999993486871972
 31
0.0
  0
LINE
  5
595
  8
0
  6
HIDDEN2
 62
     4
 10
41.500011077059753
 20
72.499993486871972
 30
0.0
 11
54.5000110770597601
 21
72.499993486871972
 31
0.0
  0
LINE
  5
596
  8
0
  6
HIDDEN2
 62
     4
 10
54.5000110770597601
 20
36.499993486871972
 30
0.0
 11
41.500011077059753
 21
36.499993486871972
 31
0.0
  0
LINE
  5
597
  8
0
  6
HIDDEN2
 62
     4
 10
54.5000110770597601
 20
36.499993486871972
 30
0.0
 11
54.5000110770597601
 21
72.499993486871972
 31
0.0
  0
LINE
  5
598
  8
0
  6
HIDDEN2
 62
     4
 10
41.500011077059753
 20
36.499993486871972
 30
0.0
 11
41.500011077059753
 21
72.499993486871972
 31
0.0
  0
LINE
  5
599
  8
0
  6
HIDDEN2
 62
     4
 10
71.000011077059753
 20
63.7999934868712515
 30
0.0
 11
54.5000110770597601
 21
63.7999934868712515
 31
0.0
  0
LINE
  5
59A
  8
0
  6
HIDDEN2
 62
     4
 10
71.000011077059753
 20
64.999993486871972
 30
0.0
 11
54.5000110770597601
 21
64.999993486871972
 31
0.0
  0
LINE
  5
59B
  8
0
  6
HIDDEN2
 62
     4
 10
71.000011077059753
 20
45.1999934868708806
 30
0.0
 11
54.5000110770597601
 21
45.1999934868708806
 31
0.0
  0
LINE
  5
59C
  8
0
  6
HIDDEN2
 62
     4
 10
71.000011077059753
 20
43.999993486871972
 30
0.0
 11
54.5000110770602078
 21
43.999993486871972
 31
0.0
  0
LINE
  5
59D
  8
0
  6
HIDDEN2
 62
     4
 10
32.0000110770597601
 20
37.999993486871972
 30
0.0
 11
41.500011077059753
 21
37.999993486871972
 31
0.0
  0
LINE
  5
59E
  8
0
  6
HIDDEN2
 62
     4
 10
6.000011077059753
 20
42.7846189730116677
 30
0.0
 11
6.000011077059753
 21
34.999993486871972
 31
0.0
  0
LINE
  5
59F
  8
0
  6
HIDDEN2
 62
     4
 10
32.0000110770597601
 20
42.7846189730116677
 30
0.0
 11
32.0000110770597601
 21
34.999993486871972
 31
0.0
  0
LINE
  5
5A0
  8
0
  6
HIDDEN2
 62
     4
 10
32.500011077059753
 20
54.499993486871972
 30
0.0
 11
32.500011077059753
 21
73.999993486871972
 31
0.0
  0
LINE
  5
5A1
  8
0
  6
HIDDEN2
 62
     4
 10
29.5000110770597601
 20
73.999993486871972
 30
0.0
 11
29.5000110770597601
 21
93.999993486871972
 31
0.0
  0
LINE
  5
5A2
  8
0
  6
HIDDEN2
 62
     4
 10
28.3000110770599385
 20
73.999993486871972
 30
0.0
 11
28.3000110770599385
 21
93.999993486871972
 31
0.0
  0
LINE
  5
5A3
  8
0
  6
HIDDEN2
 62
     4
 10
5.500011077059753
 20
73.999993486871972
 30
0.0
 11
32.500011077059753
 21
73.999993486871972
 31
0.0
  0
LINE
  5
5A4
  8
0
  6
HIDDEN2
 62
     4
 10
5.500011077059753
 20
73.999993486871972
 30
0.0
 11
5.500011077059753
 21
54.499993486871972
 31
0.0
  0
LINE
  5
5A5
  8
0
  6
HIDDEN2
 62
     4
 10
8.500011077059753
 20
93.999993486871972
 30
0.0
 11
29.5000110770597601
 21
93.999993486871972
 31
0.0
  0
LINE
  5
5A6
  8
0
  6
HIDDEN2
 62
     4
 10
8.500011077059753
 20
93.999993486871972
 30
0.0
 11
8.500011077059753
 21
73.999993486871972
 31
0.0
  0
LINE
  5
5A7
  8
0
  6
HIDDEN2
 62
     4
 10
9.7000110770600259
 20
93.999993486871972
 30
0.0
 11
9.7000110770600259
 21
73.999993486871972
 31
0.0
  0
LINE
  5
5A8
  8
0
  6
HIDDEN2
 62
     4
 10
32.500011077059753
 20
70.999993486871972
 30
0.0
 11
41.500011077059753
 21
70.999993486871972
 31
0.0
  0
LINE
  5
5A9
  8
0
  6
HIDDEN2
 62
     4
 10
29.4550110770601385
 20
15.9999934868719702
 30
0.0
 11
28.4550110770601314
 21
14.9999934868719702
 31
0.0
  0
LINE
  5
5AA
  8
0
  6
HIDDEN2
 62
     4
 10
28.4550110770601314
 20
14.9999934868719702
 30
0.0
 11
9.5000110770602078
 21
14.9999934868719702
 31
0.0
  0
LINE
  5
5AB
  8
0
  6
HIDDEN2
 62
     4
 10
9.5000110770602078
 20
14.9999934868719702
 30
0.0
 11
8.5000110770602078
 21
15.9999934868719702
 31
0.0
  0
LINE
  5
5AC
  8
0
  6
HIDDEN2
 62
     4
 10
32.4775110770597166
 20
34.999993486871972
 30
0.0
 11
5.4775110770597157
 21
34.999993486871972
 31
0.0
  0
LINE
  5
5AD
  8
0
  6
HIDDEN2
 62
     4
 10
3.000011077059753
 20
31.9999934868719684
 30
0.0
 11
3.000011077059753
 21
32.999993486871972
 31
0.0
  0
LINE
  5
5AE
  8
0
  6
HIDDEN2
 62
     4
 10
35.000011077059753
 20
31.9999934868719684
 30
0.0
 11
35.000011077059753
 21
32.999993486871972
 31
0.0
  0
LINE
  5
5AF
  8
0
  6
HIDDEN2
 62
     4
 10
29.4550110770596802
 20
26.9999934868719684
 30
0.0
 11
29.4550110770601385
 21
15.9999934868719702
 31
0.0
  0
LINE
  5
5B0
  8
0
  6
HIDDEN2
 62
     4
 10
28.2930110770603314
 20
26.9999934868719684
 30
0.0
 11
28.2930110770603314
 21
14.9999934868719702
 31
0.0
  0
LINE
  5
5B1
  8
0
  6
HIDDEN2
 62
     4
 10
9.6620110770600132
 20
26.9999934868719684
 30
0.0
 11
9.6620110770600132
 21
14.9999934868719702
 31
0.0
  0
LINE
  5
5B2
  8
0
  6
HIDDEN2
 62
     4
 10
8.5000110770602078
 20
26.9999934868719684
 30
0.0
 11
8.5000110770602078
 21
15.9999934868719702
 31
0.0
  0
LINE
  5
5B3
  8
0
  6
HIDDEN2
 62
     4
 10
7.000011077059753
 20
31.9999934868719684
 30
0.0
 11
7.000011077059753
 21
26.9999934868719684
 31
0.0
  0
LINE
  5
5B4
  8
0
  6
HIDDEN2
 62
     4
 10
31.0000110770597495
 20
31.9999934868719684
 30
0.0
 11
31.0000110770597495
 21
26.9999934868719684
 31
0.0
  0
LINE
  5
5B5
  8
0
  6
HIDDEN2
 62
     4
 10
7.000011077059753
 20
26.9999934868719684
 30
0.0
 11
31.0000110770597495
 21
26.9999934868719684
 31
0.0
  0
LINE
  5
5B6
  8
0
  6
HIDDEN2
 62
     4
 10
3.000011077059753
 20
31.9999934868719684
 30
0.0
 11
35.000011077059753
 21
31.9999934868719684
 31
0.0
  0
LINE
  5
5B7
  8
0
  6
HIDDEN2
 62
     4
 10
0.000011077059753
 20
32.999993486871972
 30
0.0
 11
0.000011077059753
 21
34.999993486871972
 31
0.0
  0
LINE
  5
5B8
  8
0
  6
HIDDEN2
 62
     4
 10
0.000011077059753
 20
32.999993486871972
 30
0.0
 11
38.0000110770597601
 21
32.999993486871972
 31
0.0
  0
LINE
  5
5B9
  8
0
  6
HIDDEN2
 62
     4
 10
72.000011077059753
 20
-0.000006513128028
 30
0.0
 11
74.000011077059753
 21
-0.000006513128028
 31
0.0
  0
LINE
  5
5BA
  8
0
  6
HIDDEN2
 62
     4
 10
74.000011077059753
 20
-0.000006513128028
 30
0.0
 11
74.000011077059753
 21
34.999993486871972
 31
0.0
  0
LINE
  5
5BB
  8
0
  6
HIDDEN2
 62
     4
 10
0.000011077059753
 20
34.999993486871972
 30
0.0
 11
74.000011077059753
 21
34.999993486871972
 31
0.0
  0
LINE
  5
5BC
  8
0
  6
HIDDEN2
 62
     4
 10
72.000011077059753
 20
-0.000006513128028
 30
0.0
 11
72.000011077059753
 21
32.999993486871972
 31
0.0
  0
LINE
  5
5BD
  8
0
  6
HIDDEN2
 62
     4
 10
72.000011077059753
 20
32.999993486871972
 30
0.0
 11
0.000011077059753
 21
32.999993486871972
 31
0.0
  0
LINE
  5
5BE
  8
0
  6
HIDDEN2
 62
     4
 10
72.000011077059753
 20
29.9999934868719684
 30
0.0
 11
74.000011077059753
 21
29.9999934868719684
 31
0.0
  0
ARC
  5
5BF
  8
0
  6
HIDDEN2
 62
     4
 10
19.0000110770597495
 20
54.499993486871972
 30
0.0
 40
13.4999999999999805
 50
180.0
 51
0.0
  0
ARC
  5
5C0
  8
0
  6
HIDDEN2
 62
     4
 10
19.0000110770597495
 20
54.499993486871972
 30
0.0
 40
18.0
 50
316.2382573073621188
 51
41.4096221092795105
  0
ARC
  5
5C1
  8
0
  6
HIDDEN2
 62
     4
 10
19.0000110770597495
 20
54.499993486871972
 30
0.0
 40
18.0
 50
138.5903778907205037
 51
223.7617426926379096
  0
ARC
  5
5C2
  8
0
  6
HIDDEN2
 62
     4
 10
19.0000110770597495
 20
54.499993486871972
 30
0.0
 40
17.5
 50
317.9753724206765924
 51
39.5176527971798421
  0
ARC
  5
5C3
  8
0
  6
HIDDEN2
 62
     4
 10
19.0000110770597495
 20
54.499993486871972
 30
0.0
 40
17.5
 50
140.4823472028201081
 51
222.0246275793234076
  0
ENDBLK
  5
5C4
  8
0
 62
     7
  0
BLOCK
  8
0
 62
     7
  2
A$C6BE53629
 70
     0
 10
0.0
 20
0.0
 30
0.0
  3
A$C6BE53629
  1

  0
INSERT
  5
5C9
  8
0
 62
     4
  2
A$C76071F4B
 10
-0.0000551117518626
 20
181.0000232136663101
 30
0.0
  0
LINE
  5
5CA
  8
0
  6
HIDDEN2
 62
     4
 10
73.9999559653078904
 20
216.0000167005381968
 30
0.0
 11
73.9999559653078904
 21
0.0000159445262398
 31
0.0
  0
LINE
  5
5CB
  8
0
  6
HIDDEN2
 62
     4
 10
103.9999559653079046
 20
216.0000167005381968
 30
0.0
 11
103.9999559653079046
 21
0.000015992549379
 31
0.0
  0
LINE
  5
5CC
  8
0
 62
     4
 10
73.9999559653078904
 20
216.0000167005381968
 30
0.0
 11
103.9999559653079046
 21
216.0000167005381968
 31
0.0
  0
ENDBLK
  5
5CD
  8
0
 62
     7
  0
BLOCK
  8
0
 62
     4
  2
A$C18BD6BBE
 70
     0
 10
0.0
 20
0.0
 30
0.0
  3
A$C18BD6BBE
  1

  0
LINE
  5
5D2
  8
0
  6
HIDDEN2
 62
     4
 10
69.1122490365523845
 20
125.9997579479823031
 30
0.0
 11
69.1122490605921485
 21
155.9997579479822889
 31
0.0
  0
LINE
  5
5D3
  8
0
  6
HIDDEN2
 62
     4
 10
69.1122490365523845
 20
125.9997579479823031
 30
0.0
 11
139.1122490585840126
 21
125.9997579479823031
 31
0.0
  0
LINE
  5
5D4
  8
0
  6
HIDDEN2
 62
     4
 10
69.1122490605921485
 20
155.9997579479822889
 30
0.0
 11
139.1122490858251979
 21
155.9997579479822889
 31
0.0
  0
LINE
  5
5D5
  8
0
  6
HIDDEN2
 62
     4
 10
114.5672490722208039
 20
141.9997579479822889
 30
0.0
 11
113.5672490722209034
 21
140.9997579479822889
 31
0.0
  0
LINE
  5
5D6
  8
0
  6
HIDDEN2
 62
     4
 10
113.5672490722209034
 20
140.9997579479822889
 30
0.0
 11
94.6122490722045768
 21
140.9997579479822889
 31
0.0
  0
LINE
  5
5D7
  8
0
  6
HIDDEN2
 62
     4
 10
94.6122490722045768
 20
140.9997579479822889
 30
0.0
 11
93.6122490722045768
 21
141.9997579479822889
 31
0.0
  0
LINE
  5
5D8
  8
0
  6
HIDDEN2
 62
     4
 10
118.6122490722046052
 20
218.9997579479822889
 30
0.0
 11
119.6122490722046052
 21
219.9997579479822889
 31
0.0
  0
LINE
  5
5D9
  8
0
  6
HIDDEN2
 62
     4
 10
119.6122490722046052
 20
219.9997579479822889
 30
0.0
 11
138.5672490722209034
 21
219.9997579479822889
 31
0.0
  0
LINE
  5
5DA
  8
0
  6
HIDDEN2
 62
     4
 10
138.5672490722209034
 20
219.9997579479822889
 30
0.0
 11
139.5672490722207897
 21
218.9997579479822889
 31
0.0
  0
LINE
  5
5DB
  8
0
  6
HIDDEN2
 62
     4
 10
118.6122490722046052
 20
218.9997579479822889
 30
0.0
 11
118.6122490722046052
 21
199.9997579479822889
 31
0.0
  0
LINE
  5
5DC
  8
0
  6
HIDDEN2
 62
     4
 10
119.7742490722156958
 20
219.9997579479822889
 30
0.0
 11
119.7742490722156958
 21
199.9997579479822889
 31
0.0
  0
LINE
  5
5DD
  8
0
  6
HIDDEN2
 62
     4
 10
138.4052490722096991
 20
219.9997579479822889
 30
0.0
 11
138.4052490722096991
 21
199.9997579479822889
 31
0.0
  0
LINE
  5
5DE
  8
0
  6
HIDDEN2
 62
     4
 10
139.5672490722207897
 20
218.9997579479822889
 30
0.0
 11
139.5672490722207897
 21
199.9997579479822889
 31
0.0
  0
LINE
  5
5DF
  8
0
  6
HIDDEN2
 62
     4
 10
142.5897490722126975
 20
198.9997579479822889
 30
0.0
 11
141.5897490722126975
 21
199.9997579479822889
 31
0.0
  0
LINE
  5
5E0
  8
0
  6
HIDDEN2
 62
     4
 10
116.5897490722126975
 20
199.9997579479822889
 30
0.0
 11
141.5897490722126975
 21
199.9997579479822889
 31
0.0
  0
LINE
  5
5E1
  8
0
  6
HIDDEN2
 62
     4
 10
115.5897490722126975
 20
198.9997579479822889
 30
0.0
 11
116.5897490722126975
 21
199.9997579479822889
 31
0.0
  0
LINE
  5
5E2
  8
0
  6
HIDDEN2
 62
     4
 10
90.5897490722127259
 20
161.9997579479822889
 30
0.0
 11
90.5897490722127259
 21
160.9997579479822889
 31
0.0
  0
LINE
  5
5E3
  8
0
  6
HIDDEN2
 62
     4
 10
117.5897490722126975
 20
161.9997579479822889
 30
0.0
 11
117.5897490722126975
 21
160.9997579479822889
 31
0.0
  0
LINE
  5
5E4
  8
0
  6
HIDDEN2
 62
     4
 10
142.5897490722126975
 20
198.4997579479822889
 30
0.0
 11
142.5897490722126975
 21
198.9997579479822889
 31
0.0
  0
LINE
  5
5E5
  8
0
  6
HIDDEN2
 62
     4
 10
143.0897490722126975
 20
187.9997579479822889
 30
0.0
 11
143.0897490722126975
 21
197.9997579479822889
 31
0.0
  0
LINE
  5
5E6
  8
0
  6
HIDDEN2
 62
     4
 10
124.5897490722126975
 20
166.9997579479822889
 30
0.0
 11
124.5897490722126975
 21
168.0560872728237882
 31
0.0
  0
LINE
  5
5E7
  8
0
  6
HIDDEN2
 62
     4
 10
119.0897490722126975
 20
164.9997579479822889
 30
0.0
 11
122.5897490722126975
 21
164.9997579479822889
 31
0.0
  0
LINE
  5
5E8
  8
0
  6
HIDDEN2
 62
     4
 10
118.5897490722126975
 20
164.4997579479822889
 30
0.0
 11
118.5897490722126975
 21
162.9997579479822889
 31
0.0
  0
LINE
  5
5E9
  8
0
  6
HIDDEN2
 62
     4
 10
42.0897490722127188
 20
162.9997579479822889
 30
0.0
 11
42.0897490722127188
 21
197.9997579479822889
 31
0.0
  0
LINE
  5
5EA
  8
0
  6
HIDDEN2
 62
     4
 10
54.0897490722127188
 20
162.9997579479822889
 30
0.0
 11
54.0897490722127188
 21
197.9997579479822889
 31
0.0
  0
LINE
  5
5EB
  8
0
  6
HIDDEN2
 62
     4
 10
61.089749072212733
 20
162.9997579479822889
 30
0.0
 11
61.089749072212733
 21
197.9997579479822889
 31
0.0
  0
LINE
  5
5EC
  8
0
  6
HIDDEN2
 62
     4
 10
39.089749072212733
 20
162.9997579479822889
 30
0.0
 11
118.5897490722126975
 21
162.9997579479822889
 31
0.0
  0
LINE
  5
5ED
  8
0
  6
HIDDEN2
 62
     4
 10
37.089749072212733
 20
165.9997579479822889
 30
0.0
 11
2.3051393813802861
 21
165.9997579479822889
 31
0.0
  0
LINE
  5
5EE
  8
0
  6
HIDDEN2
 62
     4
 10
13.1814945031073893
 20
197.9997579479822889
 30
0.0
 11
143.0897490722126975
 21
197.9997579479822889
 31
0.0
  0
LINE
  5
5EF
  8
0
  6
HIDDEN2
 62
     4
 10
10.2837170242564699
 20
195.7762150833150088
 30
0.0
 11
0.1016477118537296
 21
157.7762150833150088
 31
0.0
  0
LINE
  5
5F0
  8
0
  6
HIDDEN2
 62
     4
 10
39.089749072212733
 20
156.9997579479822889
 30
0.0
 11
39.089749072212733
 21
163.9997579479822889
 31
0.0
  0
LINE
  5
5F1
  8
0
  6
HIDDEN2
 62
     4
 10
36.089749072212733
 20
153.9997579479822889
 30
0.0
 11
2.9994251907337448
 21
153.9997579479822889
 31
0.0
  0
LINE
  5
5F2
  8
0
  6
HIDDEN2
 62
     4
 10
88.1122490722045768
 20
157.9997579479822889
 30
0.0
 11
88.1122490722045768
 21
158.9997579479822889
 31
0.0
  0
LINE
  5
5F3
  8
0
  6
HIDDEN2
 62
     4
 10
120.1122490722045058
 20
157.9997579479822889
 30
0.0
 11
120.1122490722045058
 21
158.9997579479822889
 31
0.0
  0
LINE
  5
5F4
  8
0
  6
HIDDEN2
 62
     4
 10
114.5672490722208039
 20
152.9997579479822889
 30
0.0
 11
114.5672490722208039
 21
141.9997579479822889
 31
0.0
  0
LINE
  5
5F5
  8
0
  6
HIDDEN2
 62
     4
 10
113.4052490722096991
 20
152.9997579479822889
 30
0.0
 11
113.4052490722096991
 21
140.9997579479822889
 31
0.0
  0
LINE
  5
5F6
  8
0
  6
HIDDEN2
 62
     4
 10
94.7742490722157527
 20
152.9997579479822889
 30
0.0
 11
94.7742490722157527
 21
140.9997579479822889
 31
0.0
  0
LINE
  5
5F7
  8
0
  6
HIDDEN2
 62
     4
 10
93.6122490722045768
 20
152.9997579479822889
 30
0.0
 11
93.6122490722045768
 21
141.9997579479822889
 31
0.0
  0
LINE
  5
5F8
  8
0
  6
HIDDEN2
 62
     4
 10
92.1122490722045768
 20
157.9997579479822889
 30
0.0
 11
92.1122490722045768
 21
152.9997579479822889
 31
0.0
  0
LINE
  5
5F9
  8
0
  6
HIDDEN2
 62
     4
 10
116.1122490722046052
 20
157.9997579479822889
 30
0.0
 11
116.1122490722046052
 21
152.9997579479822889
 31
0.0
  0
LINE
  5
5FA
  8
0
  6
HIDDEN2
 62
     4
 10
92.1122490722045768
 20
152.9997579479822889
 30
0.0
 11
116.1122490722046052
 21
152.9997579479822889
 31
0.0
  0
LINE
  5
5FB
  8
0
  6
HIDDEN2
 62
     4
 10
88.1122490722045768
 20
157.9997579479822889
 30
0.0
 11
120.1122490722045058
 21
157.9997579479822889
 31
0.0
  0
LINE
  5
5FC
  8
0
  6
HIDDEN2
 62
     4
 10
85.1122490722045768
 20
155.9997579479822889
 30
0.0
 11
85.1122490722045768
 21
160.9997579479822889
 31
0.0
  0
LINE
  5
5FD
  8
0
  6
HIDDEN2
 62
     4
 10
123.1122490722045058
 20
155.9997579479822889
 30
0.0
 11
123.1122490722045058
 21
160.9997579479822889
 31
0.0
  0
LINE
  5
5FE
  8
0
  6
HIDDEN2
 62
     4
 10
69.1122490722045768
 20
127.9997579479823031
 30
0.0
 11
69.1122490722045768
 21
153.9997579479822889
 31
0.0
  0
LINE
  5
5FF
  8
0
  6
HIDDEN2
 62
     4
 10
139.1122490722046052
 20
153.9997579479822889
 30
0.0
 11
139.1122490722046052
 21
127.9997579479823031
 31
0.0
  0
LINE
  5
600
  8
0
  6
HIDDEN2
 62
     4
 10
85.1122490722045768
 20
160.9997579479822889
 30
0.0
 11
123.1122490722045058
 21
160.9997579479822889
 31
0.0
  0
LINE
  5
601
  8
0
  6
HIDDEN2
 62
     4
 10
85.1122490722045768
 20
158.9997579479822889
 30
0.0
 11
123.1122490722045058
 21
158.9997579479822889
 31
0.0
  0
LINE
  5
602
  8
0
  6
HIDDEN2
 62
     4
 10
139.1122489441185905
 20
-0.0000140519696288
 30
0.0
 11
139.1122490858251979
 21
155.9997579479822889
 31
0.0
  0
LINE
  5
603
  8
0
  6
HIDDEN2
 62
     4
 10
109.1122489441476944
 20
-0.0000140519696288
 30
0.0
 11
109.1122490585839984
 21
125.9997579479823031
 31
0.0
  0
CIRCLE
  5
604
  8
0
  6
HIDDEN2
 62
     4
 10
130.6122490722046052
 20
140.9997579479822889
 30
0.0
 40
1.649999999999999
  0
CIRCLE
  5
605
  8
0
  6
HIDDEN2
 62
     4
 10
77.6122490485722665
 20
140.9997579479822889
 30
0.0
 40
1.649999999999999
  0
CIRCLE
  5
606
  8
0
  6
HIDDEN2
 62
     4
 10
77.6122490722045768
 20
140.9997579479822889
 30
0.0
 40
2.25
  0
CIRCLE
  5
607
  8
0
  6
HIDDEN2
 62
     4
 10
130.6122490722046052
 20
140.9997579479822889
 30
0.0
 40
2.25
  0
ARC
  5
608
  8
0
  6
HIDDEN2
 62
     4
 10
114.5897490722126975
 20
198.9997579479822889
 30
0.0
 40
1.0
 50
270.0
 51
0.0
  0
ARC
  5
609
  8
0
  6
HIDDEN2
 62
     4
 10
118.5897490722126975
 20
161.9997579479822889
 30
0.0
 40
1.0
 50
90.0
 51
180.0
  0
ARC
  5
60A
  8
0
  6
HIDDEN2
 62
     4
 10
89.5897490722127259
 20
161.9997579479822889
 30
0.0
 40
1.0
 50
0.0
 51
90.0
  0
ARC
  5
60B
  8
0
  6
HIDDEN2
 62
     4
 10
143.0897490722126975
 20
198.4997579479822889
 30
0.0
 40
0.5
 50
180.0
 51
270.0
  0
ARC
  5
60C
  8
0
  6
HIDDEN2
 62
     4
 10
123.0897490722126975
 20
187.9997579479822889
 30
0.0
 40
20.0
 50
274.3012223054399215
 51
0.0
  0
ARC
  5
60D
  8
0
  6
HIDDEN2
 62
     4
 10
122.5897490722126975
 20
166.9997579479822889
 30
0.0
 40
2.0
 50
270.0
 51
0.0
  0
ARC
  5
60E
  8
0
  6
HIDDEN2
 62
     4
 10
119.0897490722126975
 20
164.4997579479822889
 30
0.0
 40
0.5
 50
90.0
 51
180.0
  0
ARC
  5
60F
  8
0
  6
HIDDEN2
 62
     4
 10
37.089749072212733
 20
163.9997579479822889
 30
0.0
 40
2.0
 50
0.0
 51
90.0
  0
ARC
  5
610
  8
0
  6
HIDDEN2
 62
     4
 10
2.9994251907337448
 20
156.9997579479822889
 30
0.0
 40
3.0
 50
165.000000000528587
 51
270.0
  0
ARC
  5
611
  8
0
  6
HIDDEN2
 62
     4
 10
13.1814945031073893
 20
194.9997579479822889
 30
0.0
 40
3.0
 50
90.0
 51
165.000000000528587
  0
ARC
  5
612
  8
0
  6
HIDDEN2
 62
     4
 10
36.089749072212733
 20
156.9997579479822889
 30
0.0
 40
3.0
 50
270.0
 51
0.0
  0
ARC
  5
613
  8
0
  6
HIDDEN2
 62
     4
 10
87.0897490722127259
 20
180.4997579479822889
 30
0.0
 40
18.0
 50
76.463797262241755
 51
103.5362027377582024
  0
ARC
  5
614
  8
0
  6
HIDDEN2
 62
     4
 10
87.0897490722127259
 20
180.4997579479822889
 30
0.0
 40
18.0
 50
256.4637972622417124
 51
280.0217399539417897
  0
ARC
  5
615
  8
0
  6
HIDDEN2
 62
     4
 10
71.1122490722045768
 20
153.9997579479822889
 30
0.0
 40
2.0
 50
90.0
 51
180.0
  0
ARC
  5
616
  8
0
  6
HIDDEN2
 62
     4
 10
71.1122490722045768
 20
127.9997579479823031
 30
0.0
 40
2.0
 50
180.0
 51
270.0
  0
ARC
  5
617
  8
0
  6
HIDDEN2
 62
     4
 10
137.1122490722046052
 20
127.9997579479823031
 30
0.0
 40
2.0
 50
270.0
 51
0.0
  0
ARC
  5
618
  8
0
  6
HIDDEN2
 62
     4
 10
137.1122490722046052
 20
153.9997579479822889
 30
0.0
 40
2.0
 50
0.0
 51
90.0
  0
ENDBLK
  5
619
  8
0
 62
     4
  0
BLOCK
  8
0
 62
     7
  2
*D25
 70
     1
 10
0.0
 20
0.0
 30
0.0
  3
*D25
  1

  0
LINE
  5
20CD
  8
0
 62
     2
 10
4459.9768192221517893
 20
2157.5524133098078892
 30
0.0
 11
4459.9768192221517893
 21
2157.5524203627142015
 31
0.0
  0
LINE
  5
20CE
  8
0
 62
     2
 10
4224.9767929002991877
 20
2342.2528020206950714
 30
0.0
 11
4224.9767929002991877
 21
2117.5524203627142015
 31
0.0
  0
LINE
  5
20CF
  8
0
 62
     2
 10
4419.9768192221517893
 20
2137.5524203627142015
 30
0.0
 11
4264.9767929002991877
 21
2137.5524203627142015
 31
0.0
  0
INSERT
  5
20D0
  8
0
 62
     2
  2
YA
 10
4459.9768192221517893
 20
2137.5524203627142015
 30
0.0
 41
40.0
 42
40.0
 43
40.0
  0
INSERT
  5
20D1
  8
0
 62
     2
  2
YA
 10
4224.9767929002991877
 20
2137.5524203627142015
 30
0.0
 41
40.0
 42
40.0
 43
40.0
 50
180.0
  0
INSERT
  5
20D2
  8
0
 62
     7
  2
*U82
 10
0.0
 20
0.0
 30
0.0
  0
POINT
  5
20D3
  8
DEFPOINTS
 62
     0
 10
4459.9768192221517893
 20
2137.5524133098078892
 30
0.0
  0
POINT
  5
20D4
  8
DEFPOINTS
 62
     0
 10
4224.9767929002991877
 20
2362.2528020206959809
 30
0.0
  0
POINT
  5
20D5
  8
DEFPOINTS
 62
     0
 10
4224.9767929002991877
 20
2137.5524203627142015
 30
0.0
  0
ENDBLK
  5
199F
  8
0
 62
     7
  0
BLOCK
  8
0
 62
     7
  2
*D26
 70
     1
 10
0.0
 20
0.0
 30
0.0
  3
*D26
  1

  0
LINE
  5
208D
  8
0
  6
CONTINUOUS
 62
     2
 10
1357.5689421704730648
 20
1095.2527918371490614
 30
0.0
 11
1357.5689421704730648
 21
575.3211633345345035
 31
0.0
  0
LINE
  5
208E
  8
0
  6
CONTINUOUS
 62
     2
 10
2457.5689421704742017
 20
1095.2527918371490614
 30
0.0
 11
2457.5689421704742017
 21
575.3211633345345035
 31
0.0
  0
LINE
  5
208F
  8
0
  6
CONTINUOUS
 62
     2
 10
1397.5689421704730648
 20
595.3211633345345035
 30
0.0
 11
2417.5689421704742017
 21
595.3211633345345035
 31
0.0
  0
INSERT
  5
2090
  8
0
  6
CONTINUOUS
 62
     2
  2
YA
 10
1357.5689421704730648
 20
595.3211633345345035
 30
0.0
 41
40.0
 42
40.0
 43
40.0
 50
180.0
  0
INSERT
  5
2091
  8
0
  6
CONTINUOUS
 62
     2
  2
YA
 10
2457.5689421704742017
 20
595.3211633345345035
 30
0.0
 41
40.0
 42
40.0
 43
40.0
  0
INSERT
  5
2092
  8
0
 62
     7
  2
*U75
 10
0.0
 20
0.0
 30
0.0
  0
POINT
  5
2093
  8
DEFPOINTS
  6
CONTINUOUS
 62
     0
 10
1357.5689421704730648
 20
1115.2527918371490614
 30
0.0
  0
POINT
  5
2094
  8
DEFPOINTS
  6
CONTINUOUS
 62
     0
 10
2457.5689421704742017
 20
1115.2527918371490614
 30
0.0
  0
POINT
  5
2095
  8
DEFPOINTS
  6
CONTINUOUS
 62
     0
 10
2457.5689421704742017
 20
595.3211633345345035
 30
0.0
  0
ENDBLK
  5
19B7
  8
0
 62
     7
  0
BLOCK
  8
0
 62
     7
  2
*D27
 70
     1
 10
0.0
 20
0.0
 30
0.0
  3
*D27
  1

  0
LINE
  5
2096
  8
0
  6
CONTINUOUS
 62
     2
 10
2057.5689421704742017
 20
1095.2527918371490614
 30
0.0
 11
2057.5689421704742017
 21
725.3211633345345035
 31
0.0
  0
LINE
  5
2097
  8
0
  6
CONTINUOUS
 62
     2
 10
2457.5689421704742017
 20
1095.2527918371490614
 30
0.0
 11
2457.5689421704742017
 21
725.3211633345345035
 31
0.0
  0
LINE
  5
2098
  8
0
  6
CONTINUOUS
 62
     2
 10
2097.5689421704742017
 20
745.3211633345345035
 30
0.0
 11
2417.5689421704742017
 21
745.3211633345345035
 31
0.0
  0
INSERT
  5
2099
  8
0
  6
CONTINUOUS
 62
     2
  2
YA
 10
2057.5689421704742017
 20
745.3211633345345035
 30
0.0
 41
40.0
 42
40.0
 43
40.0
 50
180.0
  0
INSERT
  5
209A
  8
0
  6
CONTINUOUS
 62
     2
  2
YA
 10
2457.5689421704742017
 20
745.3211633345345035
 30
0.0
 41
40.0
 42
40.0
 43
40.0
  0
INSERT
  5
209B
  8
0
 62
     7
  2
*U76
 10
0.0
 20
0.0
 30
0.0
  0
POINT
  5
209C
  8
DEFPOINTS
  6
CONTINUOUS
 62
     0
 10
2057.5689421704742017
 20
1115.2527918371490614
 30
0.0
  0
POINT
  5
209D
  8
DEFPOINTS
  6
CONTINUOUS
 62
     0
 10
2457.5689421704742017
 20
1115.2527918371490614
 30
0.0
  0
POINT
  5
209E
  8
DEFPOINTS
  6
CONTINUOUS
 62
     0
 10
2457.5689421704742017
 20
745.3211633345345035
 30
0.0
  0
ENDBLK
  5
19C3
  8
0
 62
     7
  0
BLOCK
  8
0
 62
     7
  2
*D28
 70
     1
 10
0.0
 20
0.0
 30
0.0
  3
*D28
  1

  0
LINE
  5
209F
  8
0
  6
CONTINUOUS
 62
     2
 10
2057.5689421704742017
 20
1095.2527918371490614
 30
0.0
 11
2057.5689421704742017
 21
725.3211633345345035
 31
0.0
  0
LINE
  5
20A0
  8
0
  6
CONTINUOUS
 62
     2
 10
1857.5689421704730648
 20
1095.2527918371490614
 30
0.0
 11
1857.5689421704730648
 21
725.3211633345345035
 31
0.0
  0
LINE
  5
20A1
  8
0
  6
CONTINUOUS
 62
     2
 10
2017.5689421704739743
 20
745.3211633345345035
 30
0.0
 11
1897.5689421704739743
 21
745.3211633345345035
 31
0.0
  0
INSERT
  5
20A2
  8
0
  6
CONTINUOUS
 62
     2
  2
YA
 10
2057.5689421704742017
 20
745.3211633345345035
 30
0.0
 41
40.0
 42
40.0
 43
40.0
  0
INSERT
  5
20A3
  8
0
  6
CONTINUOUS
 62
     2
  2
YA
 10
1857.5689421704730648
 20
745.3211633345345035
 30
0.0
 41
40.0
 42
40.0
 43
40.0
 50
180.0
  0
INSERT
  5
20A4
  8
0
 62
     7
  2
*U77
 10
0.0
 20
0.0
 30
0.0
  0
POINT
  5
20A5
  8
DEFPOINTS
  6
CONTINUOUS
 62
     0
 10
2057.5689421704742017
 20
1115.2527918371490614
 30
0.0
  0
POINT
  5
20A6
  8
DEFPOINTS
  6
CONTINUOUS
 62
     0
 10
1857.5689421704730648
 20
1115.2527918371490614
 30
0.0
  0
POINT
  5
20A7
  8
DEFPOINTS
  6
CONTINUOUS
 62
     0
 10
1857.5689421704730648
 20
745.3211633345345035
 30
0.0
  0
ENDBLK
  5
19CF
  8
0
 62
     7
  0
BLOCK
  8
0
 62
     7
  2
*D29
 70
     1
 10
0.0
 20
0.0
 30
0.0
  3
*D29
  1

  0
LINE
  5
20A8
  8
0
  6
CONTINUOUS
 62
     2
 10
3799.9771249003251796
 20
1095.2527918371490614
 30
0.0
 11
3799.9771249003251796
 21
618.4985626445850357
 31
0.0
  0
LINE
  5
20A9
  8
0
  6
CONTINUOUS
 62
     2
 10
4639.9771249003242701
 20
1095.2527918371490614
 30
0.0
 11
4639.9771249003242701
 21
618.4985626445850357
 31
0.0
  0
LINE
  5
20AA
  8
0
  6
CONTINUOUS
 62
     2
 10
3839.9771249003238154
 20
638.4985626445850357
 30
0.0
 11
4599.9771249003242701
 21
638.4985626445850357
 31
0.0
  0
INSERT
  5
20AB
  8
0
  6
CONTINUOUS
 62
     2
  2
YA
 10
3799.9771249003251796
 20
638.4985626445850357
 30
0.0
 41
40.0
 42
40.0
 43
40.0
 50
180.0
  0
INSERT
  5
20AC
  8
0
  6
CONTINUOUS
 62
     2
  2
YA
 10
4639.9771249003242701
 20
638.4985626445850357
 30
0.0
 41
40.0
 42
40.0
 43
40.0
  0
INSERT
  5
20AD
  8
0
 62
     7
  2
*U78
 10
0.0
 20
0.0
 30
0.0
  0
POINT
  5
20AE
  8
DEFPOINTS
  6
CONTINUOUS
 62
     0
 10
3799.9771249003251796
 20
1115.2527918371490614
 30
0.0
  0
POINT
  5
20AF
  8
DEFPOINTS
  6
CONTINUOUS
 62
     0
 10
4639.9771249003242701
 20
1115.2527918371490614
 30
0.0
  0
POINT
  5
20B0
  8
DEFPOINTS
  6
CONTINUOUS
 62
     0
 10
4639.9771249003242701
 20
638.4985626445850357
 30
0.0
  0
ENDBLK
  5
1A3C
  8
0
 62
     7
  0
BLOCK
  8
0
 62
     7
  2
*D30
 70
     1
 10
0.0
 20
0.0
 30
0.0
  3
*D30
  1

  0
LINE
  5
20B1
  8
0
  6
CONTINUOUS
 62
     2
 10
3999.9771249003251796
 20
1095.2527918371490614
 30
0.0
 11
3999.9771249003251796
 21
768.4985626445850357
 31
0.0
  0
LINE
  5
20B2
  8
0
  6
CONTINUOUS
 62
     2
 10
4639.9771249003242701
 20
1095.2527918371490614
 30
0.0
 11
4639.9771249003242701
 21
768.4985626445850357
 31
0.0
  0
LINE
  5
20B3
  8
0
  6
CONTINUOUS
 62
     2
 10
4039.9771249003238154
 20
788.4985626445850357
 30
0.0
 11
4599.9771249003242701
 21
788.4985626445850357
 31
0.0
  0
INSERT
  5
20B4
  8
0
  6
CONTINUOUS
 62
     2
  2
YA
 10
3999.9771249003251796
 20
788.4985626445850357
 30
0.0
 41
40.0
 42
40.0
 43
40.0
 50
180.0
  0
INSERT
  5
20B5
  8
0
  6
CONTINUOUS
 62
     2
  2
YA
 10
4639.9771249003242701
 20
788.4985626445850357
 30
0.0
 41
40.0
 42
40.0
 43
40.0
  0
INSERT
  5
20B6
  8
0
 62
     7
  2
*U79
 10
0.0
 20
0.0
 30
0.0
  0
POINT
  5
20B7
  8
DEFPOINTS
  6
CONTINUOUS
 62
     0
 10
3999.9771249003251796
 20
1115.2527918371490614
 30
0.0
  0
POINT
  5
20B8
  8
DEFPOINTS
  6
CONTINUOUS
 62
     0
 10
4639.9771249003242701
 20
1115.2527918371490614
 30
0.0
  0
POINT
  5
20B9
  8
DEFPOINTS
  6
CONTINUOUS
 62
     0
 10
4639.9771249003242701
 20
788.4985626445850357
 30
0.0
  0
ENDBLK
  5
1A48
  8
0
 62
     7
  0
BLOCK
  8
0
 62
     7
  2
*D31
 70
     1
 10
0.0
 20
0.0
 30
0.0
  3
*D31
  1

  0
LINE
  5
20BA
  8
0
  6
CONTINUOUS
 62
     2
 10
4439.9771249003242701
 20
1095.2527918371490614
 30
0.0
 11
4439.9771249003242701
 21
918.4985626445850357
 31
0.0
  0
LINE
  5
20BB
  8
0
  6
CONTINUOUS
 62
     2
 10
4489.9771249003242701
 20
1095.2527918371490614
 30
0.0
 11
4489.9771249003242701
 21
918.4985626445850357
 31
0.0
  0
LINE
  5
20BC
  8
0
  6
CONTINUOUS
 62
     2
 10
4399.9771249003242701
 20
938.4985626445850357
 30
0.0
 11
4359.9771249003242701
 21
938.4985626445850357
 31
0.0
  0
LINE
  5
20BD
  8
0
  6
CONTINUOUS
 62
     2
 10
4529.9771249003242701
 20
938.4985626445850357
 30
0.0
 11
4569.9771249003242701
 21
938.4985626445850357
 31
0.0
  0
INSERT
  5
20BE
  8
0
 62
     7
  2
*U80
 10
0.0
 20
0.0
 30
0.0
  0
LINE
  5
20BF
  8
0
  6
CONTINUOUS
 62
     2
 10
4439.9771249003242701
 20
938.4985626445850357
 30
0.0
 11
4489.9771249003242701
 21
938.4985626445850357
 31
0.0
  0
INSERT
  5
20C0
  8
0
  6
CONTINUOUS
 62
     2
  2
YA
 10
4439.9771249003242701
 20
938.4985626445850357
 30
0.0
 41
40.0
 42
40.0
 43
40.0
  0
INSERT
  5
20C1
  8
0
  6
CONTINUOUS
 62
     2
  2
YA
 10
4489.9771249003242701
 20
938.4985626445850357
 30
0.0
 41
40.0
 42
40.0
 43
40.0
 50
180.0
  0
POINT
  5
20C2
  8
DEFPOINTS
  6
CONTINUOUS
 62
     0
 10
4439.9771249003242701
 20
1115.2527918371490614
 30
0.0
  0
POINT
  5
20C3
  8
DEFPOINTS
  6
CONTINUOUS
 62
     0
 10
4489.9771249003242701
 20
1115.2527918371490614
 30
0.0
  0
POINT
  5
20C4
  8
DEFPOINTS
  6
CONTINUOUS
 62
     0
 10
4489.9771249003242701
 20
938.4985626445850357
 30
0.0
  0
ENDBLK
  5
1A54
  8
0
 62
     7
  0
BLOCK
  8
0
 62
     7
  2
*D32
 70
     1
 10
0.0
 20
0.0
 30
0.0
  3
*D32
  1

  0
LINE
  5
20C5
  8
0
  6
CONTINUOUS
 62
     2
 10
4639.9771249003242701
 20
1095.2527918371490614
 30
0.0
 11
4639.9771249003242701
 21
918.4985626445850357
 31
0.0
  0
LINE
  5
20C6
  8
0
  6
CONTINUOUS
 62
     2
 10
4529.9771249003242701
 20
938.4985626445850357
 30
0.0
 11
4599.9771249003242701
 21
938.4985626445850357
 31
0.0
  0
INSERT
  5
20C7
  8
0
  6
CONTINUOUS
 62
     2
  2
YA
 10
4489.9771249003242701
 20
938.4985626445850357
 30
0.0
 41
40.0
 42
40.0
 43
40.0
 50
180.0
  0
INSERT
  5
20C8
  8
0
  6
CONTINUOUS
 62
     2
  2
YA
 10
4639.9771249003242701
 20
938.4985626445850357
 30
0.0
 41
40.0
 42
40.0
 43
40.0
  0
INSERT
  5
20C9
  8
0
 62
     7
  2
*U81
 10
0.0
 20
0.0
 30
0.0
  0
POINT
  5
20CA
  8
DEFPOINTS
  6
CONTINUOUS
 62
     0
 10
4489.9771249003242701
 20
1115.2527918371490614
 30
0.0
  0
POINT
  5
20CB
  8
DEFPOINTS
  6
CONTINUOUS
 62
     0
 10
4639.9771249003242701
 20
1115.2527918371490614
 30
0.0
  0
POINT
  5
20CC
  8
DEFPOINTS
  6
CONTINUOUS
 62
     0
 10
4639.9771249003242701
 20
938.4985626445850357
 30
0.0
  0
ENDBLK
  5
1A62
  8
0
 62
     7
  0
BLOCK
  8
0
 62
     7
  2
*D33
 70
     1
 10
0.0
 20
0.0
 30
0.0
  3
*D33
  1

  0
LINE
  5
2026
  8
0
  6
CONTINUOUS
 62
     2
 10
2477.5689421704751112
 20
4115.4535145172867487
 30
0.0
 11
2914.2456290229570186
 21
4115.4535145172867487
 31
0.0
  0
LINE
  5
2027
  8
0
  6
CONTINUOUS
 62
     2
 10
2477.5689421704751112
 20
4955.4535145172867487
 30
0.0
 11
2914.2456290229570186
 21
4955.4535145172867487
 31
0.0
  0
LINE
  5
2028
  8
0
  6
CONTINUOUS
 62
     2
 10
2894.2456290229579281
 20
4155.4535145172867487
 30
0.0
 11
2894.2456290229579281
 21
4915.4535145172867487
 31
0.0
  0
INSERT
  5
2029
  8
0
  6
CONTINUOUS
 62
     2
  2
YA
 10
2894.2456290229579281
 20
4115.4535145172867487
 30
0.0
 41
40.0
 42
40.0
 43
40.0
 50
270.0
  0
INSERT
  5
202A
  8
0
  6
CONTINUOUS
 62
     2
  2
YA
 10
2894.2456290229579281
 20
4955.4535145172867487
 30
0.0
 41
40.0
 42
40.0
 43
40.0
 50
90.0
  0
INSERT
  5
202B
  8
0
 62
     7
  2
*U63
 10
0.0
 20
0.0
 30
0.0
  0
POINT
  5
202C
  8
DEFPOINTS
  6
CONTINUOUS
 62
     0
 10
2457.5689421704751112
 20
4115.4535145172867487
 30
0.0
  0
POINT
  5
202D
  8
DEFPOINTS
  6
CONTINUOUS
 62
     0
 10
2457.5689421704751112
 20
4955.4535145172867487
 30
0.0
  0
POINT
  5
202E
  8
DEFPOINTS
  6
CONTINUOUS
 62
     0
 10
2894.2456290229579281
 20
4955.4535145172867487
 30
0.0
  0
ENDBLK
  5
1B4C
  8
0
 62
     7
  0
BLOCK
  8
0
 62
     7
  2
*D34
 70
     1
 10
0.0
 20
0.0
 30
0.0
  3
*D34
  1

  0
LINE
  5
202F
  8
0
  6
CONTINUOUS
 62
     2
 10
2733.2853581688841587
 20
1115.2527918371490614
 30
0.0
 11
2914.2456290229579281
 21
1115.2527918371490614
 31
0.0
  0
LINE
  5
2030
  8
0
  6
CONTINUOUS
 62
     2
 10
2477.5689421704751112
 20
3145.2527918371511078
 30
0.0
 11
2914.2456290229570186
 21
3145.2527918371511078
 31
0.0
  0
LINE
  5
2031
  8
0
  6
CONTINUOUS
 62
     2
 10
2894.2456290229579281
 20
1155.2527918371490614
 30
0.0
 11
2894.2456290229579281
 21
3105.2527918371511078
 31
0.0
  0
INSERT
  5
2032
  8
0
  6
CONTINUOUS
 62
     2
  2
YA
 10
2894.2456290229579281
 20
1115.2527918371490614
 30
0.0
 41
40.0
 42
40.0
 43
40.0
 50
270.0
  0
INSERT
  5
2033
  8
0
  6
CONTINUOUS
 62
     2
  2
YA
 10
2894.2456290229579281
 20
3145.2527918371511078
 30
0.0
 41
40.0
 42
40.0
 43
40.0
 50
90.0
  0
INSERT
  5
2034
  8
0
 62
     7
  2
*U64
 10
0.0
 20
0.0
 30
0.0
  0
POINT
  5
2035
  8
DEFPOINTS
  6
CONTINUOUS
 62
     0
 10
2713.2853581688841587
 20
1115.2527918371490614
 30
0.0
  0
POINT
  5
2036
  8
DEFPOINTS
  6
CONTINUOUS
 62
     0
 10
2457.5689421704751112
 20
3145.2527918371511078
 30
0.0
  0
POINT
  5
2037
  8
DEFPOINTS
  6
CONTINUOUS
 62
     0
 10
2894.2456290229579281
 20
3145.2527918371511078
 30
0.0
  0
ENDBLK
  5
1B58
  8
0
 62
     7
  0
BLOCK
  8
0
 62
     7
  2
*D35
 70
     1
 10
0.0
 20
0.0
 30
0.0
  3
*D35
  1

  0
LINE
  5
2038
  8
0
  6
CONTINUOUS
 62
     2
 10
717.568942170473747
 20
3165.252791837148834
 30
0.0
 11
717.568942170473747
 21
3476.0311746010561365
 31
0.0
  0
LINE
  5
2039
  8
0
  6
CONTINUOUS
 62
     2
 10
2457.5689421704742017
 20
3165.252791837148834
 30
0.0
 11
2457.5689421704742017
 21
3476.0311746010561365
 31
0.0
  0
LINE
  5
203A
  8
0
  6
CONTINUOUS
 62
     2
 10
757.568942170473747
 20
3456.0311746010561365
 30
0.0
 11
2417.5689421704742017
 21
3456.0311746010561365
 31
0.0
  0
INSERT
  5
203B
  8
0
  6
CONTINUOUS
 62
     2
  2
YA
 10
717.568942170473747
 20
3456.0311746010561365
 30
0.0
 41
40.0
 42
40.0
 43
40.0
 50
180.0
  0
INSERT
  5
203C
  8
0
  6
CONTINUOUS
 62
     2
  2
YA
 10
2457.5689421704742017
 20
3456.0311746010561365
 30
0.0
 41
40.0
 42
40.0
 43
40.0
  0
INSERT
  5
203D
  8
0
 62
     7
  2
*U65
 10
0.0
 20
0.0
 30
0.0
  0
POINT
  5
203E
  8
DEFPOINTS
  6
CONTINUOUS
 62
     0
 10
717.568942170473747
 20
3145.252791837148834
 30
0.0
  0
POINT
  5
203F
  8
DEFPOINTS
  6
CONTINUOUS
 62
     0
 10
2457.5689421704742017
 20
3145.252791837148834
 30
0.0
  0
POINT
  5
2040
  8
DEFPOINTS
  6
CONTINUOUS
 62
     0
 10
2457.5689421704742017
 20
3456.0311746010561365
 30
0.0
  0
ENDBLK
  5
1B64
  8
0
 62
     7
  0
BLOCK
  8
0
 62
     7
  2
*D36
 70
     1
 10
0.0
 20
0.0
 30
0.0
  3
*D36
  1

  0
LINE
  5
2041
  8
0
  6
CONTINUOUS
 62
     2
 10
1517.569186170527928
 20
1315.2527918371490614
 30
0.0
 11
1457.593260537902097
 21
1315.2527918371490614
 31
0.0
  0
LINE
  5
2042
  8
0
  6
CONTINUOUS
 62
     2
 10
1497.5932605369600878
 20
1115.2527918371490614
 30
0.0
 11
1497.593260537902097
 21
1115.2527918371490614
 31
0.0
  0
LINE
  5
2043
  8
0
  6
CONTINUOUS
 62
     2
 10
1477.593260537902097
 20
1275.2527918371490614
 30
0.0
 11
1477.593260537902097
 21
1155.2527918371490614
 31
0.0
  0
INSERT
  5
2044
  8
0
  6
CONTINUOUS
 62
     2
  2
YA
 10
1477.593260537902097
 20
1315.2527918371490614
 30
0.0
 41
40.0
 42
40.0
 43
40.0
 50
90.0
  0
INSERT
  5
2045
  8
0
  6
CONTINUOUS
 62
     2
  2
YA
 10
1477.593260537902097
 20
1115.2527918371490614
 30
0.0
 41
40.0
 42
40.0
 43
40.0
 50
270.0
  0
INSERT
  5
2046
  8
0
 62
     7
  2
*U66
 10
0.0
 20
0.0
 30
0.0
  0
POINT
  5
2047
  8
DEFPOINTS
  6
CONTINUOUS
 62
     0
 10
1537.569186170527928
 20
1315.2527918371490614
 30
0.0
  0
POINT
  5
2048
  8
DEFPOINTS
  6
CONTINUOUS
 62
     0
 10
1477.5932605369600878
 20
1115.2527918371490614
 30
0.0
  0
POINT
  5
2049
  8
DEFPOINTS
  6
CONTINUOUS
 62
     0
 10
1477.593260537902097
 20
1115.2527918371490614
 30
0.0
  0
ENDBLK
  5
1B70
  8
0
 62
     7
  0
BLOCK
  8
0
 62
     7
  2
*D37
 70
     1
 10
0.0
 20
0.0
 30
0.0
  3
*D37
  1

  0
LINE
  5
204A
  8
0
  6
CONTINUOUS
 62
     2
 10
717.568942170473747
 20
4975.4535145172849298
 30
0.0
 11
717.568942170473747
 21
5229.1312653836803293
 31
0.0
  0
LINE
  5
204B
  8
0
  6
CONTINUOUS
 62
     2
 10
1587.5689421704739743
 20
5089.531864789489191
 30
0.0
 11
1587.5689421704739743
 21
5229.1312653836803293
 31
0.0
  0
LINE
  5
204C
  8
0
  6
CONTINUOUS
 62
     2
 10
757.568942170473747
 20
5209.1312653836794198
 30
0.0
 11
1547.5689421704739743
 21
5209.1312653836794198
 31
0.0
  0
INSERT
  5
204D
  8
0
  6
CONTINUOUS
 62
     2
  2
YA
 10
717.568942170473747
 20
5209.1312653836794198
 30
0.0
 41
40.0
 42
40.0
 43
40.0
 50
180.0
  0
INSERT
  5
204E
  8
0
  6
CONTINUOUS
 62
     2
  2
YA
 10
1587.5689421704739743
 20
5209.1312653836794198
 30
0.0
 41
40.0
 42
40.0
 43
40.0
  0
INSERT
  5
204F
  8
0
 62
     7
  2
*U67
 10
0.0
 20
0.0
 30
0.0
  0
POINT
  5
2050
  8
DEFPOINTS
  6
CONTINUOUS
 62
     0
 10
717.568942170473747
 20
4955.4535145172849298
 30
0.0
  0
POINT
  5
2051
  8
DEFPOINTS
  6
CONTINUOUS
 62
     0
 10
1587.5689421704739743
 20
5069.531864789489191
 30
0.0
  0
POINT
  5
2052
  8
DEFPOINTS
  6
CONTINUOUS
 62
     0
 10
1587.5689421704739743
 20
5209.1312653836794198
 30
0.0
  0
ENDBLK
  5
1B7C
  8
0
 62
     7
  0
BLOCK
  8
0
 62
     7
  2
*D38
 70
     1
 10
0.0
 20
0.0
 30
0.0
  3
*D38
  1

  0
LINE
  5
2053
  8
0
  6
CONTINUOUS
 62
     2
 10
1587.5689421704739743
 20
5089.531864789489191
 30
0.0
 11
1587.5689421704739743
 21
5229.1312653836803293
 31
0.0
  0
LINE
  5
2054
  8
0
  6
CONTINUOUS
 62
     2
 10
2457.5688201704761013
 20
4975.4535145172849298
 30
0.0
 11
2457.5688201704761013
 21
5229.1312653836803293
 31
0.0
  0
LINE
  5
2055
  8
0
  6
CONTINUOUS
 62
     2
 10
1627.5689421704739743
 20
5209.1312653836794198
 30
0.0
 11
2417.5688201704770108
 21
5209.1312653836794198
 31
0.0
  0
INSERT
  5
2056
  8
0
  6
CONTINUOUS
 62
     2
  2
YA
 10
1587.5689421704739743
 20
5209.1312653836794198
 30
0.0
 41
40.0
 42
40.0
 43
40.0
 50
180.0
  0
INSERT
  5
2057
  8
0
  6
CONTINUOUS
 62
     2
  2
YA
 10
2457.5688201704761013
 20
5209.1312653836794198
 30
0.0
 41
40.0
 42
40.0
 43
40.0
  0
INSERT
  5
2058
  8
0
 62
     7
  2
*U68
 10
0.0
 20
0.0
 30
0.0
  0
POINT
  5
2059
  8
DEFPOINTS
  6
CONTINUOUS
 62
     0
 10
1587.5689421704739743
 20
5069.531864789489191
 30
0.0
  0
POINT
  5
205A
  8
DEFPOINTS
  6
CONTINUOUS
 62
     0
 10
2457.5688201704761013
 20
4955.4535145172849298
 30
0.0
  0
POINT
  5
205B
  8
DEFPOINTS
  6
CONTINUOUS
 62
     0
 10
2457.5688201704761013
 20
5209.1312653836794198
 30
0.0
  0
ENDBLK
  5
1B88
  8
0
 62
     7
  0
BLOCK
  8
0
 62
     7
  2
*D39
 70
     1
 10
0.0
 20
0.0
 30
0.0
  3
*D39
  1

  0
LINE
  5
205C
  8
0
  6
CONTINUOUS
 62
     2
 10
1151.8641802897300295
 20
3868.9368681010651017
 30
0.0
 11
1126.9800312694749209
 21
4124.9123231670373571
 31
0.0
  0
INSERT
  5
205D
  8
0
 62
     7
  2
*U69
 10
0.0
 20
0.0
 30
0.0
  0
INSERT
  5
205E
  8
0
  6
CONTINUOUS
 62
     2
  2
YA
 10
1123.1097549323440035
 20
4164.7246448912746928
 30
0.0
 41
40.0
 42
40.0
 43
40.0
 50
95.5524491617360354
  0
POINT
  5
205F
  8
DEFPOINTS
  6
CONTINUOUS
 62
     0
 10
1123.1097549323440035
 20
4164.7246448912746928
 30
0.0
  0
POINT
  5
2060
  8
DEFPOINTS
  6
CONTINUOUS
 62
     0
 10
1151.8641802897300295
 20
3868.9368681010651017
 30
0.0
  0
ENDBLK
  5
1B94
  8
0
 62
     7
  0
BLOCK
  8
0
 62
     7
  2
*D40
 70
     1
 10
0.0
 20
0.0
 30
0.0
  3
*D40
  1

  0
LINE
  5
2061
  8
0
  6
CONTINUOUS
 62
     2
 10
3979.9771249003260891
 20
1115.2527918371490614
 30
0.0
 11
3549.9771249012678709
 21
1115.2527918371490614
 31
0.0
  0
LINE
  5
2062
  8
0
  6
CONTINUOUS
 62
     2
 10
3789.9771189003390646
 20
1985.2390388371429708
 30
0.0
 11
3549.9771249012678709
 21
1985.2390388371429708
 31
0.0
  0
LINE
  5
2063
  8
0
  6
CONTINUOUS
 62
     2
 10
3569.9771249012687804
 20
1155.2527918371490614
 30
0.0
 11
3569.9771249012687804
 21
1945.2390388371429708
 31
0.0
  0
INSERT
  5
2064
  8
0
  6
CONTINUOUS
 62
     2
  2
YA
 10
3569.9771249012687804
 20
1115.2527918371490614
 30
0.0
 41
40.0
 42
40.0
 43
40.0
 50
270.0
  0
INSERT
  5
2065
  8
0
  6
CONTINUOUS
 62
     2
  2
YA
 10
3569.9771249012687804
 20
1985.2390388371429708
 30
0.0
 41
40.0
 42
40.0
 43
40.0
 50
90.0
  0
INSERT
  5
2066
  8
0
 62
     7
  2
*U70
 10
0.0
 20
0.0
 30
0.0
  0
POINT
  5
2067
  8
DEFPOINTS
  6
CONTINUOUS
 62
     0
 10
3999.9771249003260891
 20
1115.2527918371490614
 30
0.0
  0
POINT
  5
2068
  8
DEFPOINTS
  6
CONTINUOUS
 62
     0
 10
3809.9771189003381551
 20
1985.2390388371429708
 30
0.0
  0
POINT
  5
2069
  8
DEFPOINTS
  6
CONTINUOUS
 62
     0
 10
3569.9771249012687804
 20
1985.2390388371429708
 30
0.0
  0
ENDBLK
  5
1B9C
  8
0
 62
     7
  0
BLOCK
  8
0
 62
     7
  2
*D41
 70
     1
 10
0.0
 20
0.0
 30
0.0
  3
*D41
  1

  0
LINE
  5
206A
  8
0
  6
CONTINUOUS
 62
     2
 10
4178.2267929003010067
 20
2365.2528020206959809
 30
0.0
 11
3399.9771249012678709
 21
2365.2528020206959809
 31
0.0
  0
LINE
  5
206B
  8
0
  6
CONTINUOUS
 62
     2
 10
3979.9771249003260891
 20
1115.2527918371490614
 30
0.0
 11
3399.9771249012678709
 21
1115.2527918371490614
 31
0.0
  0
LINE
  5
206C
  8
0
  6
CONTINUOUS
 62
     2
 10
3419.9771249012687804
 20
2325.2528020206959809
 30
0.0
 11
3419.9771249012687804
 21
1155.2527918371490614
 31
0.0
  0
INSERT
  5
206D
  8
0
  6
CONTINUOUS
 62
     2
  2
YA
 10
3419.9771249012687804
 20
2365.2528020206959809
 30
0.0
 41
40.0
 42
40.0
 43
40.0
 50
90.0
  0
INSERT
  5
206E
  8
0
  6
CONTINUOUS
 62
     2
  2
YA
 10
3419.9771249012687804
 20
1115.2527918371490614
 30
0.0
 41
40.0
 42
40.0
 43
40.0
 50
270.0
  0
INSERT
  5
206F
  8
0
 62
     7
  2
*U71
 10
0.0
 20
0.0
 30
0.0
  0
POINT
  5
2070
  8
DEFPOINTS
  6
CONTINUOUS
 62
     0
 10
4198.2267929003000972
 20
2365.2528020206959809
 30
0.0
  0
POINT
  5
2071
  8
DEFPOINTS
  6
CONTINUOUS
 62
     0
 10
3999.9771249003260891
 20
1115.2527918371490614
 30
0.0
  0
POINT
  5
2072
  8
DEFPOINTS
  6
CONTINUOUS
 62
     0
 10
3419.9771249012687804
 20
1115.2527918371490614
 30
0.0
  0
ENDBLK
  5
1BA8
  8
0
 62
     7
  0
BLOCK
  8
0
 62
     7
  2
*D42
 70
     1
 10
0.0
 20
0.0
 30
0.0
  3
*D42
  1

  0
LINE
  5
2073
  8
0
  6
CONTINUOUS
 62
     2
 10
3979.9771249003260891
 20
1115.2527918371490614
 30
0.0
 11
3699.9771249012678709
 21
1115.2527918371490614
 31
0.0
  0
LINE
  5
2074
  8
0
  6
CONTINUOUS
 62
     2
 10
3969.9771249003260891
 20
1465.2527918371490614
 30
0.0
 11
3699.9771249012678709
 21
1465.2527918371490614
 31
0.0
  0
LINE
  5
2075
  8
0
  6
CONTINUOUS
 62
     2
 10
3719.9771249012678709
 20
1155.2527918371490614
 30
0.0
 11
3719.9771249012678709
 21
1425.2527918371490614
 31
0.0
  0
INSERT
  5
2076
  8
0
  6
CONTINUOUS
 62
     2
  2
YA
 10
3719.9771249012678709
 20
1115.2527918371490614
 30
0.0
 41
40.0
 42
40.0
 43
40.0
 50
270.0
  0
INSERT
  5
2077
  8
0
  6
CONTINUOUS
 62
     2
  2
YA
 10
3719.9771249012678709
 20
1465.2527918371490614
 30
0.0
 41
40.0
 42
40.0
 43
40.0
 50
90.0
  0
INSERT
  5
2078
  8
0
 62
     7
  2
*U72
 10
0.0
 20
0.0
 30
0.0
  0
POINT
  5
2079
  8
DEFPOINTS
  6
CONTINUOUS
 62
     0
 10
3999.9771249003260891
 20
1115.2527918371490614
 30
0.0
  0
POINT
  5
207A
  8
DEFPOINTS
  6
CONTINUOUS
 62
     0
 10
3989.9771249003260891
 20
1465.2527918371490614
 30
0.0
  0
POINT
  5
207B
  8
DEFPOINTS
  6
CONTINUOUS
 62
     0
 10
3719.9771249012678709
 20
1465.2527918371490614
 30
0.0
  0
ENDBLK
  5
1BB4
  8
0
 62
     7
  0
BLOCK
  8
0
 62
     7
  2
*D43
 70
     1
 10
0.0
 20
0.0
 30
0.0
  3
*D43
  1

  0
LINE
  5
207C
  8
0
  6
CONTINUOUS
 62
     2
 10
4659.9771249003260891
 20
1115.2527918371490614
 30
0.0
 11
4922.3390468694387891
 21
1115.2527918371490614
 31
0.0
  0
LINE
  5
207D
  8
0
  6
CONTINUOUS
 62
     2
 10
4796.6223641871492873
 20
1315.2526698371520979
 30
0.0
 11
4922.3390468694387891
 21
1315.2526698371520979
 31
0.0
  0
LINE
  5
207E
  8
0
  6
CONTINUOUS
 62
     2
 10
4902.3390468694396986
 20
1155.2527918371490614
 30
0.0
 11
4902.3390468694396986
 21
1275.2526698371520979
 31
0.0
  0
INSERT
  5
207F
  8
0
  6
CONTINUOUS
 62
     2
  2
YA
 10
4902.3390468694396986
 20
1115.2527918371490614
 30
0.0
 41
40.0
 42
40.0
 43
40.0
 50
270.0
  0
INSERT
  5
2080
  8
0
  6
CONTINUOUS
 62
     2
  2
YA
 10
4902.3390468694396986
 20
1315.2526698371520979
 30
0.0
 41
40.0
 42
40.0
 43
40.0
 50
90.0
  0
INSERT
  5
2081
  8
0
 62
     7
  2
*U73
 10
0.0
 20
0.0
 30
0.0
  0
POINT
  5
2082
  8
DEFPOINTS
  6
CONTINUOUS
 62
     0
 10
4639.9771249003251796
 20
1115.2527918371490614
 30
0.0
  0
POINT
  5
2083
  8
DEFPOINTS
  6
CONTINUOUS
 62
     0
 10
4776.6223641871492873
 20
1315.2526698371520979
 30
0.0
  0
POINT
  5
2084
  8
DEFPOINTS
  6
CONTINUOUS
 62
     0
 10
4902.3390468694396986
 20
1315.2526698371520979
 30
0.0
  0
ENDBLK
  5
1BC0
  8
0
 62
     7
  0
BLOCK
  8
0
 62
     7
  2
*D44
 70
     1
 10
0.0
 20
0.0
 30
0.0
  3
*D44
  1

  0
LINE
  5
2085
  8
0
  6
CONTINUOUS
 62
     2
 10
4459.9771249003251796
 20
3165.252791837148834
 30
0.0
 11
4459.9771249003251796
 21
3324.0081922453250627
 31
0.0
  0
LINE
  5
2086
  8
0
  6
CONTINUOUS
 62
     2
 10
4499.9771249003251796
 20
3304.0081922453250627
 30
0.0
 11
4599.9771249003242701
 21
3304.0081922453250627
 31
0.0
  0
INSERT
  5
2087
  8
0
  6
CONTINUOUS
 62
     2
  2
YA
 10
4459.9771249003251796
 20
3304.0081922453250627
 30
0.0
 41
40.0
 42
40.0
 43
40.0
 50
180.0
  0
INSERT
  5
2088
  8
0
  6
CONTINUOUS
 62
     2
  2
YA
 10
4639.9771249003242701
 20
3304.0081922453250627
 30
0.0
 41
40.0
 42
40.0
 43
40.0
  0
INSERT
  5
2089
  8
0
 62
     7
  2
*U74
 10
0.0
 20
0.0
 30
0.0
  0
POINT
  5
208A
  8
DEFPOINTS
  6
CONTINUOUS
 62
     0
 10
4459.9771249003251796
 20
3145.252791837148834
 30
0.0
  0
POINT
  5
208B
  8
DEFPOINTS
  6
CONTINUOUS
 62
     0
 10
4639.9771249003242701
 20
3304.0081922453250627
 30
0.0
  0
POINT
  5
208C
  8
DEFPOINTS
  6
CONTINUOUS
 62
     0
 10
4639.9771249003242701
 20
3304.0081922453250627
 30
0.0
  0
ENDBLK
  5
1BCC
  8
0
 62
     7
  0
BLOCK
  8
0
 62
     7
  2
*U45
 70
     1
 10
0.0
 20
0.0
 30
0.0
  3
*U45
  1

  0
INSERT
  5
22CC
  8
0
  6
CONTINUOUS
 62
     2
  2
YA
 10
1587.5691861705270185
 20
1360.2527918371490614
 30
0.0
 41
40.0
 42
40.0
 43
40.0
 50
289.4652800325761746
  0
POLYLINE
  5
22CD
  8
0
  6
CONTINUOUS
 62
     2
 66
     1
 10
0.0
 20
0.0
 30
0.0
  0
VERTEX
  5
22CE
  8
0
  6
CONTINUOUS
 62
     2
 10
1574.2397630420230143
 20
1397.966535738561106
 30
0.0
  0
VERTEX
  5
22CF
  8
0
  6
CONTINUOUS
 62
     2
 10
1495.6461260970679632
 20
1620.3362712812959217
 30
0.0
  0
SEQEND
  5
22D0
  8
0
  6
CONTINUOUS
 62
     2
  0
ENDBLK
  5
22D2
  8
0
 62
     7
  0
BLOCK
  8
0
 62
     7
  2
*U46
 70
     1
 10
0.0
 20
0.0
 30
0.0
  3
*U46
  1

  0
INSERT
  5
22D4
  8
0
  6
CONTINUOUS
 62
     2
  2
YA
 10
1943.0937134465200415
 20
2825.2408099615718129
 30
0.0
 41
40.0
 42
40.0
 43
40.0
 50
331.5561259907112799
  0
POLYLINE
  5
22D5
  8
0
  6
CONTINUOUS
 62
     2
 66
     1
 10
0.0
 20
0.0
 30
0.0
  0
VERTEX
  5
22D6
  8
0
  6
CONTINUOUS
 62
     2
 10
1907.9223491382319935
 20
2844.2927162361070259
 30
0.0
  0
VERTEX
  5
22D7
  8
0
  6
CONTINUOUS
 62
     2
 10
1739.1329433548960424
 20
2935.723913244321011
 30
0.0
  0
SEQEND
  5
22D8
  8
0
  6
CONTINUOUS
 62
     2
  0
ENDBLK
  5
22DA
  8
0
 62
     7
  0
BLOCK
  8
0
 62
     7
  2
*U47
 70
     1
 10
0.0
 20
0.0
 30
0.0
  3
*U47
  1

  0
INSERT
  5
22DC
  8
0
  6
CONTINUOUS
 62
     2
  2
YA
 10
4714.9771249003242701
 20
1315.2527918371490614
 30
0.0
 41
40.0
 42
40.0
 43
40.0
 50
251.2789103244095941
  0
POLYLINE
  5
22DD
  8
0
  6
CONTINUOUS
 62
     2
 66
     1
 10
0.0
 20
0.0
 30
0.0
  0
VERTEX
  5
22DE
  8
0
  6
CONTINUOUS
 62
     2
 10
4727.8155897830838512
 20
1353.1364798763850104
 30
0.0
  0
VERTEX
  5
22DF
  8
0
  6
CONTINUOUS
 62
     2
 10
4799.9185603859359617
 20
1565.897621489885978
 30
0.0
  0
SEQEND
  5
22E0
  8
0
  6
CONTINUOUS
 62
     2
  0
ENDBLK
  5
22E2
  8
0
 62
     7
  0
BLOCK
  8
0
 62
     7
  2
*U48
 70
     1
 10
0.0
 20
0.0
 30
0.0
  3
*U48
  1

  0
INSERT
  5
22E4
  8
0
  6
CONTINUOUS
 62
     2
  2
YA
 10
2049.8189421704742017
 20
2370.002791837148834
 30
0.0
 41
40.0
 42
40.0
 43
40.0
 50
183.2966314453564962
  0
POLYLINE
  5
22E5
  8
0
  6
CONTINUOUS
 62
     2
 66
     1
 10
0.0
 20
0.0
 30
0.0
  0
VERTEX
  5
22E6
  8
0
  6
CONTINUOUS
 62
     2
 10
2089.752750139040927
 20
2372.3030051163132157
 30
0.0
  0
VERTEX
  5
22E7
  8
0
  6
CONTINUOUS
 62
     2
 10
2577.0151341337477788
 20
2400.3696349499518874
 30
0.0
  0
SEQEND
  5
22E8
  8
0
  6
CONTINUOUS
 62
     2
  0
ENDBLK
  5
22EA
  8
0
 62
     7
  0
BLOCK
  8
0
 62
     7
  2
*U49
 70
     1
 10
0.0
 20
0.0
 30
0.0
  3
*U49
  1

  0
INSERT
  5
22EC
  8
0
  6
CONTINUOUS
 62
     2
  2
YA
 10
1464.5690031705310048
 20
2706.752791837148834
 30
0.0
 41
40.0
 42
40.0
 43
40.0
 50
270.0383087469339216
  0
POLYLINE
  5
22ED
  8
0
  6
CONTINUOUS
 62
     2
 66
     1
 10
0.0
 20
0.0
 30
0.0
  0
VERTEX
  5
22EE
  8
0
  6
CONTINUOUS
 62
     2
 10
1464.5422586218710421
 20
2746.7527828962620333
 30
0.0
  0
VERTEX
  5
22EF
  8
0
  6
CONTINUOUS
 62
     2
 10
1464.4279659459709819
 20
2917.692516158277158
 30
0.0
  0
SEQEND
  5
22F0
  8
0
  6
CONTINUOUS
 62
     2
  0
ENDBLK
  5
22F2
  8
0
 62
     7
  0
BLOCK
  8
0
 62
     7
  2
*U50
 70
     1
 10
0.0
 20
0.0
 30
0.0
  3
*U50
  1

  0
INSERT
  5
22F4
  8
0
  6
CONTINUOUS
 62
     2
  2
YA
 10
1877.5689421705319546
 20
1165.2527918372070417
 30
0.0
 41
40.0
 42
40.0
 43
40.0
 50
148.0597470379439926
  0
POLYLINE
  5
22F5
  8
0
  6
CONTINUOUS
 62
     2
 66
     1
 10
0.0
 20
0.0
 30
0.0
  0
VERTEX
  5
22F6
  8
0
  6
CONTINUOUS
 62
     2
 10
1911.5129511915640705
 20
1144.0914059756880761
 30
0.0
  0
VERTEX
  5
22F7
  8
0
  6
CONTINUOUS
 62
     2
 10
2557.7531264194990399
 20
741.2121320884906481
 30
0.0
  0
SEQEND
  5
22F8
  8
0
  6
CONTINUOUS
 62
     2
  0
ENDBLK
  5
22FA
  8
0
 62
     7
  0
BLOCK
  8
0
 62
     7
  2
*U51
 70
     1
 10
0.0
 20
0.0
 30
0.0
  3
*U51
  1

  0
INSERT
  5
22FC
  8
0
  6
CONTINUOUS
 62
     2
  2
YA
 10
1357.5689421704730648
 20
1115.2527918371490614
 30
0.0
 41
40.0
 42
40.0
 43
40.0
 50
54.9015218432729384
  0
POLYLINE
  5
22FD
  8
0
  6
CONTINUOUS
 62
     2
 66
     1
 10
0.0
 20
0.0
 30
0.0
  0
VERTEX
  5
22FE
  8
0
  6
CONTINUOUS
 62
     2
 10
1334.5696013375950315
 20
1082.5261922390679956
 30
0.0
  0
VERTEX
  5
22FF
  8
0
  6
CONTINUOUS
 62
     2
 10
1207.1279965351570809
 20
901.1848919464973733
 30
0.0
  0
SEQEND
  5
2300
  8
0
  6
CONTINUOUS
 62
     2
  0
ENDBLK
  5
2302
  8
0
 62
     7
  0
BLOCK
  8
0
 62
     7
  2
*U52
 70
     1
 10
0.0
 20
0.0
 30
0.0
  3
*U52
  1

  0
INSERT
  5
2304
  8
0
  6
CONTINUOUS
 62
     2
  2
YA
 10
2077.5689421704742017
 20
1165.2527918371490614
 30
0.0
 41
40.0
 42
40.0
 43
40.0
 50
153.6142579021172878
  0
POLYLINE
  5
2305
  8
0
  6
CONTINUOUS
 62
     2
 66
     1
 10
0.0
 20
0.0
 30
0.0
  0
VERTEX
  5
2306
  8
0
  6
CONTINUOUS
 62
     2
 10
2113.401837321865969
 20
1147.4763010397680318
 30
0.0
  0
VERTEX
  5
2307
  8
0
  6
CONTINUOUS
 62
     2
 10
2557.7531264194990399
 20
927.0362118961055558
 30
0.0
  0
SEQEND
  5
2308
  8
0
  6
CONTINUOUS
 62
     2
  0
ENDBLK
  5
230A
  8
0
 62
     7
  0
BLOCK
  8
0
 62
     7
  2
*U53
 70
     1
 10
0.0
 20
0.0
 30
0.0
  3
*U53
  1

  0
INSERT
  5
230C
  8
0
  6
CONTINUOUS
 62
     2
  2
YA
 10
2262.5689421704742017
 20
2981.8407557532200371
 30
0.0
 41
40.0
 42
40.0
 43
40.0
 50
179.4655215808263904
  0
POLYLINE
  5
230D
  8
0
  6
CONTINUOUS
 62
     2
 66
     1
 10
0.0
 20
0.0
 30
0.0
  0
VERTEX
  5
230E
  8
0
  6
CONTINUOUS
 62
     2
 10
2302.567201799105078
 20
2981.4676248370487883
 30
0.0
  0
VERTEX
  5
230F
  8
0
  6
CONTINUOUS
 62
     2
 10
2576.9345695588272065
 20
2978.9081397932018263
 30
0.0
  0
SEQEND
  5
2310
  8
0
  6
CONTINUOUS
 62
     2
  0
ENDBLK
  5
2312
  8
0
 62
     7
  0
BLOCK
  8
0
 62
     7
  2
*U54
 70
     1
 10
0.0
 20
0.0
 30
0.0
  3
*U54
  1

  0
INSERT
  5
2314
  8
0
  6
CONTINUOUS
 62
     2
  2
YA
 10
2361.5689421704742017
 20
3090.252791837148834
 30
0.0
 41
40.0
 42
40.0
 43
40.0
 50
177.430069312717194
  0
POLYLINE
  5
2315
  8
0
  6
CONTINUOUS
 62
     2
 66
     1
 10
0.0
 20
0.0
 30
0.0
  0
VERTEX
  5
2316
  8
0
  6
CONTINUOUS
 62
     2
 10
2401.5287117345401384
 20
3088.4592432911767901
 30
0.0
  0
VERTEX
  5
2317
  8
0
  6
CONTINUOUS
 62
     2
 10
2576.9783251931658015
 20
3080.5843880919860567
 30
0.0
  0
SEQEND
  5
2318
  8
0
  6
CONTINUOUS
 62
     2
  0
ENDBLK
  5
231A
  8
0
 62
     7
  0
BLOCK
  8
0
 62
     7
  2
*U55
 70
     1
 10
0.0
 20
0.0
 30
0.0
  3
*U55
  1

  0
INSERT
  5
231C
  8
0
  6
CONTINUOUS
 62
     2
  2
YA
 10
1756.8592121009130551
 20
1390.2525638371009791
 30
0.0
 41
40.0
 42
40.0
 43
40.0
 50
199.0844573255070884
  0
POLYLINE
  5
231D
  8
0
  6
CONTINUOUS
 62
     2
 66
     1
 10
0.0
 20
0.0
 30
0.0
  0
VERTEX
  5
231E
  8
0
  6
CONTINUOUS
 62
     2
 10
1794.6607177834659979
 20
1403.3310258312299084
 30
0.0
  0
VERTEX
  5
231F
  8
0
  6
CONTINUOUS
 62
     2
 10
2579.680511991261028
 20
1674.9300364474770504
 30
0.0
  0
SEQEND
  5
2320
  8
0
  6
CONTINUOUS
 62
     2
  0
ENDBLK
  5
2322
  8
0
 62
     7
  0
BLOCK
  8
0
 62
     7
  2
*U56
 70
     1
 10
0.0
 20
0.0
 30
0.0
  3
*U56
  1

  0
INSERT
  5
2324
  8
0
  6
CONTINUOUS
 62
     2
  2
YA
 10
2231.5412673254609217
 20
2526.6861495388438925
 30
0.0
 41
40.0
 42
40.0
 43
40.0
 50
177.8129158624306001
  0
POLYLINE
  5
2325
  8
0
  6
CONTINUOUS
 62
     2
 66
     1
 10
0.0
 20
0.0
 30
0.0
  0
VERTEX
  5
2326
  8
0
  6
CONTINUOUS
 62
     2
 10
2271.5121291081491108
 20
2525.1596475410237872
 30
0.0
  0
VERTEX
  5
2327
  8
0
  6
CONTINUOUS
 62
     2
 10
2576.9688168660509291
 20
2513.4941436385847737
 30
0.0
  0
SEQEND
  5
2328
  8
0
  6
CONTINUOUS
 62
     2
  0
ENDBLK
  5
232A
  8
0
 62
     7
  0
BLOCK
  8
0
 62
     7
  2
*U57
 70
     1
 10
0.0
 20
0.0
 30
0.0
  3
*U57
  1

  0
INSERT
  5
232C
  8
0
  6
CONTINUOUS
 62
     2
  2
YA
 10
2208.0689421701831634
 20
2814.4527888376028386
 30
0.0
 41
40.0
 42
40.0
 43
40.0
 50
188.6711288900305874
  0
POLYLINE
  5
232D
  8
0
  6
CONTINUOUS
 62
     2
 66
     1
 10
0.0
 20
0.0
 30
0.0
  0
VERTEX
  5
232E
  8
0
  6
CONTINUOUS
 62
     2
 10
2247.6117414110631216
 20
2820.483296958435858
 30
0.0
  0
VERTEX
  5
232F
  8
0
  6
CONTINUOUS
 62
     2
 10
2577.615288194211189
 20
2870.8107676227227785
 30
0.0
  0
SEQEND
  5
2330
  8
0
  6
CONTINUOUS
 62
     2
  0
ENDBLK
  5
2332
  8
0
 62
     7
  0
BLOCK
  8
0
 62
     7
  2
*U58
 70
     1
 10
0.0
 20
0.0
 30
0.0
  3
*U58
  1

  0
INSERT
  5
2334
  8
0
  6
CONTINUOUS
 62
     2
  2
YA
 10
2198.0689421701831634
 20
2799.4527888376042029
 30
0.0
 41
40.0
 42
40.0
 43
40.0
 50
175.085542366142505
  0
POLYLINE
  5
2335
  8
0
  6
CONTINUOUS
 62
     2
 66
     1
 10
0.0
 20
0.0
 30
0.0
  0
VERTEX
  5
2336
  8
0
  6
CONTINUOUS
 62
     2
 10
2237.9218906076330313
 20
2796.0260555766158177
 30
0.0
  0
VERTEX
  5
2337
  8
0
  6
CONTINUOUS
 62
     2
 10
2578.7822418169821503
 20
2766.7173708082991652
 30
0.0
  0
SEQEND
  5
2338
  8
0
  6
CONTINUOUS
 62
     2
  0
ENDBLK
  5
233A
  8
0
 62
     7
  0
BLOCK
  8
0
 62
     7
  2
*U59
 70
     1
 10
0.0
 20
0.0
 30
0.0
  3
*U59
  1

  0
INSERT
  5
233C
  8
0
  6
CONTINUOUS
 62
     2
  2
YA
 10
2211.5365009040110635
 20
2603.7162614049161675
 30
0.0
 41
40.0
 42
40.0
 43
40.0
 50
184.866265682170507
  0
POLYLINE
  5
233D
  8
0
  6
CONTINUOUS
 62
     2
 66
     1
 10
0.0
 20
0.0
 30
0.0
  0
VERTEX
  5
233E
  8
0
  6
CONTINUOUS
 62
     2
 10
2251.3923174974252106
 20
2607.1094728147959358
 30
0.0
  0
VERTEX
  5
233F
  8
0
  6
CONTINUOUS
 62
     2
 10
2574.4163524402538314
 20
2634.6108248060340884
 30
0.0
  0
SEQEND
  5
2340
  8
0
  6
CONTINUOUS
 62
     2
  0
ENDBLK
  5
2342
  8
0
 62
     7
  0
BLOCK
  8
0
 62
     7
  2
*U60
 70
     1
 10
0.0
 20
0.0
 30
0.0
  3
*U60
  1

  0
INSERT
  5
2344
  8
0
  6
CONTINUOUS
 62
     2
  2
YA
 10
4975.209671176970005
 20
5080.1364192663459107
 30
0.0
 41
40.0
 42
40.0
 43
40.0
 50
329.8188980536833128
  0
POLYLINE
  5
2345
  8
0
  6
CONTINUOUS
 62
     2
 66
     1
 10
0.0
 20
0.0
 30
0.0
  0
VERTEX
  5
2346
  8
0
  6
CONTINUOUS
 62
     2
 10
4940.6320444710972879
 20
5100.2458133743066355
 30
0.0
  0
VERTEX
  5
2347
  8
0
  6
CONTINUOUS
 62
     2
 10
4868.9874325825367123
 20
5141.9123438286469536
 30
0.0
  0
SEQEND
  5
2348
  8
0
  6
CONTINUOUS
 62
     2
  0
ENDBLK
  5
234A
  8
0
 62
     7
  0
BLOCK
  8
0
 62
     7
  2
*U61
 70
     1
 10
0.0
 20
0.0
 30
0.0
  3
*U61
  1

  0
INSERT
  5
234C
  8
0
  6
CONTINUOUS
 62
     2
  2
YA
 10
4759.0422646226952565
 20
4588.8814924667813102
 30
0.0
 41
40.0
 42
40.0
 43
40.0
 50
161.4895894887386874
  0
POLYLINE
  5
234D
  8
0
  6
CONTINUOUS
 62
     2
 66
     1
 10
0.0
 20
0.0
 30
0.0
  0
VERTEX
  5
234E
  8
0
  6
CONTINUOUS
 62
     2
 10
4796.9729040637657818
 20
4576.1824140911103314
 30
0.0
  0
VERTEX
  5
234F
  8
0
  6
CONTINUOUS
 62
     2
 10
4888.271119273325894
 20
4545.6160116367982482
 30
0.0
  0
SEQEND
  5
2350
  8
0
  6
CONTINUOUS
 62
     2
  0
ENDBLK
  5
2352
  8
0
 62
     7
  0
BLOCK
  8
0
 62
     7
  2
*U62
 70
     1
 10
0.0
 20
0.0
 30
0.0
  3
*U62
  1

  0
INSERT
  5
2354
  8
0
  6
CONTINUOUS
 62
     2
  2
YA
 10
4750.7040288585121743
 20
4299.8001934664789587
 30
0.0
 41
40.0
 42
40.0
 43
40.0
 50
174.6141435747838955
  0
POLYLINE
  5
2355
  8
0
  6
CONTINUOUS
 62
     2
 66
     1
 10
0.0
 20
0.0
 30
0.0
  0
VERTEX
  5
2356
  8
0
  6
CONTINUOUS
 62
     2
 10
4790.5274354621351449
 20
4296.0456913047419221
 30
0.0
  0
VERTEX
  5
2357
  8
0
  6
CONTINUOUS
 62
     2
 10
4890.6497065256116912
 20
4286.6062858091900125
 30
0.0
  0
SEQEND
  5
2358
  8
0
  6
CONTINUOUS
 62
     2
  0
ENDBLK
  5
235A
  8
0
 62
     7
  0
BLOCK
  8
0
 62
     7
  2
*U63
 70
     1
 10
0.0
 20
0.0
 30
0.0
  3
*U63
  1

  0
TEXT
  5
236C
  8
0
 62
     2
 10
2874.2456290229579281
 20
4484.0249430887133713
 30
0.0
 40
50.0
  1
840
 50
90.0
 41
0.8
  0
ENDBLK
  5
236E
  8
0
 62
     7
  0
BLOCK
  8
0
 62
     7
  2
*U64
 70
     1
 10
0.0
 20
0.0
 30
0.0
  3
*U64
  1

  0
TEXT
  5
2370
  8
0
 62
     2
 10
2874.2456290229579281
 20
2059.7766013609589208
 30
0.0
 40
50.0
  1
2030
 50
90.0
 41
0.8
  0
ENDBLK
  5
2372
  8
0
 62
     7
  0
BLOCK
  8
0
 62
     7
  2
*U65
 70
     1
 10
0.0
 20
0.0
 30
0.0
  3
*U65
  1

  0
TEXT
  5
2374
  8
0
 62
     2
 10
1520.9022755038070045
 20
3476.0311746010561365
 30
0.0
 40
50.0
  1
1740
 41
0.8
  0
ENDBLK
  5
2376
  8
0
 62
     7
  0
BLOCK
  8
0
 62
     7
  2
*U66
 70
     1
 10
0.0
 20
0.0
 30
0.0
  3
*U66
  1

  0
TEXT
  5
2378
  8
0
 62
     2
 10
1457.593260537902097
 20
1163.8242204085770481
 30
0.0
 40
50.0
  1
200
 50
90.0
 41
0.8
  0
ENDBLK
  5
237A
  8
0
 62
     7
  0
BLOCK
  8
0
 62
     7
  2
*U67
 70
     1
 10
0.0
 20
0.0
 30
0.0
  3
*U67
  1

  0
TEXT
  5
237C
  8
0
 62
     2
 10
1101.1403707419019611
 20
5229.1312653836803293
 30
0.0
 40
50.0
  1
870
 41
0.8
  0
ENDBLK
  5
237E
  8
0
 62
     7
  0
BLOCK
  8
0
 62
     7
  2
*U68
 70
     1
 10
0.0
 20
0.0
 30
0.0
  3
*U68
  1

  0
TEXT
  5
2380
  8
0
 62
     2
 10
1971.1403097419040478
 20
5229.1312653836803293
 30
0.0
 40
50.0
  1
870
 41
0.8
  0
ENDBLK
  5
2382
  8
0
 62
     7
  0
BLOCK
  8
0
 62
     7
  2
*U69
 70
     1
 10
0.0
 20
0.0
 30
0.0
  3
*U69
  1

  0
TEXT
  5
2384
  8
0
 62
     2
 10
1153.7183385523239849
 20
4115.273167304528215
 30
0.0
 40
50.0
  1
R595.7
 50
275.5524491617359786
 41
0.8
  0
ENDBLK
  5
2386
  8
0
 62
     7
  0
BLOCK
  8
0
 62
     7
  2
*U70
 70
     1
 10
0.0
 20
0.0
 30
0.0
  3
*U70
  1

  0
TEXT
  5
2388
  8
0
 62
     2
 10
3549.9771249012678709
 20
1498.8173439085730934
 30
0.0
 40
50.0
  1
870
 50
90.0
 41
0.8
  0
ENDBLK
  5
238A
  8
0
 62
     7
  0
BLOCK
  8
0
 62
     7
  2
*U71
 70
     1
 10
0.0
 20
0.0
 30
0.0
  3
*U71
  1

  0
TEXT
  5
238C
  8
0
 62
     2
 10
3399.9771249012678709
 20
1673.5861302622549829
 30
0.0
 40
50.0
  1
1250
 50
90.0
 41
0.8
  0
ENDBLK
  5
238E
  8
0
 62
     7
  0
BLOCK
  8
0
 62
     7
  2
*U72
 70
     1
 10
0.0
 20
0.0
 30
0.0
  3
*U72
  1

  0
TEXT
  5
2390
  8
0
 62
     2
 10
3699.9771249012678709
 20
1238.8242204085770481
 30
0.0
 40
50.0
  1
350
 50
90.0
 41
0.8
  0
ENDBLK
  5
2392
  8
0
 62
     7
  0
BLOCK
  8
0
 62
     7
  2
*U73
 70
     1
 10
0.0
 20
0.0
 30
0.0
  3
*U73
  1

  0
TEXT
  5
2394
  8
0
 62
     2
 10
4882.3390468694387891
 20
1163.8241594085770885
 30
0.0
 40
50.0
  1
200
 50
90.0
 41
0.8
  0
ENDBLK
  5
2396
  8
0
 62
     7
  0
BLOCK
  8
0
 62
     7
  2
*U74
 70
     1
 10
0.0
 20
0.0
 30
0.0
  3
*U74
  1

  0
TEXT
  5
2398
  8
0
 62
     2
 10
4502.358077281275655
 20
3324.0081922453250627
 30
0.0
 40
50.0
  1
180
 41
0.8
  0
ENDBLK
  5
239A
  8
0
 62
     7
  0
BLOCK
  8
0
 62
     7
  2
*U75
 70
     1
 10
0.0
 20
0.0
 30
0.0
  3
*U75
  1

  0
TEXT
  5
239C
  8
0
 62
     2
 10
1844.7117993133310847
 20
615.3211633345343898
 30
0.0
 40
50.0
  1
1100
 41
0.8
  0
ENDBLK
  5
239E
  8
0
 62
     7
  0
BLOCK
  8
0
 62
     7
  2
*U76
 70
     1
 10
0.0
 20
0.0
 30
0.0
  3
*U76
  1

  0
TEXT
  5
23A0
  8
0
 62
     2
 10
2206.1403707419021885
 20
765.3211633345343898
 30
0.0
 40
50.0
  1
400
 41
0.8
  0
ENDBLK
  5
23A2
  8
0
 62
     7
  0
BLOCK
  8
0
 62
     7
  2
*U77
 70
     1
 10
0.0
 20
0.0
 30
0.0
  3
*U77
  1

  0
TEXT
  5
23A4
  8
0
 62
     2
 10
1906.1403707419019611
 20
765.3211633345343898
 30
0.0
 40
50.0
  1
200
 41
0.8
  0
ENDBLK
  5
23A6
  8
0
 62
     7
  0
BLOCK
  8
0
 62
     7
  2
*U78
 70
     1
 10
0.0
 20
0.0
 30
0.0
  3
*U78
  1

  0
TEXT
  5
23A8
  8
0
 62
     2
 10
4168.5485534717527116
 20
658.4985626445850357
 30
0.0
 40
50.0
  1
840
 41
0.8
  0
ENDBLK
  5
23AA
  8
0
 62
     7
  0
BLOCK
  8
0
 62
     7
  2
*U79
 70
     1
 10
0.0
 20
0.0
 30
0.0
  3
*U79
  1

  0
TEXT
  5
23AC
  8
0
 62
     2
 10
4268.5485534717518021
 20
808.4985626445851494
 30
0.0
 40
50.0
  1
640
 41
0.8
  0
ENDBLK
  5
23AE
  8
0
 62
     7
  0
BLOCK
  8
0
 62
     7
  2
*U80
 70
     1
 10
0.0
 20
0.0
 30
0.0
  3
*U80
  1

  0
TEXT
  5
23B0
  8
0
 62
     2
 10
4355.2875397372927182
 20
958.4985626445851494
 30
0.0
 40
50.0
  1
50
 41
0.8
  0
ENDBLK
  5
23B2
  8
0
 62
     7
  0
BLOCK
  8
0
 62
     7
  2
*U81
 70
     1
 10
0.0
 20
0.0
 30
0.0
  3
*U81
  1

  0
TEXT
  5
23B4
  8
0
 62
     2
 10
4517.3580772812765645
 20
958.4985626445851494
 30
0.0
 40
50.0
  1
150
 41
0.8
  0
ENDBLK
  5
23B6
  8
0
 62
     7
  0
BLOCK
  8
0
 62
     7
  2
*U82
 70
     1
 10
0.0
 20
0.0
 30
0.0
  3
*U82
  1

  0
TEXT
  5
23B8
  8
0
 62
     2
 10
4291.0482346326543848
 20
2157.5524203627142015
 30
0.0
 40
50.0
  1
235
 41
0.8
  0
ENDBLK
  5
23BA
  8
0
 62
     7
  0
ENDSEC
  0
SECTION
  2
ENTITIES
  0
TEXT
  5
11EF
  8
0
  6
CONTINUOUS
 62
     3
 10
6413.5239942857288042
 20
29.2501000000047497
 30
0.0
 40
120.0
  1
3-RO-17180
 41
0.8
  0
LINE
  5
11F0
  8
0
 62
     3
 10
1165.0689421705899349
 20
4715.4535145173431374
 30
0.0
 11
1430.0235486248859615
 21
4715.4535145172840203
 31
0.0
  0
LINE
  5
11F1
  8
0
 62
     3
 10
1499.1144577158850097
 20
4715.4535145172840203
 30
0.0
 11
1676.0235486256999593
 21
4715.4535145172840203
 31
0.0
  0
LINE
  5
11F2
  8
0
 62
     3
 10
1745.1144577165830469
 20
4715.4535145172840203
 30
0.0
 11
2010.0689421704739743
 21
4715.4535145172267221
 31
0.0
  0
LINE
  5
11F3
  8
0
 62
     3
 10
2035.068942170415994
 20
4715.4535145172840203
 30
0.0
 11
2387.5688201704761013
 21
4715.4535145172840203
 31
0.0
  0
ARC
  5
11F4
  8
0
 62
     3
 10
2387.5688201704761013
 20
4705.4535145172849298
 30
0.0
 40
10.0
 50
0.0
 51
90.0
  0
LINE
  5
11F5
  8
0
 62
     3
 10
2397.5688201704770108
 20
4705.4535145172849298
 30
0.0
 11
2397.5688201704770108
 21
4245.4535145172849298
 31
0.0
  0
LINE
  5
11F6
  8
0
 62
     3
 10
1140.0689421705319546
 20
4715.4535145172840203
 30
0.0
 11
787.568942170473747
 21
4715.4535145172840203
 31
0.0
  0
ARC
  5
11F7
  8
0
 62
     3
 10
787.568942170473747
 20
4705.4535145172849298
 30
0.0
 40
10.0
 50
90.0
 51
180.0
  0
LINE
  5
11F8
  8
0
 62
     3
 10
777.568942170473747
 20
4705.4535145172849298
 30
0.0
 11
777.568942170473747
 21
4245.453270517288729
 31
0.0
  0
LINE
  5
11F9
  8
0
  6
CONTINUOUS
 62
     7
 10
5909.2857142857392319
 20
580.0003399999694693
 30
0.0
 11
3669.2857142857387771
 21
580.0003399999694693
 31
0.0
  0
LINE
  5
11FA
  8
0
  6
CONTINUOUS
 62
     2
 10
3669.2857142857387771
 20
340.0002999999560984
 30
0.0
 11
7809.2857142857392319
 21
340.000339999969583
 31
0.0
  0
LINE
  5
11FB
  8
0
  6
CONTINUOUS
 62
     2
 10
3669.2857142857387771
 20
460.0003399999695262
 30
0.0
 11
7809.2857142857392319
 21
460.0003399999695262
 31
0.0
  0
LINE
  5
11FC
  8
0
  6
CONTINUOUS
 62
     2
 10
3669.2857142857387771
 20
220.0003199999918877
 30
0.0
 11
7809.2857142857392319
 21
220.0003399999696114
 31
0.0
  0
LINE
  5
11FD
  8
0
  6
CONTINUOUS
 62
     2
 10
5909.2857142857392319
 20
100.0003399999695972
 30
0.0
 11
3669.2857142857387771
 21
100.0001799999735965
 31
0.0
  0
LINE
  5
11FE
  8
0
  6
CONTINUOUS
 62
     2
 10
5669.2857142857392319
 20
100.0002999999559989
 30
0.0
 11
5669.2857142857392319
 21
580.0003399999694693
 31
0.0
  0
LINE
  5
11FF
  8
0
  6
CONTINUOUS
 62
     3
 10
3719.2857142857387771
 20
360.0003999999607913
 30
0.0
 11
3819.2857142857387771
 21
360.0003999999607913
 31
0.0
  0
LINE
  5
1200
  8
0
  6
CONTINUOUS
 62
     3
 10
3819.2857142857387771
 20
360.0003999999607913
 30
0.0
 11
3769.2857142857387771
 21
446.6029400000115857
 31
0.0
  0
LINE
  5
1201
  8
0
  6
CONTINUOUS
 62
     3
 10
3769.2857142857387771
 20
446.6029400000115857
 30
0.0
 11
3719.2857142857387771
 21
360.0003600000055144
 31
0.0
  0
LINE
  5
1202
  8
0
  6
CONTINUOUS
 62
     7
 10
3669.2857142857387771
 20
0.000339999969583
 30
0.0
 11
3669.2857142857387771
 21
580.0003399999694693
 31
0.0
  0
LINE
  5
1203
  8
0
  6
CONTINUOUS
 62
     2
 10
5269.2857142857392319
 20
100.0002999999559989
 30
0.0
 11
5269.2857142857392319
 21
580.0003399999694693
 31
0.0
  0
LINE
  5
1204
  8
0
  6
CONTINUOUS
 62
     2
 10
4869.2857142857392319
 20
100.0002600000006936
 30
0.0
 11
4869.2857142857392319
 21
580.0003399999694693
 31
0.0
  0
LINE
  5
1205
  8
0
  6
CONTINUOUS
 62
     2
 10
4469.2857142857392319
 20
100.0002199999870953
 30
0.0
 11
4469.2857142857392319
 21
580.0003399999694693
 31
0.0
  0
LINE
  5
1206
  8
0
  6
CONTINUOUS
 62
     2
 10
3869.2857142857387771
 20
100.0001799999735965
 30
0.0
 11
3869.2857142857387771
 21
580.0003399999694693
 31
0.0
  0
TEXT
  5
1207
  8
0
  6
CONTINUOUS
 62
     3
 10
4503.8157342857448384
 20
20.5690999999642408
 30
0.0
 40
60.0
  1
REVISIONS
  0
TEXT
  5
1208
  8
0
  6
CONTINUOUS
 62
     3
 10
4509.2857142857392319
 20
140.0002000000094995
 30
0.0
 40
40.0
  1
APPROVED
  0
TEXT
  5
1209
  8
0
  6
CONTINUOUS
 62
     3
 10
3731.6714113780758453
 20
140.0001799999735965
 30
0.0
 40
40.0
  1
NO,
  0
LINE
  5
120A
  8
0
  6
CONTINUOUS
 62
     3
 10
3719.2857142857387771
 20
240.0003199999918877
 30
0.0
 11
3819.2857142857387771
 21
240.0003199999918877
 31
0.0
  0
LINE
  5
120B
  8
0
  6
CONTINUOUS
 62
     3
 10
3819.2857142857387771
 20
240.0003199999918877
 30
0.0
 11
3769.2857142857387771
 21
326.6028599999845028
 31
0.0
  0
LINE
  5
120C
  8
0
  6
CONTINUOUS
 62
     3
 10
3769.2857142857387771
 20
326.6028599999845028
 30
0.0
 11
3719.2857142857387771
 21
240.0002799999784031
 31
0.0
  0
TEXT
  5
120D
  8
0
  6
CONTINUOUS
 62
     3
 10
3949.2857142857387771
 20
140.0001599999959012
 30
0.0
 40
40.0
  1
DESCRIPTION
  0
TEXT
  5
120E
  8
0
  6
CONTINUOUS
 62
     3
 10
4929.2857142857401413
 20
140.0002000000094995
 30
0.0
 40
40.0
  1
CHECKED
  0
TEXT
  5
120F
  8
0
  6
CONTINUOUS
 62
     3
 10
5329.2857142857392319
 20
140.0002799999782894
 30
0.0
 40
40.0
  1
REVISED
  0
TEXT
  5
1210
  8
0
  6
CONTINUOUS
 62
     3
 10
5709.2857142857392319
 20
140.0002799999782894
 30
0.0
 40
40.0
  1
DATE
  0
LINE
  5
1211
  8
0
  6
CONTINUOUS
 62
     3
 10
3719.2857142857387771
 20
480.0003999999606776
 30
0.0
 11
3819.2857142857387771
 21
480.0003999999606776
 31
0.0
  0
LINE
  5
1212
  8
0
  6
CONTINUOUS
 62
     3
 10
3819.2857142857387771
 20
480.0003999999606776
 30
0.0
 11
3769.2857142857387771
 21
566.602940000011472
 31
0.0
  0
LINE
  5
1213
  8
0
  6
CONTINUOUS
 62
     3
 10
3769.2857142857387771
 20
566.602940000011472
 30
0.0
 11
3719.2857142857387771
 21
480.0003600000054007
 31
0.0
  0
LINE
  5
1214
  8
0
  6
CONTINUOUS
 62
     2
 10
6859.2857142857392319
 20
580.0002600000007078
 30
0.0
 11
6859.2857142857392319
 21
220.0003399999696114
 31
0.0
  0
LINE
  5
1215
  8
0
  6
CONTINUOUS
 62
     7
 10
5909.2850942857330665
 20
1100.0002999999560416
 30
0.0
 11
5909.2857142857392319
 21
0.000339999969583
 31
0.0
  0
TEXT
  5
1216
  8
0
  6
CONTINUOUS
 62
     3
 10
6879.2857142857401413
 20
260.0003199999919161
 30
0.0
 40
40.0
  1
DRAWN BY
  0
TEXT
  5
1217
  8
0
  6
CONTINUOUS
 62
     3
 10
5929.2857142857401413
 20
260.000339999969583
 30
0.0
 40
40.0
  1
CHECKED BY
  0
TEXT
  5
1218
  8
0
  6
CONTINUOUS
 62
     3
 10
5929.2857142857401413
 20
160.0003399999696114
 30
0.0
 40
40.0
  1
DWG.NO,
  0
TEXT
  5
1219
  8
0
  6
CONTINUOUS
 62
     3
 10
7355.3619178411900066
 20
251.9075237654614909
 30
0.0
 40
60.0
  1
M.TAKAHASHI
 41
0.7
  0
TEXT
  5
121A
  8
0
  6
CONTINUOUS
 62
     3
 10
6879.2857142857401413
 20
380.000339999969583
 30
0.0
 40
40.0
  1
DESIGNED BY
  0
LINE
  5
121B
  8
0
  6
CONTINUOUS
 62
     7
 10
7809.2857142857392319
 20
1100.0003799999828971
 30
0.0
 11
5909.2857142857392319
 21
1100.0003799999828971
 31
0.0
  0
LINE
  5
121C
  8
0
  6
CONTINUOUS
 62
     2
 10
5909.2857142857392319
 20
900.0003799999831244
 30
0.0
 11
7809.2857142857392319
 21
900.0003799999831244
 31
0.0
  0
LINE
  5
121D
  8
0
  6
CONTINUOUS
 62
     2
 10
5909.2857142857392319
 20
580.0003399999694693
 30
0.0
 11
7809.2857142857392319
 21
580.0003399999694693
 31
0.0
  0
TEXT
  5
121E
  8
0
  6
CONTINUOUS
 62
     3
 10
6456.8168121696216986
 20
484.8637616562190829
 30
0.0
 40
60.0
  1
1/20
  0
TEXT
  5
121F
  8
0
  6
CONTINUOUS
 62
     3
 10
5929.2857142857401413
 20
380.000339999969583
 30
0.0
 40
40.0
  1
APPROVED BY
  0
TEXT
  5
1220
  8
0
  6
CONTINUOUS
 62
     3
 10
5929.2857142857401413
 20
500.0002999999559847
 30
0.0
 40
40.0
  1
SCALE
  0
TEXT
  5
1221
  8
0
  6
CONTINUOUS
 62
     3
 10
6879.2857142857401413
 20
500.0002999999559847
 30
0.0
 40
40.0
  1
DATE
  0
DIMENSION
  5
1222
  8
0
  6
CONTINUOUS
 62
     2
  2
*D33
 10
2894.2456290229579281
 20
4955.4535145172867487
 30
0.0
 11
2849.2456290229579281
 21
4535.4535145172849298
 31
0.0
 70
     0
 13
2457.5689421704742017
 23
4115.4535145172849298
 33
0.0
 14
2457.5689421704742017
 24
4955.4535145172849298
 34
0.0
 50
90.0000049992448936
1001
ACAD
1000
DSTYLE
1002
{
1070
   340
1005
F
1002
}
  0
DIMENSION
  5
1223
  8
0
  6
CONTINUOUS
 62
     2
  2
*D34
 10
2894.2456290229579281
 20
3145.2527918371511078
 30
0.0
 11
2849.2456290229579281
 21
2130.252791837148834
 31
0.0
 70
     0
 13
2713.2853581688841587
 23
1115.2527918371490614
 33
0.0
 14
2457.5689421704742017
 24
3145.252791837148834
 34
0.0
 50
90.0
1001
ACAD
1000
DSTYLE
1002
{
1070
   340
1005
F
1002
}
  0
DIMENSION
  5
1224
  8
0
  6
CONTINUOUS
 62
     2
  2
*D35
 10
2457.5689421704742017
 20
3456.0311746010561365
 30
0.0
 11
1587.5689421704739743
 21
3501.0311746010561365
 31
0.0
 70
     0
 13
717.568942170473747
 23
3145.252791837148834
 33
0.0
 14
2457.5689421704742017
 24
3145.252791837148834
 34
0.0
1001
ACAD
1000
DSTYLE
1002
{
1070
   340
1005
F
1002
}
  0
LINE
  5
1225
  8
0
 62
     3
 10
2357.5689421704742017
 20
1115.2527918371490614
 30
0.0
 11
2357.5689421704742017
 21
1465.2530358371438979
 31
0.0
  0
LINE
  5
1226
  8
0
 62
     3
 10
817.568942170473747
 20
1115.2527918371490614
 30
0.0
 11
817.568942170473747
 21
1465.2527918371490614
 31
0.0
  0
DIMENSION
  5
1227
  8
0
  6
CONTINUOUS
 62
     2
  2
*D36
 10
1477.593260537902097
 20
1115.2527918371490614
 30
0.0
 11
1432.593260537902097
 21
1215.2527918371490614
 31
0.0
 70
     0
 13
1537.5691861705270185
 23
1315.2527918371490614
 33
0.0
 14
1477.5932605369600878
 24
1115.2527918371490614
 34
0.0
 50
90.0
1001
ACAD
1000
DSTYLE
1002
{
1070
   340
1005
F
1002
}
  0
LINE
  5
1228
  8
壁
 62
     5
 10
717.568942170473747
 20
1115.2527918371490614
 30
0.0
 11
457.482726170506794
 21
1115.2527918371490614
 31
0.0
  0
LINE
  5
1229
  8
壁
 62
     1
 10
455.4361291704698829
 20
1065.2527918371490614
 30
0.0
 11
505.4361291704698829
 21
1115.2527918371490614
 31
0.0
  0
LINE
  5
122A
  8
壁
 62
     1
 10
596.8580041704699397
 20
1065.2527918371490614
 30
0.0
 11
646.8580041704699397
 21
1115.2527918371490614
 31
0.0
  0
LINE
  5
122B
  8
壁
 62
     1
 10
526.147067170473747
 20
1065.2527918371490614
 30
0.0
 11
576.147067170473747
 21
1115.2527918371490614
 31
0.0
  0
LINE
  5
122C
  8
壁
 62
     1
 10
667.568942170473747
 20
1065.2527918371490614
 30
0.0
 11
717.568942170473747
 21
1115.2527918371490614
 31
0.0
  0
LINE
  5
122D
  8
0
 62
     3
 10
817.568942170473747
 20
1170.2527918371490614
 30
0.0
 11
2357.5689421704742017
 21
1170.2527918371490614
 31
0.0
  0
LINE
  5
122E
  8
壁
 62
     1
 10
2581.6076409478559981
 20
1065.2527918371490614
 30
0.0
 11
2631.6076409478550886
 21
1115.2527918371490614
 31
0.0
  0
LINE
  5
122F
  8
壁
 62
     1
 10
2510.8967029478521908
 20
1065.2527918371490614
 30
0.0
 11
2560.8967029478521908
 21
1115.2527918371490614
 31
0.0
  0
LINE
  5
1230
  8
壁
 62
     1
 10
2652.3185779478521908
 20
1065.2527918371490614
 30
0.0
 11
2702.3185779478521908
 21
1115.2527918371490614
 31
0.0
  0
LINE
  5
1231
  8
0
 62
     3
 10
2457.5689421704742017
 20
1465.2530358371438979
 30
0.0
 11
717.568942170473747
 21
1465.2527918371490614
 31
0.0
  0
LINE
  5
1232
  8
0
 62
     3
 10
2457.5689421704742017
 20
1893.7047345580069759
 30
0.0
 11
717.568942170473747
 21
1893.7047345580069759
 31
0.0
  0
LINE
  5
1233
  8
0
 62
     3
 10
717.568942170473747
 20
1985.2527918371490614
 30
0.0
 11
2457.5689421704742017
 21
1985.2527918371490614
 31
0.0
  0
LINE
  5
1234
  8
0
 62
     3
 10
2457.5689421704742017
 20
2059.5007028371910565
 30
0.0
 11
717.568942170473747
 21
2059.5007028371910565
 31
0.0
  0
INSERT
  5
1235
  8
0
 62
     7
  2
*U45
 10
0.0
 20
0.0
 30
0.0
1001
ACAD
1000
DSTYLE
1002
{
1070
   340
1005
F
1002
}
  0
LINE
  5
1236
  8
0
 62
     3
 10
777.5688201704761013
 20
1985.2527918371490614
 30
0.0
 11
777.5688201704761013
 21
2039.5007028371910565
 31
0.0
  0
LINE
  5
1237
  8
0
 62
     3
 10
2397.5689421704742017
 20
1985.2527918371490614
 30
0.0
 11
2397.5689421704742017
 21
2039.5007028371910565
 31
0.0
  0
INSERT
  5
1238
  8
0
 62
     7
  2
*U46
 10
0.0
 20
0.0
 30
0.0
1001
ACAD
1000
DSTYLE
1002
{
1070
   340
1005
F
1002
}
  0
CIRCLE
  5
1239
  8
0
  6
CONTINUOUS
 62
     2
 10
1695.8316731656670981
 20
2960.723913244321011
 30
0.0
 40
50.0
  0
TEXT
  5
123A
  8
0
  6
CONTINUOUS
 62
     2
 10
1678.6888160228099878
 20
2930.723913244321011
 30
0.0
 40
60.0
  1
4
 41
0.8
 72
     1
 11
1695.8316731656670981
 21
2960.723913244321011
 31
0.0
 73
     2
  0
LINE
  5
123B
  8
0
 62
     3
 10
717.568942170473747
 20
4775.4535145172849298
 30
0.0
 11
2457.5689421704742017
 21
4775.4535145172849298
 31
0.0
  0
DIMENSION
  5
123C
  8
0
  6
CONTINUOUS
 62
     2
  2
*D37
 10
1587.5689421704739743
 20
5209.1312653836794198
 30
0.0
 11
1152.5689421704739743
 21
5254.1312653836803293
 31
0.0
 70
     0
 13
717.568942170473747
 23
4955.4535145172849298
 33
0.0
 14
1587.5689421704739743
 24
5069.531864789489191
 34
0.0
1001
ACAD
1000
DSTYLE
1002
{
1070
   340
1005
F
1002
}
  0
DIMENSION
  5
123D
  8
0
  6
CONTINUOUS
 62
     2
  2
*D38
 10
2457.5688201704761013
 20
5209.1312653836794198
 30
0.0
 11
2022.5688811704749241
 21
5254.1312653836803293
 31
0.0
 70
     0
 13
1587.5689421704739743
 23
5069.531864789489191
 33
0.0
 14
2457.5688201704761013
 24
4955.4535145172849298
 34
0.0
1001
ACAD
1000
DSTYLE
1002
{
1070
   340
1005
F
1002
}
  0
LINE
  5
123E
  8
壁
 62
     1
 10
2332.5693367705098353
 20
4955.4535145172849298
 30
0.0
 11
2411.8408207704778761
 21
5034.7254875172511674
 31
0.0
  0
LINE
  5
123F
  8
壁
 62
     1
 10
2247.7163087704689133
 20
4955.4535145172849298
 30
0.0
 11
2326.9882817704929039
 21
5034.7254875172511674
 31
0.0
  0
LINE
  5
1240
  8
壁
 62
     1
 10
2162.8637697704839411
 20
4955.4535145172849298
 30
0.0
 11
2242.1357427705079317
 21
5034.7254875172511674
 31
0.0
  0
LINE
  5
1241
  8
壁
 62
     1
 10
2078.0112307704989689
 20
4955.4535145172849298
 30
0.0
 11
2157.2832037705229595
 21
5034.7254875172511674
 31
0.0
  0
LINE
  5
1242
  8
壁
 62
     1
 10
1993.1586917705130872
 20
4955.4535145172849298
 30
0.0
 11
2072.4306647704797797
 21
5034.7254875172511674
 31
0.0
  0
LINE
  5
1243
  8
壁
 62
     1
 10
1908.3061527705278877
 20
4955.4535145172849298
 30
0.0
 11
1987.5781257704950349
 21
5034.7254875172511674
 31
0.0
  0
LINE
  5
1244
  8
壁
 62
     1
 10
1738.6010747704999631
 20
4955.4535145172849298
 30
0.0
 11
1817.8730477704671102
 21
5034.7254875172511674
 31
0.0
  0
LINE
  5
1245
  8
壁
 62
     1
 10
1823.4536137704849352
 20
4955.4535145172849298
 30
0.0
 11
1902.7255867705089258
 21
5034.7254875172511674
 31
0.0
  0
LINE
  5
1246
  8
壁
 62
     1
 10
1653.7485357705149909
 20
4955.4535145172849298
 30
0.0
 11
1733.0205087704819107
 21
5034.7254875172511674
 31
0.0
  0
LINE
  5
1247
  8
壁
 62
     1
 10
1257.7160385112510994
 20
4955.4535145172849298
 30
0.0
 11
1336.98801151127509
 21
5034.7254875172511674
 31
0.0
  0
LINE
  5
1248
  8
壁
 62
     1
 10
833.4533435112680309
 20
4955.4535145172849298
 30
0.0
 11
912.7253165112924762
 21
5034.7254875172511674
 31
0.0
  0
LINE
  5
1249
  8
壁
 62
     1
 10
748.600804511282945
 20
4955.4535145172849298
 30
0.0
 11
827.8727775112492964
 21
5034.7254875172511674
 31
0.0
  0
LINE
  5
124A
  8
壁
 62
     1
 10
918.3058825113112107
 20
4955.4535145172849298
 30
0.0
 11
997.5778555112774484
 21
5034.7254875172511674
 31
0.0
  0
LINE
  5
124B
  8
壁
 62
     1
 10
1088.0109605112809277
 20
4955.4535145172849298
 30
0.0
 11
1167.2829335113049183
 21
5034.7254875172511674
 31
0.0
  0
LINE
  5
124C
  8
壁
 62
     1
 10
1003.1584215112959555
 20
4955.4535145172849298
 30
0.0
 11
1082.4303945112619658
 21
5034.7254875172511674
 31
0.0
  0
LINE
  5
124D
  8
壁
 62
     1
 10
1172.8634995112658999
 20
4955.4535145172849298
 30
0.0
 11
1252.1354725112898905
 21
5034.7254875172511674
 31
0.0
  0
LINE
  5
124E
  8
壁
 62
     1
 10
1427.4216055112769936
 20
4955.4535145172849298
 30
0.0
 11
1506.6930895112450344
 21
5034.7254875172511674
 31
0.0
  0
LINE
  5
124F
  8
壁
 62
     1
 10
1342.5685775112940519
 20
4955.4535145172849298
 30
0.0
 11
1421.8405505112600622
 21
5034.7254875172511674
 31
0.0
  0
ARC
  5
1250
  8
0
  6
CONTINUOUS
 62
     2
 10
1933.905718503810931
 20
2843.4637073681810762
 30
0.0
 40
21.2610647790409999
 50
286.7292792953397225
 51
48.2460212607220029
  0
ARC
  5
1251
  8
0
  6
CONTINUOUS
 62
     2
 10
1946.1457113226060756
 20
2802.7413047137670219
 30
0.0
 40
21.2610647790434015
 50
106.729279295339694
 51
228.2460212607219887
  0
ARC
  5
1252
  8
0
 62
     3
 10
797.5688201704761013
 20
2039.5007028371910565
 30
0.0
 40
20.0
 50
90.0
 51
180.0
  0
ARC
  5
1253
  8
0
 62
     3
 10
2377.5689421704742017
 20
2039.5007028371910565
 30
0.0
 40
20.0
 50
0.0
 51
90.0
  0
LINE
  5
1254
  8
壁
 62
     5
 10
2457.5689421704742017
 20
1115.2527918371490614
 30
0.0
 11
2713.2853581688841587
 21
1115.2527918371490614
 31
0.0
  0
LINE
  5
1255
  8
0
 62
     3
 10
1140.0689421704739743
 20
4665.4535145172849298
 30
0.0
 11
870.068942170473747
 21
4665.4535145172849298
 31
0.0
  0
ARC
  5
1256
  8
0
 62
     3
 10
870.068942170473747
 20
4655.4535145172849298
 30
0.0
 40
10.0
 50
90.0
 51
180.0
  0
LINE
  5
1257
  8
0
 62
     3
 10
860.068942170473747
 20
4655.4535145172849298
 30
0.0
 11
860.068942170473747
 21
4370.453270517288729
 31
0.0
  0
ARC
  5
1258
  8
0
 62
     3
 10
870.068942170473747
 20
4370.453270517288729
 30
0.0
 40
10.0
 50
180.0
 51
270.0
  0
LINE
  5
1259
  8
0
 62
     3
 10
870.068942170473747
 20
4360.4532705172896385
 30
0.0
 11
2305.0688201704761013
 21
4360.4532705172896385
 31
0.0
  0
ARC
  5
125A
  8
0
 62
     3
 10
2305.0688201704761013
 20
4370.453270517288729
 30
0.0
 40
10.0
 50
270.0
 51
0.0
  0
LINE
  5
125B
  8
0
 62
     3
 10
2315.0688201704761013
 20
4370.453270517288729
 30
0.0
 11
2315.0688201704761013
 21
4655.4535145172849298
 31
0.0
  0
ARC
  5
125C
  8
0
 62
     3
 10
2305.0688201704761013
 20
4655.4535145172849298
 30
0.0
 40
10.0
 50
0.0
 51
90.0
  0
LINE
  5
125D
  8
0
 62
     3
 10
2305.0688201704761013
 20
4665.4535145172849298
 30
0.0
 11
2035.0689421704739743
 21
4665.4535145172849298
 31
0.0
  0
LINE
  5
125E
  8
0
 62
     3
 10
2010.0689421704739743
 20
4665.4535145172849298
 30
0.0
 11
1718.5690031711710617
 21
4665.4535145172849298
 31
0.0
  0
LINE
  5
125F
  8
0
 62
     3
 10
1692.5690031711710617
 20
4665.4535145172849298
 30
0.0
 11
1472.5690031703559271
 21
4665.4535145172849298
 31
0.0
  0
LINE
  5
1260
  8
0
 62
     3
 10
1446.5690031703559271
 20
4665.4535145172849298
 30
0.0
 11
1165.0689421704739743
 21
4665.4535145172849298
 31
0.0
  0
ARC
  5
1261
  8
0
 62
     3
 10
2377.5688201704761013
 20
4245.4535145172849298
 30
0.0
 40
20.0
 50
270.0000088478964244
 51
0.0
  0
LINE
  5
1262
  8
0
 62
     3
 10
2377.5688232590910047
 20
4225.4535145172849298
 30
0.0
 11
797.5689452590886503
 21
4225.4532705172896385
 31
0.0
  0
ARC
  5
1263
  8
0
 62
     3
 10
797.568942170473747
 20
4245.453270517288729
 30
0.0
 40
20.0000000000002416
 50
180.0
 51
270.0000088478964244
  0
ARC
  5
1264
  8
0
  6
CONTINUOUS
 62
     3
 10
1773.4304317169010119
 20
4165.4535145172849298
 30
0.0
 40
49.9999999999948912
 50
270.0
 51
292.6960549459383856
  0
LINE
  5
1265
  8
0
  6
CONTINUOUS
 62
     3
 10
1773.4304317169589922
 20
4115.4535145172849298
 30
0.0
 11
1401.7074630960710238
 21
4115.4535145172849298
 31
0.0
  0
ARC
  5
1266
  8
0
  6
CONTINUOUS
 62
     3
 10
1401.7074630960710238
 20
4165.4535145173431374
 30
0.0
 40
50.0000000000618527
 50
247.303945054061586
 51
270.0
  0
ARC
  5
1267
  8
0
  6
CONTINUOUS
 62
     3
 10
1152.5689474064849946
 20
3569.5850479411901688
 30
0.0
 40
595.8554248547402494
 50
67.3101954226552692
 51
112.6898045773447024
  0
ARC
  5
1268
  8
0
  6
CONTINUOUS
 62
     3
 10
903.4304317169007845
 20
4165.4535145172849298
 30
0.0
 40
49.9999999999948912
 50
270.0
 51
292.6960549459383856
  0
LINE
  5
1269
  8
0
  6
CONTINUOUS
 62
     3
 10
903.4304317169589922
 20
4115.4535145172849298
 30
0.0
 11
717.568942170473747
 21
4115.4535145172849298
 31
0.0
  0
LINE
  5
126A
  8
0
  6
CONTINUOUS
 62
     3
 10
717.568942170473747
 20
4115.4535145172849298
 30
0.0
 11
717.568942170473747
 21
4955.4535145172849298
 31
0.0
  0
LINE
  5
126B
  8
0
  6
CONTINUOUS
 62
     3
 10
717.568942170473747
 20
4955.4535145172849298
 30
0.0
 11
2457.5689421704742017
 21
4955.4535145172849298
 31
0.0
  0
LINE
  5
126C
  8
0
  6
CONTINUOUS
 62
     3
 10
2457.5689421704742017
 20
4955.4535145172849298
 30
0.0
 11
2457.5689421704742017
 21
4115.4535145172849298
 31
0.0
  0
LINE
  5
126D
  8
0
  6
CONTINUOUS
 62
     3
 10
2457.5689421704742017
 20
4115.4535145172849298
 30
0.0
 11
2271.7074630960701143
 21
4115.4535145172849298
 31
0.0
  0
ARC
  5
126E
  8
0
  6
CONTINUOUS
 62
     3
 10
2271.7074630960701143
 20
4165.4535145173431374
 30
0.0
 40
50.0000000000654765
 50
247.303945054061586
 51
270.0
  0
ARC
  5
126F
  8
0
  6
CONTINUOUS
 62
     3
 10
2022.5689474064859041
 20
3569.6481222151778638
 30
0.0
 40
595.7972326009406743
 50
67.3078556515781088
 51
112.6921443484219054
  0
DIMENSION
  5
1270
  8
0
  6
CONTINUOUS
 62
     2
  2
*D39
 10
1151.8641802897300295
 20
3868.9368681010651017
 30
0.0
 11
1188.2767304728020008
 21
4018.1612857046388854
 31
0.0
 70
   132
  1
R595.7
 15
1123.1097549323440035
 25
4164.7246448912746928
 35
0.0
 40
0.0
1001
ACAD
1000
DSTYLE
1002
{
1070
   340
1005
F
1002
}
  0
LINE
  5
1271
  8
0
 62
     1
 10
903.4304317169589922
 20
1985.2527918371490614
 30
0.0
 11
903.4304317169589922
 21
1893.7047345580069759
 31
0.0
  0
LINE
  5
1272
  8
0
 62
     1
 10
1401.7074630961869843
 20
1985.2527918371490614
 30
0.0
 11
1401.7074630961869843
 21
1893.7047345580069759
 31
0.0
  0
LINE
  5
1273
  8
0
 62
     1
 10
2271.7074630961869843
 20
1985.2527918371490614
 30
0.0
 11
2271.7074630961869843
 21
1893.7047345580069759
 31
0.0
  0
LINE
  5
1274
  8
0
 62
     1
 10
1773.4304317169589922
 20
1985.2527918371490614
 30
0.0
 11
1773.4304317169589922
 21
1893.7047345580069759
 31
0.0
  0
DIMENSION
  5
1275
  8
0
  6
CONTINUOUS
 62
     2
  2
*D40
 10
3569.9771249012687804
 20
1985.2390388371429708
 30
0.0
 11
3524.9771249012678709
 21
1550.2459153371451066
 31
0.0
 70
     0
  1
870
 13
3999.9771249003251796
 23
1115.2527918371490614
 33
0.0
 14
3809.9771189003367908
 24
1985.2390388371420613
 34
0.0
 50
90.0
1001
ACAD
1000
DSTYLE
1002
{
1070
   340
1005
F
1002
}
  0
DIMENSION
  5
1276
  8
0
  6
CONTINUOUS
 62
     2
  2
*D41
 10
3419.9771249012687804
 20
1115.2527918371490614
 30
0.0
 11
3374.9771249012678709
 21
1740.2527969289219527
 31
0.0
 70
     0
 13
4198.2267929002991877
 23
2365.2528020206950714
 33
0.0
 14
3999.9771249003251796
 24
1115.2527918371490614
 34
0.0
 50
90.0
1001
ACAD
1000
DSTYLE
1002
{
1070
   340
1005
F
1002
}
  0
DIMENSION
  5
1277
  8
0
  6
CONTINUOUS
 62
     2
  2
*D42
 10
3719.9771249012678709
 20
1465.2527918371490614
 30
0.0
 11
3674.9771249012678709
 21
1290.2527918371479245
 31
0.0
 70
     0
 13
3999.9771249003251796
 23
1115.2527918371490614
 33
0.0
 14
3989.9771249003238154
 24
1465.2527918371490614
 34
0.0
 50
90.0
1001
ACAD
1000
DSTYLE
1002
{
1070
   340
1005
F
1002
}
  0
DIMENSION
  5
1278
  8
0
  6
CONTINUOUS
 62
     2
  2
*D43
 10
4902.3390468694396986
 20
1315.2526698371520979
 30
0.0
 11
4857.3390468694387891
 21
1215.2527308371491017
 31
0.0
 70
     0
 13
4639.9771249003242701
 23
1115.2527918371490614
 33
0.0
 14
4776.6223641871465588
 24
1315.252669837150961
 34
0.0
 50
90.0
1001
ACAD
1000
DSTYLE
1002
{
1070
   340
1005
F
1002
}
  0
DIMENSION
  5
1279
  8
0
  6
CONTINUOUS
 62
     2
  2
*D44
 10
4639.9771249003242701
 20
3304.0081922453250627
 30
0.0
 11
4549.9771249003242701
 21
3349.0081922453250627
 31
0.0
 70
     0
 13
4459.9771249003251796
 23
3145.252791837148834
 33
0.0
 14
4639.9771249003242701
 24
3304.0081922453250627
 34
0.0
1001
ACAD
1000
DSTYLE
1002
{
1070
   340
1005
F
1002
}
  0
LINE
  5
127A
  8
壁
 62
     5
 10
4639.9771249003242701
 20
3145.2526968371821567
 30
0.0
 11
4639.9771249003242701
 21
3606.9903408371610567
 31
0.0
  0
LINE
  5
127B
  8
壁
 62
     1
 10
4639.9771249003242701
 20
3328.8256995462579653
 30
0.0
 11
4709.9763929003393059
 21
3398.8249665462649318
 31
0.0
  0
LINE
  5
127C
  8
壁
 62
     1
 10
4639.9771249003242701
 20
1185.9634858371568953
 30
0.0
 11
4709.9763929003393059
 21
1255.9628748371610527
 31
0.0
  0
LINE
  5
127D
  8
壁
 62
     1
 10
4639.9771249003242701
 20
1115.2527918371490614
 30
0.0
 11
4709.9763929003393059
 21
1185.2521818371599238
 31
0.0
  0
LINE
  5
127E
  8
壁
 62
     1
 10
4639.9771249003242701
 20
2833.8508455462870188
 30
0.0
 11
4709.9763929003393059
 21
2903.8503575462377739
 31
0.0
  0
LINE
  5
127F
  8
壁
 62
     1
 10
4639.9771249003242701
 20
3045.9829255462391302
 30
0.0
 11
4709.9763929003393059
 21
3115.9821935462528018
 31
0.0
  0
LINE
  5
1280
  8
壁
 62
     1
 10
4639.9771249003242701
 20
2904.5615395462377819
 30
0.0
 11
4709.9763929003393059
 21
2974.5610505462391302
 31
0.0
  0
LINE
  5
1281
  8
壁
 62
     1
 10
4639.9771249003242701
 20
2975.2722325462377739
 30
0.0
 11
4709.9763929003393059
 21
3045.271744546248101
 31
0.0
  0
LINE
  5
1282
  8
壁
 62
     1
 10
4639.9771249003242701
 20
3258.115005546249904
 30
0.0
 11
4709.9763929003393059
 21
3328.1142735462640303
 31
0.0
  0
LINE
  5
1283
  8
壁
 62
     1
 10
4639.9771249003242701
 20
3116.693619546248101
 30
0.0
 11
4709.9763929003393059
 21
3186.692886546254158
 31
0.0
  0
LINE
  5
1284
  8
壁
 62
     1
 10
4639.9771249003242701
 20
3187.4043125462490025
 30
0.0
 11
4709.9763929003393059
 21
3257.4035805462631288
 31
0.0
  0
LINE
  5
1285
  8
壁
 62
     1
 10
4639.9771249003242701
 20
3540.9575355462729931
 30
0.0
 11
4709.9763929003393059
 21
3610.9570465462747961
 31
0.0
  0
LINE
  5
1286
  8
壁
 62
     1
 10
4639.9771249003242701
 20
3399.5361485462640303
 30
0.0
 11
4709.9763929003393059
 21
3469.5356605462729931
 31
0.0
  0
LINE
  5
1287
  8
壁
 62
     1
 10
4639.9771249003242701
 20
3470.2468415462649318
 30
0.0
 11
4709.9763929003393059
 21
3540.2463535462738946
 31
0.0
  0
LINE
  5
1288
  8
壁
 62
     1
 10
4282.8208749003242701
 20
1065.2527918371490614
 30
0.0
 11
4332.8208749003242701
 21
1115.2527918371490614
 31
0.0
  0
LINE
  5
1289
  8
壁
 62
     1
 10
3999.9771249003251796
 20
1065.2527918371490614
 30
0.0
 11
4049.9771249003238154
 21
1115.2527918371490614
 31
0.0
  0
LINE
  5
128A
  8
壁
 62
     1
 10
4212.1099379003280774
 20
1065.2527918371490614
 30
0.0
 11
4262.1099379003280774
 21
1115.2527918371490614
 31
0.0
  0
LINE
  5
128B
  8
壁
 62
     1
 10
4070.6880629003280774
 20
1065.2527918371490614
 30
0.0
 11
4120.6880629003271679
 21
1115.2527918371490614
 31
0.0
  0
LINE
  5
128C
  8
壁
 62
     1
 10
4141.3989999003242701
 20
1065.2527918371490614
 30
0.0
 11
4191.3989999003242701
 21
1115.2527918371490614
 31
0.0
  0
INSERT
  5
128D
  8
0
 62
     7
  2
*U47
 10
0.0
 20
0.0
 30
0.0
1001
ACAD
1000
DSTYLE
1002
{
1070
   340
1005
F
1002
}
  0
LINE
  5
128E
  8
0
  6
PHANTOM2
 62
     4
 10
817.568942170473747
 20
1465.2527918371490614
 30
0.0
 11
1330.5689421704739743
 21
1170.2527778141659383
 31
0.0
  0
LINE
  5
128F
  8
0
  6
PHANTOM2
 62
     4
 10
817.568942170473747
 20
1170.2527778141659383
 30
0.0
 11
1330.5689421704739743
 21
1465.2527778141659383
 31
0.0
  0
LINE
  5
1290
  8
0
  6
PHANTOM2
 62
     4
 10
1844.5689421704739743
 20
1465.2529358532628976
 30
0.0
 11
2357.5690641704709378
 21
1170.2528998141640386
 31
0.0
  0
LINE
  5
1291
  8
0
  6
PHANTOM2
 62
     4
 10
1844.5689421704739743
 20
1170.2527778141659383
 30
0.0
 11
2357.5691861705267911
 21
1465.2530218142198919
 31
0.0
  0
LINE
  5
1292
  8
0
 62
     3
 10
1330.5689421704739743
 20
1170.2527778141659383
 30
0.0
 11
1330.5689421704739743
 21
1465.2527778141659383
 31
0.0
  0
LINE
  5
1293
  8
0
 62
     3
 10
1844.5689421704739743
 20
1170.2527778141659383
 30
0.0
 11
1844.5689421704739743
 21
1465.2530218141619116
 31
0.0
  0
LINE
  5
1294
  8
0
  6
PHANTOM2
 62
     4
 10
1330.5689421704739743
 20
1465.2527778141659383
 30
0.0
 11
1844.5689421704739743
 21
1170.2527778141659383
 31
0.0
  0
LINE
  5
1295
  8
0
  6
PHANTOM2
 62
     4
 10
1330.5689421704739743
 20
1170.252763791183952
 30
0.0
 11
1844.5689421704739743
 21
1465.2530218141619116
 31
0.0
  0
TEXT
  5
1296
  8
0
  6
CONTINUOUS
 62
     3
 10
7190.2591436670627445
 20
491.341743787226676
 30
0.0
 40
59.9999999993999893
  1
2009. 9. 1
  0
TEXT
  5
1297
  8
0
  6
CONTINUOUS
 62
     7
 10
5953.4264154984839479
 20
952.2267199904889594
 30
0.0
 40
99.9999999989999964
  1
MITSUBISHI CHEMICAL AQUA SOLUTIONS CO.,LTD.
 41
0.51
  0
LINE
  5
135B
  8
壁
 62
     1
 10
4639.9771249003242701
 20
2551.0083165462710895
 30
0.0
 11
4709.9763929003393059
 21
2621.0078285462809617
 31
0.0
  0
LINE
  5
135C
  8
壁
 62
     1
 10
4639.9771249003242701
 20
2763.1403965462818633
 30
0.0
 11
4709.9763929003393059
 21
2833.1396645462377819
 31
0.0
  0
LINE
  5
135D
  8
壁
 62
     1
 10
4639.9771249003242701
 20
2621.7190105462800602
 30
0.0
 11
4709.9763929003393059
 21
2691.7185215462809538
 31
0.0
  0
LINE
  5
135E
  8
壁
 62
     1
 10
4639.9771249003242701
 20
2692.4297035462809617
 30
0.0
 11
4709.9763929003393059
 21
2762.4292155462321716
 31
0.0
  0
LINE
  5
135F
  8
壁
 62
     1
 10
4639.9771249003242701
 20
2268.1657875462551601
 30
0.0
 11
4709.9763929003393059
 21
2338.1652995462650324
 31
0.0
  0
LINE
  5
1360
  8
壁
 62
     1
 10
4639.9771249003242701
 20
2480.2978675462659339
 30
0.0
 11
4709.9763929003393059
 21
2550.2971355462218526
 31
0.0
  0
LINE
  5
1361
  8
壁
 62
     1
 10
4639.9771249003242701
 20
2338.8764815462641309
 30
0.0
 11
4709.9763929003393059
 21
2408.8759925462659339
 31
0.0
  0
LINE
  5
1362
  8
壁
 62
     1
 10
4639.9771249003242701
 20
2409.5871745462650324
 30
0.0
 11
4709.9763929003393059
 21
2479.5866865462739952
 31
0.0
  0
LINE
  5
1363
  8
壁
 62
     1
 10
4639.9771249003242701
 20
1985.3232585462390034
 30
0.0
 11
4709.9763929003393059
 21
2055.3227705462491031
 31
0.0
  0
LINE
  5
1364
  8
壁
 62
     1
 10
4639.9771249003242701
 20
2197.4553385462500046
 30
0.0
 11
4709.9763929003393059
 21
2267.4546065462641309
 31
0.0
  0
LINE
  5
1365
  8
壁
 62
     1
 10
4639.9771249003242701
 20
2056.0339525462482015
 30
0.0
 11
4709.9763929003393059
 21
2126.0334635462490951
 31
0.0
  0
LINE
  5
1366
  8
壁
 62
     1
 10
4639.9771249003242701
 20
2126.7446455462491031
 30
0.0
 11
4709.9763929003393059
 21
2196.7441575462580658
 31
0.0
  0
LINE
  5
1367
  8
壁
 62
     1
 10
4639.9771249003242701
 20
1773.1914225462819559
 30
0.0
 11
4709.9763929003393059
 21
1843.1909345462340752
 31
0.0
  0
LINE
  5
1368
  8
壁
 62
     1
 10
4639.9771249003242701
 20
1843.9021165462329463
 30
0.0
 11
4709.9763929003393059
 21
1913.9016275462340673
 31
0.0
  0
LINE
  5
1369
  8
壁
 62
     1
 10
4639.9771249003242701
 20
1914.6128095462340752
 30
0.0
 11
4709.9763929003393059
 21
1984.612321546243038
 31
0.0
  0
INSERT
  5
1378
  8
0
 62
     7
  2
A$C014B713B
 10
1152.5688201705920619
 20
3142.252791837148834
 30
0.0
  0
INSERT
  5
1379
  8
0
 62
     7
  2
A$C014B713B
 10
2022.5689421704739743
 20
3142.252791837148834
 30
0.0
  0
INSERT
  5
137A
  8
0
 62
     7
  2
*U48
 10
0.0
 20
0.0
 30
0.0
1001
ACAD
1000
DSTYLE
1002
{
1070
   340
1005
F
1002
}
  0
CIRCLE
  5
137B
  8
0
  6
CONTINUOUS
 62
     2
 10
2626.9323940944159403
 20
2403.2449015488969053
 30
0.0
 40
49.9999999999799911
  0
TEXT
  5
137C
  8
0
  6
CONTINUOUS
 62
     2
 10
2610.9323940944159403
 20
2373.2449015488969053
 30
0.0
 40
60.0
  1
5
 41
0.8
 72
     1
 11
2626.9323940944159403
 21
2403.2449015488969053
 31
0.0
 73
     2
  0
INSERT
  5
13AA
  8
0
 62
     7
  2
*U49
 10
0.0
 20
0.0
 30
0.0
1001
ACAD
1000
DSTYLE
1002
{
1070
   340
1005
F
1002
}
  0
CIRCLE
  5
13AB
  8
0
  6
CONTINUOUS
 62
     2
 10
1464.3945352601579089
 20
2967.6925049821729772
 30
0.0
 40
49.9999999999799911
  0
TEXT
  5
13AC
  8
0
  6
CONTINUOUS
 62
     2
 10
1440.3945352601579089
 20
2937.6925049821729772
 30
0.0
 40
60.0
  1
11
 41
0.8
 72
     1
 11
1464.3945352601579089
 21
2967.6925049821729772
 31
0.0
 73
     2
  0
TEXT
  5
13AF
  8
0
  6
CONTINUOUS
 62
     3
 10
7348.6701603582469033
 20
373.8013180616543991
 30
0.0
 40
60.0
  1
Y.NAGASAKA
 41
0.7
  0
DIMENSION
  5
13B1
  8
0
  6
CONTINUOUS
 62
     2
  2
*D26
 10
2457.5689421704742017
 20
595.3211633345345035
 30
0.0
 11
1907.5689421704739743
 21
640.3211633345343898
 31
0.0
 70
     0
 13
1357.5689421704730648
 23
1115.2527918371490614
 33
0.0
 14
2457.5689421704742017
 24
1115.2527918371490614
 34
0.0
1001
ACAD
1000
DSTYLE
1002
{
1070
   340
1005
F
1002
}
  0
DIMENSION
  5
13B2
  8
0
  6
CONTINUOUS
 62
     2
  2
*D27
 10
2457.5689421704742017
 20
745.3211633345345035
 30
0.0
 11
2257.5689421704742017
 21
790.3211633345343898
 31
0.0
 70
     0
 13
2057.5689421704742017
 23
1115.2527918371490614
 33
0.0
 14
2457.5689421704742017
 24
1115.2527918371490614
 34
0.0
1001
ACAD
1000
DSTYLE
1002
{
1070
   340
1005
F
1002
}
  0
TEXT
  5
13B3
  8
0
  6
CONTINUOUS
 62
     2
 10
4801.6851600271756979
 20
1581.479100592551049
 30
0.0
 40
49.9999999999999929
  1
電源コンセント AC100V 300VA
 41
0.7
  0
LINE
  5
13B4
  8
0
  6
CONTINUOUS
 62
     2
 10
5517.7436940944753587
 20
1565.897621489885978
 30
0.0
 11
4799.9185603859359617
 21
1565.897621489885978
 31
0.0
  0
TEXT
  5
13B5
  8
0
  6
CONTINUOUS
 62
     2
 10
4885.9269413753063418
 20
1498.8134390243790222
 30
0.0
 40
49.9999999999999929
  1
D種接地要 （別途工事）
 41
0.8
  0
DIMENSION
  5
13B6
  8
0
  6
CONTINUOUS
 62
     2
  2
*D28
 10
1857.5689421704730648
 20
745.3211633345345035
 30
0.0
 11
1957.5689421704739743
 21
790.3211633345343898
 31
0.0
 70
     0
 13
2057.5689421704742017
 23
1115.2527918371490614
 33
0.0
 14
1857.5689421704730648
 24
1115.2527918371490614
 34
0.0
1001
ACAD
1000
DSTYLE
1002
{
1070
   340
1005
F
1002
}
  0
INSERT
  5
13B7
  8
0
 62
     7
  2
*U50
 10
0.0
 20
0.0
 30
0.0
1001
ACAD
1000
DSTYLE
1002
{
1070
   340
1005
F
1002
}
  0
INSERT
  5
13B8
  8
0
 62
     7
  2
*U51
 10
0.0
 20
0.0
 30
0.0
1001
ACAD
1000
DSTYLE
1002
{
1070
   340
1005
F
1002
}
  0
INSERT
  5
13B9
  8
0
 62
     7
  2
*U52
 10
0.0
 20
0.0
 30
0.0
1001
ACAD
1000
DSTYLE
1002
{
1070
   340
1005
F
1002
}
  0
DIMENSION
  5
13D9
  8
0
  6
CONTINUOUS
 62
     2
  2
*D29
 10
4639.9771249003242701
 20
638.4985626445850357
 30
0.0
 11
4219.9771249003233606
 21
683.4985626445850357
 31
0.0
 70
     0
 13
3799.9771249003251796
 23
1115.2527918371490614
 33
0.0
 14
4639.9771249003242701
 24
1115.2527918371490614
 34
0.0
1001
ACAD
1000
DSTYLE
1002
{
1070
   340
1005
F
1002
}
  0
DIMENSION
  5
13DA
  8
0
  6
CONTINUOUS
 62
     2
  2
*D30
 10
4639.9771249003242701
 20
788.4985626445850357
 30
0.0
 11
4319.9771249003242701
 21
833.4985626445851494
 31
0.0
 70
     0
 13
3999.9771249003251796
 23
1115.2527918371490614
 33
0.0
 14
4639.9771249003242701
 24
1115.2527918371490614
 34
0.0
1001
ACAD
1000
DSTYLE
1002
{
1070
   340
1005
F
1002
}
  0
DIMENSION
  5
13DB
  8
0
  6
CONTINUOUS
 62
     2
  2
*D31
 10
4489.9771249003242701
 20
938.4985626445850357
 30
0.0
 11
4387.668492118245922
 21
983.4985626445851494
 31
0.0
 70
   128
 13
4439.9771249003242701
 23
1115.2527918371490614
 33
0.0
 14
4489.9771249003242701
 24
1115.2527918371490614
 34
0.0
1001
ACAD
1000
DSTYLE
1002
{
1070
   340
1005
F
1002
}
  0
DIMENSION
  5
13DC
  8
0
  6
CONTINUOUS
 62
     2
  2
*D32
 10
4639.9771249003242701
 20
938.4985626445850357
 30
0.0
 11
4564.9771249003242701
 21
983.4985626445851494
 31
0.0
 70
     0
 13
4489.9771249003242701
 23
1115.2527918371490614
 33
0.0
 14
4639.9771249003242701
 24
1115.2527918371490614
 34
0.0
1001
ACAD
1000
DSTYLE
1002
{
1070
   340
1005
F
1070
    75
1070
     1
1002
}
  0
ARC
  5
13E1
  8
0
  6
CONTINUOUS
 62
     2
 10
2252.7761765380860197
 20
1137.0907661812959759
 30
0.0
 40
14.8827453453450094
 50
358.1805313400329283
 51
119.6972733026517943
  0
ARC
  5
13E2
  8
0
  6
CONTINUOUS
 62
     2
 10
2282.5266603473569376
 20
1136.1457004865510498
 30
0.0
 40
14.8827453453221494
 50
178.1805313400327861
 51
299.6972733026518085
  0
ARC
  5
13E3
  8
0
  6
CONTINUOUS
 62
     2
 10
2297.1288318512379192
 20
1758.6768381881408914
 30
0.0
 40
14.8827453453328804
 50
323.5835825222400786
 51
85.1003244878419594
  0
ARC
  5
13E4
  8
0
  6
CONTINUOUS
 62
     2
 10
2321.0818284452548141
 20
1741.0065696496749297
 30
0.0
 40
14.8827453453308198
 50
143.583582522240107
 51
265.1003244878418741
  0
ARC
  5
13E5
  8
0
  6
CONTINUOUS
 62
     2
 10
2331.6941093624918722
 20
2030.0176312421679086
 30
0.0
 40
14.8827453453328804
 50
323.5835825222400786
 51
85.1003244878419594
  0
ARC
  5
13E6
  8
0
  6
CONTINUOUS
 62
     2
 10
2355.6471059565078576
 20
2012.3473627036439666
 30
0.0
 40
14.8827453453308198
 50
143.583582522240107
 51
265.1003244878418741
  0
LINE
  5
13E7
  8
0
  6
CONTINUOUS
 62
     2
 10
2267.6514184427219334
 20
1136.6182333339240813
 30
0.0
 11
2589.5134409455931745
 21
1421.8771924776960986
 31
0.0
  0
LINE
  5
13E8
  8
0
  6
CONTINUOUS
 62
     2
 10
2309.1053301482461393
 20
1749.8417039188789204
 30
0.0
 11
2580.6757862246599871
 21
1861.2857004395918921
 31
0.0
  0
CIRCLE
  5
13E9
  8
0
  6
CONTINUOUS
 62
     2
 10
2626.9323940944159403
 20
1455.0407559961890911
 30
0.0
 40
50.0
  0
TEXT
  5
13EA
  8
0
  6
CONTINUOUS
 62
     2
 10
2592.6466798087021743
 20
1425.0407559961900006
 30
0.0
 40
60.0
  1
17
 41
0.8
 72
     1
 11
2626.9323940944159403
 21
1455.0407559961890911
 31
0.0
 73
     2
  0
LINE
  5
13EB
  8
0
  6
CONTINUOUS
 62
     2
 10
2343.6706076595000923
 20
2021.1824969729059376
 30
0.0
 11
2579.5437005881108234
 21
2100.5580676275999394
 31
0.0
  0
CIRCLE
  5
13EC
  8
0
  6
CONTINUOUS
 62
     2
 10
2626.9323940944159403
 20
1880.267961326753948
 30
0.0
 40
50.0
  0
TEXT
  5
13ED
  8
0
  6
CONTINUOUS
 62
     2
 10
2593.7895369515590573
 20
1850.267961326753948
 30
0.0
 40
60.0
  1
16
 41
0.8
 72
     1
 11
2626.9323940944159403
 21
1880.267961326753948
 31
0.0
 73
     2
  0
CIRCLE
  5
13EE
  8
0
  6
CONTINUOUS
 62
     2
 10
2626.9323940944159403
 20
2116.5052218491910025
 30
0.0
 40
49.999999999999801
  0
TEXT
  5
13EF
  8
0
  6
CONTINUOUS
 62
     2
 10
2621.2181083801301611
 20
2086.5052218491910025
 30
0.0
 40
60.0
  1
1
 41
0.8
 72
     1
 11
2626.9323940944159403
 21
2116.5052218491910025
 31
0.0
 73
     2
  0
INSERT
  5
13F0
  8
0
 62
     7
  2
*U53
 10
0.0
 20
0.0
 30
0.0
1001
ACAD
1000
DSTYLE
1002
{
1070
   340
1005
F
1002
}
  0
TEXT
  5
13F1
  8
0
  6
CONTINUOUS
 62
     2
 10
2610.9323940944159403
 20
3048.4417261478370165
 30
0.0
 40
60.0
  1
2
 41
0.8
 72
     1
 11
2626.9323940944159403
 21
3078.441726147837926
 31
0.0
 73
     2
  0
CIRCLE
  5
13F2
  8
0
  6
CONTINUOUS
 62
     2
 10
2626.9323940944159403
 20
3078.441726147837926
 30
0.0
 40
49.9999999999980105
  0
CIRCLE
  5
13F3
  8
0
  6
CONTINUOUS
 62
     2
 10
2626.9323940944159403
 20
2978.4417261480120942
 30
0.0
 40
49.9999999998000035
  0
TEXT
  5
13F4
  8
0
  6
CONTINUOUS
 62
     2
 10
2610.9323940944159403
 20
2948.4417261480120942
 30
0.0
 40
60.0
  1
3
 41
0.8
 72
     1
 11
2626.9323940944159403
 21
2978.4417261480120942
 31
0.0
 73
     2
  0
INSERT
  5
13F5
  8
0
 62
     7
  2
*U54
 10
0.0
 20
0.0
 30
0.0
1001
ACAD
1000
DSTYLE
1002
{
1070
   340
1005
F
1002
}
  0
INSERT
  5
13F6
  8
0
 62
     7
  2
*U55
 10
0.0
 20
0.0
 30
0.0
1001
ACAD
1000
DSTYLE
1002
{
1070
   340
1005
F
1002
}
  0
CIRCLE
  5
13F7
  8
0
  6
CONTINUOUS
 62
     2
 10
2626.9323940944159403
 20
1691.2781139401479322
 30
0.0
 40
49.9999999999799911
  0
TEXT
  5
13F8
  8
0
  6
CONTINUOUS
 62
     2
 10
2592.6466798087021743
 20
1661.2781139401490691
 30
0.0
 40
60.0
  1
10
 41
0.8
 72
     1
 11
2626.9323940944159403
 21
1691.2781139401479322
 31
0.0
 73
     2
  0
ARC
  5
13F9
  8
0
  6
CONTINUOUS
 62
     2
 10
2297.1288318512379192
 20
2226.3893503171861994
 30
0.0
 40
14.8827453453328804
 50
323.5835825222400786
 51
85.1003244878419594
  0
ARC
  5
13FA
  8
0
  6
CONTINUOUS
 62
     2
 10
2321.0818284452548141
 20
2208.7190817787200103
 30
0.0
 40
14.8827453453308198
 50
143.583582522240107
 51
265.1003244878418741
  0
LINE
  5
13FB
  8
0
  6
CONTINUOUS
 62
     2
 10
2309.1053301482461393
 20
2217.5542160479822087
 30
0.0
 11
2580.6757862246599871
 21
2270.2794473752728663
 31
0.0
  0
CIRCLE
  5
13FC
  8
0
  6
CONTINUOUS
 62
     2
 10
2626.9323940944159403
 20
2289.2617082624351497
 30
0.0
 40
50.0
  0
TEXT
  5
13FD
  8
0
  6
CONTINUOUS
 62
     2
 10
2592.6466798087021743
 20
2259.2617082624351497
 30
0.0
 40
60.0
  1
18
 41
0.8
 72
     1
 11
2626.9323940944159403
 21
2289.2617082624351497
 31
0.0
 73
     2
  0
INSERT
  5
1405
  8
0
  2
A$C51C070DC
 10
1537.5692703690140206
 20
1240.0909666123920942
 30
0.0
  0
INSERT
  5
1408
  8
0
  2
A$C5756186B
 10
1327.5688145875460577
 20
1115.2527481277938932
 30
0.0
  0
INSERT
  5
140C
  8
0
  2
A$C4E7F6CC5
 10
1837.5690376698039472
 20
1115.2528348239140996
 30
0.0
  0
INSERT
  5
140D
  8
0
  2
A$C4E7F6CC5
 10
2037.5690376698039472
 20
1115.2528348239140996
 30
0.0
  0
LINE
  5
1414
  8
0
  6
CONTINUOUS
 62
     3
 10
2457.5689421704742017
 20
1115.2527918371490614
 30
0.0
 11
2457.5689421704742017
 21
3145.252791837148834
 31
0.0
  0
LINE
  5
1415
  8
0
  6
CONTINUOUS
 62
     3
 10
2457.5689421704742017
 20
3145.252791837148834
 30
0.0
 11
717.568942170473747
 21
3145.252791837148834
 31
0.0
  0
LINE
  5
1416
  8
0
  6
CONTINUOUS
 62
     3
 10
717.568942170473747
 20
3145.252791837148834
 30
0.0
 11
717.568942170473747
 21
1115.2527918371490614
 31
0.0
  0
LINE
  5
1417
  8
0
  6
CONTINUOUS
 62
     3
 10
717.568942170473747
 20
1115.2527918371490614
 30
0.0
 11
2457.5689421704742017
 21
1115.2527918371490614
 31
0.0
  0
INSERT
  5
141D
  8
0
  2
A$C24BB75B8
 10
1537.5689817505190149
 20
4890.7123208232796969
 30
0.0
  0
INSERT
  5
1423
  8
0
  2
A$C1AEA2420
 10
4606.525336160905681
 20
1270.2528204425470904
 30
0.0
  0
INSERT
  5
1424
  8
0
  2
A$C5756186B
 10
4409.9769973173970357
 20
1115.2527481277938932
 30
0.0
  0
INSERT
  5
1425
  8
0
  2
A$C4E7F6CC5
 10
4469.9772203996553799
 20
1115.2528348239140996
 30
0.0
  0
INSERT
  5
1426
  8
0
  2
A$C615207BD
 10
4455.719630072300788
 20
3038.2527315743500367
 30
0.0
  0
INSERT
  5
142A
  8
0
 62
     3
  2
A$C3FE03FDA
 10
1426.0690517114710474
 20
2296.7527935625407736
 30
0.0
  0
INSERT
  5
142B
  8
0
 62
     3
  2
A$C3FE03FDA
 10
1672.0690517121111043
 20
2296.7527935625407736
 30
0.0
  0
TEXT
  5
1440
  8
0
  6
CONTINUOUS
 62
     2
 10
1193.3401319669790155
 20
1558.7356427001070642
 30
0.0
 40
49.9999999998000035
  1
（別途工事）
 41
0.8
  0
LINE
  5
1441
  8
0
  6
CONTINUOUS
 62
     2
 10
1162.7592249983570127
 20
1620.3362712812959217
 30
0.0
 11
1495.6461260970679632
 21
1620.3362712812959217
 31
0.0
  0
TEXT
  5
1442
  8
0
  6
CONTINUOUS
 62
     2
 10
1162.7592249983570127
 20
1639.6739421767999829
 30
0.0
 40
49.9999999998000035
  1
電源コンセント
 41
0.8
  0
LINE
  5
1443
  8
0
  6
CONTINUOUS
 62
     2
 10
685.6760330366669223
 20
901.1848919464973733
 30
0.0
 11
1207.1279965351570809
 21
901.1848919464973733
 31
0.0
  0
TEXT
  5
1444
  8
0
  6
CONTINUOUS
 62
     2
 10
703.7799109522020444
 20
839.3431324956472963
 30
0.0
 40
49.999999999999801
  1
FL+50mm（別途工事）
 41
0.7
  0
TEXT
  5
1445
  8
0
  6
CONTINUOUS
 62
     2
 10
719.2529047058195601
 20
917.9224450995097868
 30
0.0
 40
49.999999999999801
  1
排水40Aソケット止
 41
0.8
  0
TEXT
  5
1446
  8
0
  6
CONTINUOUS
 62
     2
 10
2584.5154724451708717
 20
675.6516907029434833
 30
0.0
 40
49.999999999999801
  1
FL+100mm（別途工事）
 41
0.7
  0
LINE
  5
1447
  8
0
  6
CONTINUOUS
 62
     2
 10
2557.7531264194990399
 20
741.2121320884906481
 30
0.0
 11
3133.0719476091330762
 21
741.2121320884906481
 31
0.0
  0
TEXT
  5
1448
  8
0
  6
CONTINUOUS
 62
     2
 10
2615.2433283432619646
 20
753.2984500585007481
 30
0.0
 40
49.999999999999801
  1
給湯 15A バルブ止
 41
0.8
  0
TEXT
  5
1449
  8
0
  6
CONTINUOUS
 62
     2
 10
2595.2583197652129456
 20
939.1225298660573344
 30
0.0
 40
50.0
  1
給水 15A バルブ止
 41
0.8
  0
TEXT
  5
144A
  8
0
  6
CONTINUOUS
 62
     2
 10
2584.7500748933530303
 20
861.4757705105585046
 30
0.0
 40
50.0
  1
FL+100mm（別途工事）
 41
0.7
  0
LINE
  5
144B
  8
0
  6
CONTINUOUS
 62
     2
 10
2557.7531264194990399
 20
927.0362118961055558
 30
0.0
 11
3108.0032376055610257
 21
927.0362118961055558
 31
0.0
  0
TEXT
  5
144C
  8
壁
  6
CONTINUOUS
 62
     2
 10
2579.5078554511419497
 20
1217.1921403134469983
 30
0.0
 40
50.0
  1
F.L
 41
0.8
  0
LINE
  5
144D
  8
壁
  6
CONTINUOUS
 62
     2
 10
2560.8967029478521908
 20
1198.5119620486509575
 30
0.0
 11
2674.8539676696527749
 21
1198.5119620486509575
 31
0.0
  0
LINE
  5
144E
  8
壁
  6
CONTINUOUS
 62
     2
 10
2560.8967029478521908
 20
1154.2240443371699712
 30
0.0
 11
2560.8967029478521908
 21
1198.5119620486509575
 31
0.0
  0
LINE
  5
144F
  8
壁
  6
CONTINUOUS
 62
     2
 10
2538.3967029478521908
 20
1154.2240443371699712
 30
0.0
 11
2583.3967029478521908
 21
1154.2240443371699712
 31
0.0
  0
LINE
  5
1450
  8
壁
  6
CONTINUOUS
 62
     2
 10
2560.8967029478521908
 20
1115.2527918371490614
 30
0.0
 11
2583.3967029478521908
 21
1154.2240443371699712
 31
0.0
  0
LINE
  5
1451
  8
壁
  6
CONTINUOUS
 62
     2
 10
2560.8967029478521908
 20
1115.2527918371490614
 30
0.0
 11
2538.3967029478521908
 21
1154.2240443371699712
 31
0.0
  0
TEXT
  5
1469
  8
壁
  6
CONTINUOUS
 62
     2
 10
4454.7421342302686753
 20
3506.0380940493778326
 30
0.0
 40
49.9999999998000035
  1
壁 面
 41
0.8
  0
LINE
  5
146A
  8
壁
  6
CONTINUOUS
 62
     2
 10
4639.9771249003242701
 20
3490.1204785352460931
 30
0.0
 11
4598.4079841003403999
 21
3466.1204785352460931
 31
0.0
  0
LINE
  5
146B
  8
壁
  6
CONTINUOUS
 62
     2
 10
4639.9771249003242701
 20
3490.1204785352460931
 30
0.0
 11
4598.4079841003403999
 21
3514.1204785352460931
 31
0.0
  0
LINE
  5
146C
  8
壁
  6
CONTINUOUS
 62
     2
 10
4434.6558498116210103
 20
3490.1204785352460931
 30
0.0
 11
4598.4079841003403999
 21
3490.1204785352460931
 31
0.0
  0
LINE
  5
146D
  8
壁
  6
CONTINUOUS
 62
     2
 10
4598.4079841003403999
 20
3514.1204785352460931
 30
0.0
 11
4598.4079841003403999
 21
3466.1204785352460931
 31
0.0
  0
LINE
  5
14C5
  8
0
  6
CONTINUOUS
 62
     3
 10
5919.4224555558757856
 20
5164.7999593400745653
 30
0.0
 11
7669.4224555558757856
 21
5164.7999593400745653
 31
0.0
  0
LINE
  5
14C6
  8
0
  6
CONTINUOUS
 62
     3
 10
5919.4224555558757856
 20
5084.7999593400736558
 30
0.0
 11
7669.4224555558757856
 21
5084.7999593400736558
 31
0.0
  0
LINE
  5
14C7
  8
0
  6
CONTINUOUS
 62
     3
 10
5919.4224555558757856
 20
5004.7999593400745653
 30
0.0
 11
7669.4224555558757856
 21
5004.7999593400745653
 31
0.0
  0
LINE
  5
14C8
  8
0
  6
CONTINUOUS
 62
     3
 10
5919.4224555558757856
 20
4924.7999593400745653
 30
0.0
 11
7669.4224555558757856
 21
4924.7999593400745653
 31
0.0
  0
LINE
  5
14C9
  8
0
  6
CONTINUOUS
 62
     3
 10
5919.4224555558757856
 20
4844.7999593400745653
 30
0.0
 11
7669.4224555558757856
 21
4844.7999593400745653
 31
0.0
  0
LINE
  5
14CA
  8
0
  6
CONTINUOUS
 62
     3
 10
5919.4224555558757856
 20
4764.7999593400736558
 30
0.0
 11
7669.4224555558757856
 21
4764.7999593400736558
 31
0.0
  0
LINE
  5
14CB
  8
0
  6
CONTINUOUS
 62
     3
 10
5919.4224555558757856
 20
4684.7999593400736558
 30
0.0
 11
7669.4224555558757856
 21
4684.7999593400736558
 31
0.0
  0
LINE
  5
14CC
  8
0
  6
CONTINUOUS
 62
     3
 10
5919.4224555559349028
 20
4604.7999593400736558
 30
0.0
 11
7669.4224555558757856
 21
4604.7999593400736558
 31
0.0
  0
LINE
  5
14CD
  8
0
  6
CONTINUOUS
 62
     3
 10
5919.4224555559349028
 20
4524.7999593400736558
 30
0.0
 11
7669.4224555558757856
 21
4524.7999593400736558
 31
0.0
  0
LINE
  5
14CE
  8
0
  6
CONTINUOUS
 62
     3
 10
5919.4224555559349028
 20
4444.7999593400736558
 30
0.0
 11
7669.4224555558757856
 21
4444.7999593400736558
 31
0.0
  0
LINE
  5
14CF
  8
0
  6
CONTINUOUS
 62
     3
 10
5919.4224555559349028
 20
4364.7999593400736558
 30
0.0
 11
7669.4224555558757856
 21
4364.7999593400736558
 31
0.0
  0
LINE
  5
14D0
  8
0
  6
CONTINUOUS
 62
     3
 10
5919.4224555559349028
 20
4284.7999593400736558
 30
0.0
 11
7669.4224555558757856
 21
4284.7999593400736558
 31
0.0
  0
LINE
  5
14D1
  8
0
  6
CONTINUOUS
 62
     3
 10
5919.4224555559349028
 20
4204.7999593400736558
 30
0.0
 11
7669.4224555558757856
 21
4204.7999593400736558
 31
0.0
  0
LINE
  5
14D2
  8
0
  6
CONTINUOUS
 62
     3
 10
5919.4224555559349028
 20
4124.7999593400745653
 30
0.0
 11
7669.4224555558757856
 21
4124.7999593400745653
 31
0.0
  0
LINE
  5
14D3
  8
0
  6
CONTINUOUS
 62
     3
 10
5919.4224555559349028
 20
3964.79995934007502
 30
0.0
 11
7669.4224555558757856
 21
3964.79995934007502
 31
0.0
  0
LINE
  5
14D4
  8
0
  6
CONTINUOUS
 62
     3
 10
5919.4224555559349028
 20
4044.7999593400741105
 30
0.0
 11
7669.4224555558757856
 21
4044.7999593400741105
 31
0.0
  0
LINE
  5
14D5
  8
0
  6
CONTINUOUS
 62
     3
 10
5919.4224555559349028
 20
3884.79995934007502
 30
0.0
 11
7669.4224555558757856
 21
3884.79995934007502
 31
0.0
  0
LINE
  5
14D6
  8
0
  6
CONTINUOUS
 62
     3
 10
5919.4224555559349028
 20
3724.79995934007502
 30
0.0
 11
7669.4224555558757856
 21
3724.79995934007502
 31
0.0
  0
LINE
  5
14D7
  8
0
  6
CONTINUOUS
 62
     3
 10
5919.4224555558757856
 20
5244.7999593400736558
 30
0.0
 11
7669.4224555558757856
 21
5244.7999593400736558
 31
0.0
  0
LINE
  5
14D8
  8
0
  6
CONTINUOUS
 62
     3
 10
7669.4224555558757856
 20
5244.7999593400736558
 30
0.0
 11
7669.4224555559349028
 21
3724.79995934007502
 31
0.0
  0
TEXT
  5
14D9
  8
0
  6
CONTINUOUS
 62
     2
 10
6074.4224555558748762
 20
4859.7999593400736558
 30
0.0
 40
49.9999999999999929
  1
　　鏡
  0
TEXT
  5
14DA
  8
0
  6
CONTINUOUS
 62
     2
 10
6074.4224555558748762
 20
4459.7999593400736558
 30
0.0
 40
49.9999999999999929
  1
光電スイッチ
  0
TEXT
  5
14DB
  8
0
  6
CONTINUOUS
 62
     2
 10
6074.4224555558748762
 20
4539.7999593400745653
 30
0.0
 40
49.9999999999999929
  1
蛍光灯スイッチ
  0
TEXT
  5
14DC
  8
0
  6
CONTINUOUS
 62
     2
 10
6074.4224555558748762
 20
5103.1332926733894055
 30
0.0
 40
49.9999999999999929
  1
シ　ン　ク
  0
TEXT
  5
14DD
  8
0
  6
CONTINUOUS
 62
     2
 10
6074.4224555558748762
 20
5019.7999593400736558
 30
0.0
 40
49.9999999999999929
  1
蛍　光　灯
  0
TEXT
  5
14DE
  8
0
  6
CONTINUOUS
 62
     2
 10
6074.4224555558748762
 20
4939.7999593400736558
 30
0.0
 40
49.9999999999999929
  1
前面カバー
  0
TEXT
  5
14DF
  8
0
  6
CONTINUOUS
 62
     2
 10
6074.4224555558748762
 20
4779.7999593400736558
 30
0.0
 40
49.9999999999999929
  1
逆汚染防止蛇口
  0
TEXT
  5
14E0
  8
0
  6
CONTINUOUS
 62
     2
 10
7074.4224555559339933
 20
4299.7999593400745653
 30
0.0
 40
49.9999999999999929
  1
光電スイッチ付
 41
0.8
  0
TEXT
  5
14E1
  8
0
  6
CONTINUOUS
 62
     2
 10
7074.4224555558748762
 20
5019.7999593400736558
 30
0.0
 40
49.9999999999999929
  1
LED10W
  0
TEXT
  5
14E2
  8
0
  6
CONTINUOUS
 62
     2
 10
6074.4224555559339933
 20
4059.7999593400741105
 30
0.0
 40
49.9999999999999929
  1
ストップバルブ
  0
LINE
  5
14E3
  8
0
  6
CONTINUOUS
 62
     3
 10
6044.4224555558757856
 20
3724.79995934007502
 30
0.0
 11
6044.4224555558757856
 21
5244.7999593400736558
 31
0.0
  0
LINE
  5
14E4
  8
0
  6
CONTINUOUS
 62
     3
 10
6669.4224555558757856
 20
3724.79995934007502
 30
0.0
 11
6669.4224555558757856
 21
5244.7999593400736558
 31
0.0
  0
LINE
  5
14E5
  8
0
  6
CONTINUOUS
 62
     3
 10
6794.4224555558757856
 20
3724.79995934007502
 30
0.0
 11
6794.4224555558757856
 21
5244.7999593400736558
 31
0.0
  0
LINE
  5
14E6
  8
0
  6
CONTINUOUS
 62
     3
 10
7044.4224555558757856
 20
3724.79995934007502
 30
0.0
 11
7044.4224555558757856
 21
5244.7999593400736558
 31
0.0
  0
LINE
  5
14E7
  8
0
  6
CONTINUOUS
 62
     3
 10
5919.4224555559349028
 20
3724.79995934007502
 30
0.0
 11
5919.4224555559349028
 21
5244.7999593400736558
 31
0.0
  0
TEXT
  5
14E8
  8
0
  6
CONTINUOUS
 62
     2
 10
5939.2557888892088158
 20
5179.7999593400736558
 30
0.0
 40
49.9999999999999929
  1
符号
 41
0.8
 72
     4
 11
5981.9224555558757856
 21
5204.7999593400745653
 31
0.0
  0
TEXT
  5
14E9
  8
0
  6
CONTINUOUS
 62
     2
 10
6242.2557888892088158
 20
5179.7999593400736558
 30
0.0
 40
49.9999999999999929
  1
名　　　称
 41
0.8
 72
     4
 11
6356.9224555558757856
 21
5204.7999593400745653
 31
0.0
  0
TEXT
  5
14EA
  8
0
  6
CONTINUOUS
 62
     2
 10
6689.2557888892088158
 20
5179.7999593400736558
 30
0.0
 40
49.9999999999999929
  1
数量
 41
0.8
 72
     4
 11
6731.9224555558757856
 21
5204.7999593400745653
 31
0.0
  0
TEXT
  5
14EB
  8
0
  6
CONTINUOUS
 62
     2
 10
6852.7557888892088158
 20
5179.7999593400736558
 30
0.0
 40
49.9999999999999929
  1
材　質
 41
0.8
 72
     4
 11
6919.4224555558757856
 21
5204.7999593400745653
 31
0.0
  0
TEXT
  5
14EC
  8
0
  6
CONTINUOUS
 62
     2
 10
7242.2557888892088158
 20
5179.7999593400736558
 30
0.0
 40
49.9999999999999929
  1
備　　　考
 41
0.8
 72
     4
 11
7356.9224555558757856
 21
5204.7999593400745653
 31
0.0
  0
TEXT
  5
14ED
  8
0
  6
CONTINUOUS
 62
     2
 10
5977.160550793971197
 20
5099.7999593400736558
 30
0.0
 40
49.9999999999999929
  1
1
 41
0.8
 72
     4
 11
5981.9224555558757856
 21
5124.7999593400745653
 31
0.0
  0
TEXT
  5
14EE
  8
0
  6
CONTINUOUS
 62
     2
 10
5968.589122222541846
 20
5019.7999593400736558
 30
0.0
 40
49.9999999999999929
  1
2
 41
0.8
 72
     4
 11
5981.9224555558757856
 21
5044.7999593400745653
 31
0.0
  0
TEXT
  5
14EF
  8
0
  6
CONTINUOUS
 62
     2
 10
5968.589122222541846
 20
4939.7999593400736558
 30
0.0
 40
49.9999999999999929
  1
3
 41
0.8
 72
     4
 11
5981.9224555558757856
 21
4964.7999593400745653
 31
0.0
  0
TEXT
  5
14F0
  8
0
  6
CONTINUOUS
 62
     2
 10
5967.6367412701611102
 20
4859.7999593400736558
 30
0.0
 40
49.9999999999999929
  1
4
 41
0.8
 72
     4
 11
5981.9224555558757856
 21
4884.7999593400745653
 31
0.0
  0
TEXT
  5
14F1
  8
0
  6
CONTINUOUS
 62
     2
 10
5968.589122222541846
 20
4779.7999593400736558
 30
0.0
 40
49.9999999999999929
  1
5
 41
0.8
 72
     4
 11
5981.9224555558757856
 21
4804.7999593400736558
 31
0.0
  0
TEXT
  5
14F2
  8
0
  6
CONTINUOUS
 62
     2
 10
5969.5415031749225818
 20
4699.7999593400745653
 30
0.0
 40
49.9999999999999929
  1
6
 41
0.8
 72
     4
 11
5981.9224555558757856
 21
4724.7999593400736558
 31
0.0
  0
TEXT
  5
14F3
  8
0
  6
CONTINUOUS
 62
     2
 10
5968.589122222541846
 20
4619.7999593400736558
 30
0.0
 40
49.9999999999999929
  1
7
 41
0.8
 72
     4
 11
5981.9224555558757856
 21
4644.7999593400736558
 31
0.0
  0
TEXT
  5
14F4
  8
0
  6
CONTINUOUS
 62
     2
 10
5968.5891222226009631
 20
4539.7999593400745653
 30
0.0
 40
49.9999999999999929
  1
8
 41
0.8
 72
     4
 11
5981.9224555559349028
 21
4564.7999593400736558
 31
0.0
  0
TEXT
  5
14F5
  8
0
  6
CONTINUOUS
 62
     2
 10
5969.541503174981699
 20
4459.7999593400736558
 30
0.0
 40
49.9999999999999929
  1
9
 41
0.8
 72
     4
 11
5981.9224555559349028
 21
4484.7999593400736558
 31
0.0
  0
TEXT
  5
14F6
  8
0
  6
CONTINUOUS
 62
     2
 10
5953.3510269845055518
 20
4379.7999593400745653
 30
0.0
 40
49.9999999999999929
  1
10
 41
0.8
 72
     4
 11
5981.9224555559349028
 21
4404.7999593400736558
 31
0.0
  0
TEXT
  5
14F7
  8
0
  6
CONTINUOUS
 62
     2
 10
5961.9224555559339933
 20
4299.7999593400745653
 30
0.0
 40
49.9999999999999929
  1
11
 41
0.8
 72
     4
 11
5981.9224555559349028
 21
4324.7999593400745653
 31
0.0
  0
TEXT
  5
14F8
  8
0
  6
CONTINUOUS
 62
     2
 10
5953.3510269845055518
 20
4219.7999593400745653
 30
0.0
 40
49.9999999999999929
  1
12
 41
0.8
 72
     4
 11
5981.9224555559349028
 21
4244.7999593400736558
 31
0.0
  0
TEXT
  5
14F9
  8
0
  6
CONTINUOUS
 62
     2
 10
5953.3510269845055518
 20
4139.7999593400736558
 30
0.0
 40
49.9999999999999929
  1
13
 41
0.8
 72
     4
 11
5981.9224555559349028
 21
4164.7999593400745653
 31
0.0
  0
TEXT
  5
14FA
  8
0
  6
CONTINUOUS
 62
     2
 10
5952.398646032124816
 20
4059.7999593400741105
 30
0.0
 40
49.9999999999999929
  1
14
 41
0.8
 72
     4
 11
5981.9224555559349028
 21
4084.7999593400741105
 31
0.0
  0
TEXT
  5
14FB
  8
0
  6
CONTINUOUS
 62
     2
 10
5953.3510269845055518
 20
3979.79995934007502
 30
0.0
 40
49.9999999999999929
  1
15
 41
0.8
 72
     4
 11
5981.9224555559349028
 21
4004.79995934007502
 31
0.0
  0
TEXT
  5
14FC
  8
0
  6
CONTINUOUS
 62
     2
 10
5954.3034079368871971
 20
3899.79995934007502
 30
0.0
 40
49.9999999999999929
  1
16
 41
0.8
 72
     4
 11
5981.9224555559349028
 21
3924.79995934007502
 31
0.0
  0
TEXT
  5
14FD
  8
0
  6
CONTINUOUS
 62
     2
 10
5953.3510269845055518
 20
3819.79995934007502
 30
0.0
 40
49.9999999999999929
  1
17
 41
0.8
 72
     4
 11
5981.9224555559349028
 21
3844.79995934007502
 31
0.0
  0
TEXT
  5
14FE
  8
0
  6
CONTINUOUS
 62
     2
 10
6727.160550793971197
 20
5099.7999593400736558
 30
0.0
 40
49.9999999999999929
  1
1
 41
0.8
 72
     4
 11
6731.9224555558757856
 21
5124.7999593400745653
 31
0.0
  0
TEXT
  5
14FF
  8
0
  6
CONTINUOUS
 62
     2
 10
6718.589122222541846
 20
5019.7999593400736558
 30
0.0
 40
49.9999999999999929
  1
2
 41
0.8
 72
     4
 11
6731.9224555558757856
 21
5044.7999593400745653
 31
0.0
  0
TEXT
  5
1500
  8
0
  6
CONTINUOUS
 62
     2
 10
6718.589122222541846
 20
4939.7999593400736558
 30
0.0
 40
49.9999999999999929
  1
2
 41
0.8
 72
     4
 11
6731.9224555558757856
 21
4964.7999593400745653
 31
0.0
  0
TEXT
  5
1501
  8
0
  6
CONTINUOUS
 62
     2
 10
6718.589122222541846
 20
4859.7999593400736558
 30
0.0
 40
49.9999999999999929
  1
2
 41
0.8
 72
     4
 11
6731.9224555558757856
 21
4884.7999593400745653
 31
0.0
  0
TEXT
  5
1502
  8
0
  6
CONTINUOUS
 62
     2
 10
6718.589122222541846
 20
4779.7999593400736558
 30
0.0
 40
49.9999999999999929
  1
2
 41
0.8
 72
     4
 11
6731.9224555558757856
 21
4804.7999593400736558
 31
0.0
  0
TEXT
  5
1503
  8
0
  6
CONTINUOUS
 62
     2
 10
6727.160550793971197
 20
4539.7999593400745653
 30
0.0
 40
49.9999999999999929
  1
1
 41
0.8
 72
     4
 11
6731.9224555558757856
 21
4564.7999593400736558
 31
0.0
  0
TEXT
  5
1504
  8
0
  6
CONTINUOUS
 62
     2
 10
6718.589122222541846
 20
4459.7999593400736558
 30
0.0
 40
49.9999999999999929
  1
2
 41
0.8
 72
     4
 11
6731.9224555558757856
 21
4484.7999593400736558
 31
0.0
  0
TEXT
  5
1505
  8
0
  6
CONTINUOUS
 62
     2
 10
6718.5891222226000536
 20
4299.7999593400745653
 30
0.0
 40
49.9999999999999929
  1
2
 41
0.8
 72
     4
 11
6731.9224555559349028
 21
4324.7999593400745653
 31
0.0
  0
TEXT
  5
1506
  8
0
  6
CONTINUOUS
 62
     2
 10
6718.5891222226000536
 20
4059.7999593400741105
 30
0.0
 40
49.9999999999999929
  1
2
 41
0.8
 72
     4
 11
6731.9224555559349028
 21
4084.7999593400741105
 31
0.0
  0
TEXT
  5
1507
  8
0
  6
CONTINUOUS
 62
     2
 10
6800.7557888892088158
 20
5104.7999593400736558
 30
0.0
 40
40.0
  1
アクリル系人工大理石
 41
0.5
 72
     4
 11
6919.4224555558757856
 21
5124.7999593400745653
 31
0.0
  0
TEXT
  5
1508
  8
0
  6
CONTINUOUS
 62
     2
 10
6074.4224555559339933
 20
3739.79995934007502
 30
0.0
 40
49.9999999999999929
  1
上部パネル
  0
TEXT
  5
1509
  8
0
  6
CONTINUOUS
 62
     2
 10
6800.755788889267933
 20
3744.7999593400741105
 30
0.0
 40
40.0
  1
アクリル系人工大理石
 41
0.5
 72
     4
 11
6919.4224555559349028
 21
3764.79995934007502
 31
0.0
  0
TEXT
  5
150A
  8
0
  6
CONTINUOUS
 62
     2
 10
6074.4224555558748762
 20
3819.79995934007502
 30
0.0
 40
49.9999999999999929
  1
下部パネル
  0
TEXT
  5
150B
  8
0
  6
CONTINUOUS
 62
     2
 10
6800.7557888892088158
 20
3824.79995934007502
 30
0.0
 40
40.0
  1
アクリル系人工大理石
 41
0.5
 72
     4
 11
6919.4224555558757856
 21
3844.79995934007502
 31
0.0
  0
TEXT
  5
150C
  8
0
  6
CONTINUOUS
 62
     2
 10
6074.4224555558748762
 20
3899.79995934007502
 30
0.0
 40
49.9999999999999929
  1
シンク下部
  0
TEXT
  5
150D
  8
0
  6
CONTINUOUS
 62
     2
 10
6800.7557888892088158
 20
3904.7999593400741105
 30
0.0
 40
40.0
  1
アクリル系人工大理石
 41
0.5
 72
     4
 11
6919.4224555558757856
 21
3924.79995934007502
 31
0.0
  0
TEXT
  5
150E
  8
0
  6
CONTINUOUS
 62
     2
 10
6074.4224555559339933
 20
4376.466626006759725
 30
0.0
 40
49.9999999999999929
  1
ミキシングバルブ
  0
TEXT
  5
150F
  8
0
  6
CONTINUOUS
 62
     2
 10
6727.1605507940294046
 20
4379.7999593400745653
 30
0.0
 40
49.9999999999999929
  1
1
 41
0.8
 72
     4
 11
6731.9224555559349028
 21
4404.7999593400736558
 31
0.0
  0
TEXT
  5
1510
  8
0
  6
CONTINUOUS
 62
     2
 10
7074.4224555559339933
 20
4059.7999593400741105
 30
0.0
 40
49.9999999999999929
  1
別途工事（給水／給湯用）
 41
0.8
  0
TEXT
  5
1511
  8
0
  6
CONTINUOUS
 62
     2
 10
6727.160550793971197
 20
3899.79995934007502
 30
0.0
 40
49.9999999999999929
  1
1
 41
0.8
 72
     4
 11
6731.9224555558757856
 21
3924.79995934007502
 31
0.0
  0
TEXT
  5
1512
  8
0
  6
CONTINUOUS
 62
     2
 10
6727.160550793971197
 20
3819.79995934007502
 30
0.0
 40
49.9999999999999929
  1
1
 41
0.8
 72
     4
 11
6731.9224555558757856
 21
3844.79995934007502
 31
0.0
  0
TEXT
  5
1513
  8
0
  6
CONTINUOUS
 62
     2
 10
6727.160550793971197
 20
3739.79995934007502
 30
0.0
 40
49.9999999999999929
  1
1
 41
0.8
 72
     4
 11
6731.9224555558757856
 21
3764.79995934007502
 31
0.0
  0
TEXT
  5
1514
  8
0
  6
CONTINUOUS
 62
     2
 10
6074.4224555559339933
 20
3976.4666260067610892
 30
0.0
 40
49.9999999999999929
  1
ボールバルブ
  0
TEXT
  5
1515
  8
0
  6
CONTINUOUS
 62
     2
 10
6718.5891222226000536
 20
3979.79995934007502
 30
0.0
 40
49.9999999999999929
  1
2
 41
0.8
 72
     4
 11
6731.9224555559349028
 21
4004.79995934007502
 31
0.0
  0
TEXT
  5
1516
  8
0
  6
CONTINUOUS
 62
     2
 10
6885.1367412702193178
 20
3979.79995934007502
 30
0.0
 40
49.9999999999999929
  1
BC
 41
0.8
 72
     4
 11
6919.4224555559349028
 21
4004.79995934007502
 31
0.0
  0
LINE
  5
157B
  8
0
  6
CONTINUOUS
 62
     3
 10
5919.4224555559349028
 20
3804.79995934007502
 30
0.0
 11
7669.4224555558757856
 21
3804.79995934007502
 31
0.0
  0
TEXT
  5
157C
  8
0
  6
CONTINUOUS
 62
     2
 10
5953.3510269845055518
 20
3739.79995934007502
 30
0.0
 40
49.9999999999999929
  1
18
 41
0.8
 72
     4
 11
5981.9224555559349028
 21
3764.79995934007502
 31
0.0
  0
TEXT
  5
157F
  8
0
  6
CONTINUOUS
 62
     2
 10
6717.6367412701611102
 20
4699.7999593400745653
 30
0.0
 40
49.9999999999999929
  1
4
 41
0.8
 72
     4
 11
6731.9224555558757856
 21
4724.7999593400736558
 31
0.0
  0
TEXT
  5
1580
  8
0
  6
CONTINUOUS
 62
     2
 10
6718.589122222541846
 20
4619.7999593400736558
 30
0.0
 40
49.9999999999999929
  1
2
 41
0.8
 72
     4
 11
6731.9224555558757856
 21
4644.7999593400736558
 31
0.0
  0
TEXT
  5
1581
  8
0
  6
CONTINUOUS
 62
     2
 10
6074.4224555558748762
 20
4699.7999593400745653
 30
0.0
 40
49.9999999999999929
  1
殺菌灯時間計
  0
TEXT
  5
1582
  8
0
  6
CONTINUOUS
 62
     2
 10
6074.4224555558748762
 20
4619.7999593400736558
 30
0.0
 40
49.9999999999999929
  1
時間計リセットスイッチ
 41
0.85
  0
INSERT
  5
1587
  8
0
 62
     7
  2
*U56
 10
0.0
 20
0.0
 30
0.0
1001
ACAD
1000
DSTYLE
1002
{
1070
   340
1005
F
1002
}
  0
CIRCLE
  5
1588
  8
0
  6
CONTINUOUS
 62
     2
 10
2626.9323940944159403
 20
2511.5860161413438618
 30
0.0
 40
50.0
  0
TEXT
  5
1589
  8
0
  6
CONTINUOUS
 62
     2
 10
2612.0752512372741876
 20
2481.5860161413438618
 30
0.0
 40
60.0
  1
9
 41
0.8
 72
     1
 11
2626.9323940944159403
 21
2511.5860161413438618
 31
0.0
 73
     2
  0
CIRCLE
  5
158A
  8
0
  6
CONTINUOUS
 62
     2
 10
2627.1276271294341313
 20
2877.776992795697879
 30
0.0
 40
50.0
  0
TEXT
  5
158B
  8
0
  6
CONTINUOUS
 62
     2
 10
2612.2704842722910143
 20
2847.776992795697879
 30
0.0
 40
60.0
  1
6
 41
0.8
 72
     1
 11
2627.1276271294341313
 21
2877.776992795697879
 31
0.0
 73
     2
  0
INSERT
  5
158C
  8
0
 62
     7
  2
*U57
 10
0.0
 20
0.0
 30
0.0
1001
ACAD
1000
DSTYLE
1002
{
1070
   340
1005
F
1002
}
  0
CIRCLE
  5
158D
  8
0
  6
CONTINUOUS
 62
     2
 10
2628.5740788863040507
 20
2762.1596343895071186
 30
0.0
 40
50.0
  0
TEXT
  5
158E
  8
0
  6
CONTINUOUS
 62
     2
 10
2612.5740788863040507
 20
2732.1596343895071186
 30
0.0
 40
60.0
  1
7
 41
0.8
 72
     1
 11
2628.5740788863040507
 21
2762.1596343895071186
 31
0.0
 73
     2
  0
INSERT
  5
158F
  8
0
 62
     7
  2
*U58
 10
0.0
 20
0.0
 30
0.0
1001
ACAD
1000
DSTYLE
1002
{
1070
   340
1005
F
1002
}
  0
CIRCLE
  5
1590
  8
0
  6
CONTINUOUS
 62
     2
 10
2624.2361231819959357
 20
2638.852339068369929
 30
0.0
 40
50.0
  0
TEXT
  5
1591
  8
0
  6
CONTINUOUS
 62
     2
 10
2608.2361231819959357
 20
2608.8523390683690195
 30
0.0
 40
60.0
  1
8
 41
0.8
 72
     1
 11
2624.2361231819959357
 21
2638.852339068369929
 31
0.0
 73
     2
  0
INSERT
  5
1592
  8
0
 62
     7
  2
*U59
 10
0.0
 20
0.0
 30
0.0
1001
ACAD
1000
DSTYLE
1002
{
1070
   340
1005
F
1002
}
  0
LINE
  5
15EA
  8
0
  6
PHANTOM
 62
     3
 10
4600.5820683774645659
 20
4377.2933178434032016
 30
0.0
 11
5619.4224562551826239
 21
4377.2933178434032016
 31
0.0
  0
LINE
  5
15EB
  8
0
  6
PHANTOM
 62
     3
 10
5619.4224562551826239
 20
4377.2933178434032016
 30
0.0
 11
5619.4224562551826239
 21
5244.7999593400736558
 31
0.0
  0
LINE
  5
15EC
  8
0
  6
PHANTOM
 62
     3
 10
5619.4224562551826239
 20
5244.7999593400736558
 30
0.0
 11
4600.5820683774645659
 21
5244.7999593400736558
 31
0.0
  0
LINE
  5
15ED
  8
0
  6
PHANTOM
 62
     3
 10
4600.5820683774645659
 20
5244.7999593400736558
 30
0.0
 11
4600.5820683774645659
 21
4377.2933178434032016
 31
0.0
  0
LINE
  5
15EE
  8
0
 62
     7
 10
4830.4070979082607664
 20
5063.2726585978525691
 30
0.0
 11
4830.4070979082607664
 21
4679.3572836955427192
 31
0.0
  0
LINE
  5
15EF
  8
0
 62
     7
 10
4706.9589312893804163
 20
4871.3149711466976441
 30
0.0
 11
4830.4070979082607664
 21
4871.3149711466976441
 31
0.0
  0
LINE
  5
15F0
  8
0
  6
CONTINUOUS
 62
     3
 10
4759.0422646226952565
 20
4553.2785422747256234
 30
0.0
 11
4759.0422646226952565
 21
4624.4844426587796988
 31
0.0
  0
LINE
  5
15F1
  8
0
  6
CONTINUOUS
 62
     3
 10
4654.8755979560082778
 20
4624.4844426587796988
 30
0.0
 11
4654.8755979560082778
 21
4553.2785422747256234
 31
0.0
  0
CIRCLE
  5
15F2
  8
0
  6
CONTINUOUS
 62
     3
 10
4706.9589312893804163
 20
4588.8814924667813102
 30
0.0
 40
20.8333333333333286
  0
LINE
  5
15F3
  8
0
 62
     7
 10
4679.1811535115703009
 20
4553.2785422747256234
 30
0.0
 11
4679.1811535115703009
 21
4328.5062958165653981
 31
0.0
  0
LINE
  5
15F4
  8
0
 62
     7
 10
4734.736709067132324
 20
4553.2785422747256234
 30
0.0
 11
4734.736709067132324
 21
4328.5062958165653981
 31
0.0
  0
LINE
  5
15F5
  8
0
  6
CONTINUOUS
 62
     3
 10
4750.361709067132324
 20
4328.5062958165653981
 30
0.0
 11
4719.111709067132324
 21
4276.4229624832505579
 31
0.0
  0
LINE
  5
15F6
  8
0
  6
CONTINUOUS
 62
     3
 10
4719.111709067132324
 20
4328.5062958165653981
 30
0.0
 11
4750.361709067132324
 21
4276.4229624832505579
 31
0.0
  0
LINE
  5
15F7
  8
0
  6
CONTINUOUS
 62
     3
 10
4656.3119678712682799
 20
4286.8396291498802384
 30
0.0
 11
4656.3119678712682799
 21
4318.0896291498802384
 31
0.0
  0
LINE
  5
15F8
  8
0
  6
CONTINUOUS
 62
     3
 10
4711.8675234268303029
 20
4286.8396291498802384
 30
0.0
 11
4711.8675234268303029
 21
4318.0896291498802384
 31
0.0
  0
LINE
  5
15F9
  8
0
  6
CONTINUOUS
 62
     3
 10
4694.8061535115703009
 20
4328.5062958165653981
 30
0.0
 11
4663.5561535115703009
 21
4276.4229624832505579
 31
0.0
  0
LINE
  5
15FA
  8
0
  6
CONTINUOUS
 62
     3
 10
4663.5561535115703009
 20
4328.5062958165653981
 30
0.0
 11
4694.8061535115703009
 21
4276.4229624832505579
 31
0.0
  0
LINE
  5
15FB
  8
0
  6
CONTINUOUS
 62
     3
 10
4679.1811535115703009
 20
4276.4229624832505579
 30
0.0
 11
4679.1811535115703009
 21
4255.5896291498802384
 31
0.0
  0
LINE
  5
15FC
  8
0
  6
CONTINUOUS
 62
     3
 10
4663.5561535115703009
 20
4276.4229624832505579
 30
0.0
 11
4694.8061535115703009
 21
4276.4229624832505579
 31
0.0
  0
LINE
  5
15FD
  8
0
  6
CONTINUOUS
 62
     3
 10
4734.736709067132324
 20
4276.4229624832505579
 30
0.0
 11
4734.736709067132324
 21
4255.5896291498802384
 31
0.0
  0
LINE
  5
15FE
  8
0
  6
CONTINUOUS
 62
     3
 10
4719.111709067132324
 20
4276.4229624832505579
 30
0.0
 11
4750.361709067132324
 21
4276.4229624832505579
 31
0.0
  0
LINE
  5
15FF
  8
0
  6
CONTINUOUS
 62
     3
 10
4734.736709067132324
 20
4302.4646291498802384
 30
0.0
 11
4711.8675234268303029
 21
4302.4646291498802384
 31
0.0
  0
LINE
  5
1600
  8
0
  6
CONTINUOUS
 62
     3
 10
4679.1811535115703009
 20
4302.4646291498802384
 30
0.0
 11
4656.3119678712682799
 21
4302.4646291498802384
 31
0.0
  0
LINE
  5
1601
  8
0
  6
CONTINUOUS
 62
     3
 10
4694.8061535115703009
 20
4328.5062958165653981
 30
0.0
 11
4663.5561535115703009
 21
4328.5062958165653981
 31
0.0
  0
LINE
  5
1602
  8
0
  6
CONTINUOUS
 62
     3
 10
4750.361709067132324
 20
4328.5062958165653981
 30
0.0
 11
4719.111709067132324
 21
4328.5062958165653981
 31
0.0
  0
LINE
  5
1603
  8
0
  6
CONTINUOUS
 62
     3
 10
4654.8755979560082778
 20
4553.2785422747256234
 30
0.0
 11
4759.0422646226952565
 21
4553.2785422747256234
 31
0.0
  0
LINE
  5
1604
  8
0
 62
     7
 10
4706.9589312893804163
 20
4624.4844426587796988
 30
0.0
 11
4706.9589312893804163
 21
4871.3149711466976441
 31
0.0
  0
LINE
  5
1605
  8
0
  6
CONTINUOUS
 62
     3
 10
4759.0422646226952565
 20
4624.4844426587796988
 30
0.0
 11
4654.8755979560082778
 21
4624.4844426587796988
 31
0.0
  0
LINE
  5
1606
  8
0
 62
     7
 10
4830.4070979082607664
 20
5063.2726585978525691
 30
0.0
 11
4975.6208098343922757
 21
5063.2726585978525691
 31
0.0
  0
LINE
  5
1607
  8
0
 62
     7
 10
5518.1581228682189249
 20
5063.2726585978525691
 30
0.0
 11
5518.1581228682189249
 21
4983.2020142641849816
 31
0.0
  0
LINE
  5
1608
  8
0
  6
CONTINUOUS
 62
     3
 10
5518.1581228682189249
 20
4901.0745489863911644
 30
0.0
 11
5518.1581228682189249
 21
4872.7856019377950361
 31
0.0
  0
LINE
  5
1609
  8
0
  6
CONTINUOUS
 62
     3
 10
5533.444038666842971
 20
4900.2662573197148959
 30
0.0
 11
5543.1431185279498095
 21
4877.6353536738888579
 31
0.0
  0
LINE
  5
160A
  8
0
  6
CONTINUOUS
 62
     3
 10
5502.8722070696530864
 20
4900.2662573197148959
 30
0.0
 11
5493.1731272084871307
 21
4877.6353536738888579
 31
0.0
  0
LINE
  5
160B
  8
0
  6
CONTINUOUS
 62
     3
 10
5518.1581228682189249
 20
4944.1395142641849816
 30
0.0
 11
5537.6893728682189249
 21
4910.310354541928973
 31
0.0
  0
LINE
  5
160C
  8
0
  6
CONTINUOUS
 62
     3
 10
5498.6268728682189249
 20
4910.310354541928973
 30
0.0
 11
5537.6893728682189249
 21
4910.310354541928973
 31
0.0
  0
LINE
  5
160D
  8
0
  6
CONTINUOUS
 62
     3
 10
5498.6268728682189249
 20
4944.1395142641849816
 30
0.0
 11
5537.6893728682189249
 21
4944.1395142641849816
 31
0.0
  0
LINE
  5
160E
  8
0
  6
CONTINUOUS
 62
     3
 10
5537.6893728682189249
 20
4983.2020142641849816
 30
0.0
 11
5498.6268728682189249
 21
4983.2020142641849816
 31
0.0
  0
LINE
  5
160F
  8
0
  6
CONTINUOUS
 62
     3
 10
5498.6268728682189249
 20
4910.310354541928973
 30
0.0
 11
5518.1581228682189249
 21
4944.1395142641849816
 31
0.0
  0
LINE
  5
1610
  8
0
  6
CONTINUOUS
 62
     3
 10
5507.3074284237809479
 20
4974.5214587086229585
 30
0.0
 11
5507.3074284237809479
 21
4952.8200698197470047
 31
0.0
  0
LINE
  5
1611
  8
0
  6
CONTINUOUS
 62
     3
 10
5529.0088173126569018
 20
4952.8200698197470047
 30
0.0
 11
5529.0088173126569018
 21
4974.5214587086229585
 31
0.0
  0
LINE
  5
1612
  8
0
  6
CONTINUOUS
 62
     3
 10
5507.3074284237809479
 20
4952.8200698197470047
 30
0.0
 11
5529.0088173126569018
 21
4952.8200698197470047
 31
0.0
  0
LINE
  5
1613
  8
0
  6
CONTINUOUS
 62
     3
 10
5529.0088173126569018
 20
4974.5214587086229585
 30
0.0
 11
5507.3074284237809479
 21
4974.5214587086229585
 31
0.0
  0
LINE
  5
1614
  8
0
  6
CONTINUOUS
 62
     3
 10
5498.6268728682189249
 20
4983.2020142641849816
 30
0.0
 11
5498.6268728682189249
 21
4944.1395142641849816
 31
0.0
  0
LINE
  5
1615
  8
0
  6
CONTINUOUS
 62
     3
 10
5537.6893728682189249
 20
4944.1395142641849816
 30
0.0
 11
5537.6893728682189249
 21
4983.2020142641849816
 31
0.0
  0
LINE
  5
1616
  8
0
 62
     7
 10
5518.1581228682189249
 20
5063.2726585978525691
 30
0.0
 11
5348.2864515410619788
 21
5063.2726585978525691
 31
0.0
  0
CIRCLE
  5
1617
  8
0
  6
CONTINUOUS
 62
     3
 10
5315.734368207748048
 20
5119.9610272772843018
 30
0.0
 40
26.0416666666666607
  0
LINE
  5
1618
  8
0
  6
CONTINUOUS
 62
     3
 10
5283.1822848743759096
 20
5082.8039085978525691
 30
0.0
 11
5348.2864515410619788
 21
5043.7414085978525691
 31
0.0
  0
LINE
  5
1619
  8
0
  6
CONTINUOUS
 62
     3
 10
5283.1822848743759096
 20
5043.7414085978525691
 30
0.0
 11
5348.2864515410619788
 21
5082.8039085978525691
 31
0.0
  0
LINE
  5
161A
  8
0
  6
CONTINUOUS
 62
     3
 10
5283.1822848743759096
 20
5082.8039085978525691
 30
0.0
 11
5283.1822848743759096
 21
5043.7414085978525691
 31
0.0
  0
LINE
  5
161B
  8
0
  6
CONTINUOUS
 62
     3
 10
5348.2864515410619788
 20
5043.7414085978525691
 30
0.0
 11
5348.2864515410619788
 21
5082.8039085978525691
 31
0.0
  0
LINE
  5
161C
  8
0
  6
CONTINUOUS
 62
     3
 10
5315.734368207748048
 20
5063.2726585978525691
 30
0.0
 11
5315.734368207748048
 21
5093.9193606105982326
 31
0.0
  0
TEXT
  5
161D
  8
0
  6
CONTINUOUS
 62
     2
 10
5307.6325163558958593
 20
5104.7700550550616754
 30
0.0
 40
30.3819444444444287
  1
S
 41
0.8
 72
     4
 11
5315.734368207748048
 21
5119.9610272772843018
 31
0.0
  0
LINE
  5
161E
  8
0
 62
     7
 10
4830.4070979082607664
 20
4679.3572836955427192
 30
0.0
 11
4975.6208098343922757
 21
4679.3572836955427192
 31
0.0
  0
LINE
  5
161F
  8
0
 62
     7
 10
5518.1581228682189249
 20
4679.3572836956000174
 30
0.0
 11
5518.1581228682189249
 21
4599.2866393618751317
 31
0.0
  0
LINE
  5
1620
  8
0
  6
CONTINUOUS
 62
     3
 10
5518.1581228682189249
 20
4517.1591740841386127
 30
0.0
 11
5518.1581228682189249
 21
4488.8702270355415749
 31
0.0
  0
LINE
  5
1621
  8
0
  6
CONTINUOUS
 62
     3
 10
5533.444038666842971
 20
4516.3508824174641632
 30
0.0
 11
5543.1431185279498095
 21
4493.7199787716381252
 31
0.0
  0
LINE
  5
1622
  8
0
  6
CONTINUOUS
 62
     3
 10
5502.8722070696530864
 20
4516.3508824174641632
 30
0.0
 11
5493.1731272084871307
 21
4493.7199787716381252
 31
0.0
  0
LINE
  5
1623
  8
0
  6
CONTINUOUS
 62
     3
 10
5518.1581228682189249
 20
4560.2241393618751317
 30
0.0
 11
5537.6893728682189249
 21
4526.3949796396773309
 31
0.0
  0
LINE
  5
1624
  8
0
  6
CONTINUOUS
 62
     3
 10
5498.6268728682189249
 20
4526.3949796396773309
 30
0.0
 11
5537.6893728682189249
 21
4526.3949796396773309
 31
0.0
  0
LINE
  5
1625
  8
0
  6
CONTINUOUS
 62
     3
 10
5498.6268728682189249
 20
4560.2241393618751317
 30
0.0
 11
5537.6893728682189249
 21
4560.2241393618751317
 31
0.0
  0
LINE
  5
1626
  8
0
  6
CONTINUOUS
 62
     3
 10
5537.6893728682189249
 20
4599.2866393618751317
 30
0.0
 11
5498.6268728682189249
 21
4599.2866393618751317
 31
0.0
  0
LINE
  5
1627
  8
0
  6
CONTINUOUS
 62
     3
 10
5498.6268728682189249
 20
4526.3949796396773309
 30
0.0
 11
5518.1581228682189249
 21
4560.2241393618751317
 31
0.0
  0
LINE
  5
1628
  8
0
  6
CONTINUOUS
 62
     3
 10
5507.3074284237809479
 20
4590.6060838063713163
 30
0.0
 11
5507.3074284237809479
 21
4568.9046949174380643
 31
0.0
  0
LINE
  5
1629
  8
0
  6
CONTINUOUS
 62
     3
 10
5529.0088173126569018
 20
4568.9046949174380643
 30
0.0
 11
5529.0088173126569018
 21
4590.6060838063713163
 31
0.0
  0
LINE
  5
162A
  8
0
  6
CONTINUOUS
 62
     3
 10
5507.3074284237809479
 20
4568.9046949174380643
 30
0.0
 11
5529.0088173126569018
 21
4568.9046949174380643
 31
0.0
  0
LINE
  5
162B
  8
0
  6
CONTINUOUS
 62
     3
 10
5529.0088173126569018
 20
4590.6060838063713163
 30
0.0
 11
5507.3074284237809479
 21
4590.6060838063713163
 31
0.0
  0
LINE
  5
162C
  8
0
  6
CONTINUOUS
 62
     3
 10
5498.6268728682189249
 20
4599.2866393618751317
 30
0.0
 11
5498.6268728682189249
 21
4560.2241393618751317
 31
0.0
  0
LINE
  5
162D
  8
0
  6
CONTINUOUS
 62
     3
 10
5537.6893728682189249
 20
4560.2241393618751317
 30
0.0
 11
5537.6893728682189249
 21
4599.2866393618751317
 31
0.0
  0
LINE
  5
162E
  8
0
 62
     7
 10
5518.1581228682189249
 20
4679.3572836956000174
 30
0.0
 11
5348.2864515410619788
 21
4679.3572836956000174
 31
0.0
  0
CIRCLE
  5
162F
  8
0
  6
CONTINUOUS
 62
     3
 10
5315.734368207748048
 20
4736.0456523749753615
 30
0.0
 40
26.0416666666666607
  0
LINE
  5
1630
  8
0
  6
CONTINUOUS
 62
     3
 10
5283.1822848743759096
 20
4698.8885336956000174
 30
0.0
 11
5348.2864515410619788
 21
4659.8260336956000174
 31
0.0
  0
LINE
  5
1631
  8
0
  6
CONTINUOUS
 62
     3
 10
5283.1822848743759096
 20
4659.8260336956000174
 30
0.0
 11
5348.2864515410619788
 21
4698.8885336956000174
 31
0.0
  0
LINE
  5
1632
  8
0
  6
CONTINUOUS
 62
     3
 10
5283.1822848743759096
 20
4698.8885336956000174
 30
0.0
 11
5283.1822848743759096
 21
4659.8260336956000174
 31
0.0
  0
LINE
  5
1633
  8
0
  6
CONTINUOUS
 62
     3
 10
5348.2864515410619788
 20
4659.8260336956000174
 30
0.0
 11
5348.2864515410619788
 21
4698.8885336956000174
 31
0.0
  0
LINE
  5
1634
  8
0
  6
CONTINUOUS
 62
     3
 10
5315.734368207748048
 20
4679.3572836956000174
 30
0.0
 11
5315.734368207748048
 21
4710.0039857083456809
 31
0.0
  0
TEXT
  5
1635
  8
0
  6
CONTINUOUS
 62
     2
 10
5307.6325163558958593
 20
4720.8546801527518255
 30
0.0
 40
30.3819444444444287
  1
S
 41
0.8
 72
     4
 11
5315.734368207748048
 21
4736.0456523749753615
 31
0.0
  0
LINE
  5
1636
  8
0
  6
CONTINUOUS
 62
     3
 10
4975.6208098343922757
 20
5082.8039085978525691
 30
0.0
 11
5040.7249765010783449
 21
5043.7414085978525691
 31
0.0
  0
LINE
  5
1637
  8
0
  6
CONTINUOUS
 62
     3
 10
4975.6208098343922757
 20
5043.7414085978525691
 30
0.0
 11
5040.7249765010783449
 21
5082.8039085978525691
 31
0.0
  0
LINE
  5
1638
  8
0
  6
CONTINUOUS
 62
     3
 10
4975.6208098343922757
 20
5082.8039085978525691
 30
0.0
 11
4975.6208098343922757
 21
5043.7414085978525691
 31
0.0
  0
LINE
  5
1639
  8
0
  6
CONTINUOUS
 62
     3
 10
5040.7249765010783449
 20
5043.7414085978525691
 30
0.0
 11
5040.7249765010783449
 21
5082.8039085978525691
 31
0.0
  0
LINE
  5
163A
  8
0
  6
CONTINUOUS
 62
     3
 10
5008.1728931677062064
 20
5063.2726585978525691
 30
0.0
 11
5008.1728931677062064
 21
5102.5535098695536362
 31
0.0
  0
LINE
  5
163B
  8
0
  6
CONTINUOUS
 62
     3
 10
4976.9228931677062064
 20
5102.5535098695536362
 30
0.0
 11
5008.1728931677062064
 21
5102.5535098695536362
 31
0.0
  0
CIRCLE
  5
163C
  8
0
  6
CONTINUOUS
 62
     3
 10
5008.1728931677062064
 20
5063.2726585978525691
 30
0.0
 40
12.5
  0
LINE
  5
163D
  8
0
  6
CONTINUOUS
 62
     3
 10
4975.6208098343922757
 20
4698.8885336955427192
 30
0.0
 11
5040.7249765010783449
 21
4659.8260336955427192
 31
0.0
  0
LINE
  5
163E
  8
0
  6
CONTINUOUS
 62
     3
 10
4975.6208098343922757
 20
4659.8260336955427192
 30
0.0
 11
5040.7249765010783449
 21
4698.8885336955427192
 31
0.0
  0
LINE
  5
163F
  8
0
  6
CONTINUOUS
 62
     3
 10
4975.6208098343922757
 20
4698.8885336955427192
 30
0.0
 11
4975.6208098343922757
 21
4659.8260336955427192
 31
0.0
  0
LINE
  5
1640
  8
0
  6
CONTINUOUS
 62
     3
 10
5040.7249765010783449
 20
4659.8260336955427192
 30
0.0
 11
5040.7249765010783449
 21
4698.8885336955427192
 31
0.0
  0
LINE
  5
1641
  8
0
  6
CONTINUOUS
 62
     3
 10
5008.1728931677062064
 20
4679.3572836955427192
 30
0.0
 11
5008.1728931677062064
 21
4718.6381349672437864
 31
0.0
  0
LINE
  5
1642
  8
0
  6
CONTINUOUS
 62
     3
 10
4976.9228931677062064
 20
4718.6381349672437864
 30
0.0
 11
5008.1728931677062064
 21
4718.6381349672437864
 31
0.0
  0
CIRCLE
  5
1643
  8
0
  6
CONTINUOUS
 62
     3
 10
5008.1728931677062064
 20
4679.3572836955427192
 30
0.0
 40
12.5
  0
TEXT
  5
1644
  8
0
  6
CONTINUOUS
 62
     2
 10
5262.8441781209548935
 20
4977.0293018313823268
 30
0.0
 40
49.9999999999999929
  1
電磁弁
 41
0.65
  0
TEXT
  5
1645
  8
0
  6
CONTINUOUS
 62
     2
 10
5357.2248094273963943
 20
4804.3242231592876124
 30
0.0
 40
49.9999999999999929
  1
逆汚染防止蛇口
 41
0.6
  0
INSERT
  5
1646
  8
0
 62
     7
  2
*U60
 10
0.0
 20
0.0
 30
0.0
1001
ACAD
1000
DSTYLE
1002
{
1070
   340
1005
F
1002
}
  0
CIRCLE
  5
1647
  8
0
  6
CONTINUOUS
 62
     2
 10
4825.7653992002597079
 20
5167.04908646363765
 30
0.0
 40
49.9999999999999787
  0
TEXT
  5
1648
  8
0
  6
CONTINUOUS
 62
     2
 10
4791.4796849145450324
 20
5137.04908646363765
 30
0.0
 40
59.9999999999999787
  1
15
 41
0.8
 72
     1
 11
4825.7653992002597079
 21
5167.04908646363765
 31
0.0
 73
     2
  0
INSERT
  5
1649
  8
0
 62
     7
  2
*U61
 10
0.0
 20
0.0
 30
0.0
1001
ACAD
1000
DSTYLE
1002
{
1070
   340
1005
F
1002
}
  0
CIRCLE
  5
164A
  8
0
  6
CONTINUOUS
 62
     2
 10
4935.5325230120797642
 20
4529.2954811109811999
 30
0.0
 40
49.9999999999999787
  0
TEXT
  5
164B
  8
0
  6
CONTINUOUS
 62
     2
 10
4901.2468087263650887
 20
4499.2954811109811999
 30
0.0
 40
59.9999999999999787
  1
10
 41
0.8
 72
     1
 11
4935.5325230120797642
 21
4529.2954811109811999
 31
0.0
 73
     2
  0
INSERT
  5
164C
  8
0
 62
     7
  2
*U62
 10
0.0
 20
0.0
 30
0.0
1001
ACAD
1000
DSTYLE
1002
{
1070
   340
1005
F
1002
}
  0
CIRCLE
  5
164D
  8
0
  6
CONTINUOUS
 62
     2
 10
4940.3237685597268865
 20
4280.9064997581881471
 30
0.0
 40
49.9999999999999787
  0
TEXT
  5
164E
  8
0
  6
CONTINUOUS
 62
     2
 10
4904.895197131155328
 20
4250.9064997581881471
 30
0.0
 40
59.9999999999999787
  1
14
 41
0.8
 72
     1
 11
4940.3237685597268865
 21
4280.9064997581881471
 31
0.0
 73
     2
  0
TEXT
  5
164F
  8
0
  6
CONTINUOUS
 62
     2
 10
4714.7587988034938462
 20
4183.1279672976806978
 30
0.0
 40
49.9999999999999929
  1
給水
 41
0.65
  0
TEXT
  5
1650
  8
0
  6
CONTINUOUS
 62
     2
 10
4616.0462490351055749
 20
4184.1700858828262426
 30
0.0
 40
49.9999999999999929
  1
給湯
 41
0.65
  0
LINE
  5
1651
  8
0
  6
CONTINUOUS
 62
     2
 10
5353.5447485447512008
 20
4134.3389352686353959
 30
0.0
 11
4994.8883418544419328
 21
4134.3389352686353959
 31
0.0
  0
TEXT
  5
1652
  8
0
  6
CONTINUOUS
 62
     2
 10
4994.8883418544419328
 20
4146.0736248654429801
 30
0.0
 40
49.9999999999999787
  1
フローシート
  0
LINE
  5
1653
  8
0
 10
5283.1822848743759096
 20
5063.2726585978525691
 30
0.0
 11
5040.7249765010783449
 21
5063.2726585978525691
 31
0.0
  0
LINE
  5
1654
  8
0
 10
5283.1822848743759096
 20
4679.3572836956000174
 30
0.0
 11
5040.7249765010783449
 21
4679.3572836956000174
 31
0.0
  0
TEXT
  5
16DF
  8
0
  6
CONTINUOUS
 62
     3
 10
5975.7874304317683709
 20
610.1859779204824008
 30
0.0
 40
100.0
  1
2人用手洗装置（水道水対応）外形図
 41
0.9
 72
     4
 11
6867.6445732889123974
 21
660.1859779204824008
 31
0.0
  0
INSERT
  5
16E2
  8
0
 62
     6
  2
A$C4CD329FB
 10
4639.9771249003242701
 20
1115.2527918371490614
 30
0.0
  0
CIRCLE
  5
16E5
  8
0
 62
     7
 10
4830.4070979082607664
 20
4871.3149711466976441
 30
0.0
 40
3.4722222222335399
  0
POLYLINE
  5
16E8
  8
0
 62
     7
 66
     1
 10
0.0
 20
0.0
 30
0.0
 70
     1
  0
VERTEX
  5
235B
  8
0
 62
     7
 10
0.0
 20
0.0
 30
0.0
  0
VERTEX
  5
235C
  8
0
 62
     7
 10
7809.2857142857392319
 20
0.0
 30
0.0
  0
VERTEX
  5
235D
  8
0
 62
     7
 10
7809.2857142857392319
 20
5446.4761904762126505
 30
0.0
  0
VERTEX
  5
235E
  8
0
 62
     7
 10
0.0
 20
5446.4761904762126505
 30
0.0
  0
SEQEND
  5
235F
  8
0
 62
     7
  0
POLYLINE
  5
173A
  8
0
  6
CONTINUOUS
 62
     3
 66
     1
 10
0.0
 20
0.0
 30
0.0
1001
GENIUS_GENREC_14
1002
{
1000
PYDIR
1011
4459.9768089003046043
1021
0.0
1031
0.0
1021
3017.786229829478998
1031
0.0
1002
}
1002
{
1000
PXDIR
1011
4589.9768089003046043
1021
0.0
1031
0.0
1021
2367.786229829478998
1031
0.0
1002
}
1002
{
1000
PORI
1011
4459.9768089003046043
1021
0.0
1031
0.0
1021
2367.786229829478998
1031
0.0
1002
}
1002
{
1000
PINS
1011
4459.9768089003046043
1021
0.0
1031
0.0
1021
2367.786229829478998
1031
0.0
1002
}
1002
{
1000
PINS2
1011
4589.9768089003046043
1021
0.0
1031
0.0
1021
3017.786229829478998
1031
0.0
1002
}
1002
{
1000
C
1070
     1
1002
}
1001
GENIUS_GENODEF_13
1002
{
1000
HIER
1070
     0
1002
}
1002
{
1000
MANEDIT
1070
     0
1002
}
1002
{
1000
NOSEL
1070
     0
1002
}
1002
{
1000
BEHIND
1070
     0
1002
}
1002
{
1000
REACTOR
1002
}
1001
GENIUS_GENOBJ-N-REC_13
1002
{
1000
OWNER
1000
GEN
1002
}
  0
VERTEX
  5
173B
  8
0
  6
CONTINUOUS
 62
     3
 10
4459.9768089003046043
 20
3017.786229829478998
 30
0.0
  0
VERTEX
  5
173C
  8
0
  6
CONTINUOUS
 62
     3
 10
4459.9768089003046043
 20
2367.786229829478998
 30
0.0
  0
SEQEND
  5
173D
  8
0
  6
CONTINUOUS
 62
     3
  0
INSERT
  5
1740
  8
0
 62
     7
  2
A$C1C185600
 10
1782.5688264254708884
 20
2059.5007148829749895
 30
0.0
  0
INSERT
  5
1741
  8
0
 62
     7
  2
A$C35C419CB
 10
912.5687044255901128
 20
2059.5007148829749895
 30
0.0
  0
TEXT
  5
1742
  8
0
  6
CONTINUOUS
 62
     2
 10
6800.7557888892088158
 20
4944.7999593400736558
 30
0.0
 40
40.0
  1
アクリル系人工大理石
 41
0.5
 72
     4
 11
6919.4224555558757856
 21
4964.7999593400745653
 31
0.0
  0
LINE
  5
1745
  8
0
  6
CONTINUOUS
 62
     2
 10
6198.6598015095223673
 20
2278.013954896479845
 30
0.0
 11
7654.8318179257330485
 21
2278.013954896479845
 31
0.0
  0
TEXT
  5
1746
  8
0
  6
CONTINUOUS
 62
     2
 10
6229.5736753257224336
 20
2292.7622018267288695
 30
0.0
 40
49.9999999998000035
  1
特記）鏡以外の本体材質は、全てアクリル系人工大理石製のこと。
 41
0.8
  0
LINE
  5
17B6
  8
0
  6
CONTINUOUS
 62
     3
 10
4448.976800900301896
 20
2706.7526988372560481
 30
0.0
 11
4449.9767986075603403
 21
2706.7526988372560481
 31
0.0
  0
LINE
  5
17B7
  8
0
  6
CONTINUOUS
 62
     3
 10
4448.976800900301896
 20
2706.7526988372560481
 30
0.0
 11
4448.976800900301896
 21
2705.163297800347209
 31
0.0
  0
LINE
  5
17B8
  8
0
  6
CONTINUOUS
 62
     3
 10
4425.9768009003009865
 20
2303.252698837196931
 30
0.0
 11
4441.8607589002922396
 21
2303.252698837196931
 31
0.0
  0
LINE
  5
17B9
  8
0
  6
CONTINUOUS
 62
     3
 10
4377.9768009003009865
 20
2302.2526988371978405
 30
0.0
 11
4449.9768081942456774
 21
2302.2526988371978405
 31
0.0
  0
LINE
  5
17BA
  8
0
  6
CONTINUOUS
 62
     3
 10
4377.9768009003009865
 20
2303.252698837196931
 30
0.0
 11
4395.976800900301896
 21
2303.252698837196931
 31
0.0
  0
LINE
  5
17BB
  8
0
  6
CONTINUOUS
 62
     3
 10
4377.9768009003009865
 20
2303.252698837196931
 30
0.0
 11
4377.9768009003009865
 21
2302.2526988371978405
 31
0.0
  0
LINE
  5
17BC
  8
0
  6
CONTINUOUS
 62
     3
 10
4423.976800900301896
 20
2308.3859358371701092
 30
0.0
 11
4397.9768009003009865
 21
2308.3859358371701092
 31
0.0
  0
LINE
  5
17BD
  8
0
  6
CONTINUOUS
 62
     3
 10
4395.976800900301896
 20
2306.3859358371701092
 30
0.0
 11
4395.976800900301896
 21
2302.2526988371978405
 31
0.0
  0
LINE
  5
17BE
  8
0
  6
CONTINUOUS
 62
     3
 10
4400.9768009003009865
 20
2302.2526988371978405
 30
0.0
 11
4400.9768009003009865
 21
2297.752698837196931
 31
0.0
  0
LINE
  5
17BF
  8
0
  6
CONTINUOUS
 62
     3
 10
4425.9768009003009865
 20
2306.3859358371701092
 30
0.0
 11
4425.9768009003009865
 21
2302.2526988371978405
 31
0.0
  0
LINE
  5
17C0
  8
0
  6
CONTINUOUS
 62
     3
 10
4442.5668249003347228
 20
2302.3627268371637911
 30
0.0
 11
4446.9768009003009865
 21
2307.7526988371978405
 31
0.0
  0
LINE
  5
17C1
  8
0
  6
CONTINUOUS
 62
     3
 10
4442.0929459002800286
 20
2303.3627268371637911
 30
0.0
 11
4446.2028439003042877
 21
2308.3859358371701092
 31
0.0
  0
LINE
  5
17C2
  8
0
  6
CONTINUOUS
 62
     3
 10
4440.9768009003009865
 20
2299.252698837196931
 30
0.0
 11
4449.9768082652590238
 21
2299.252698837196931
 31
0.0
  0
LINE
  5
17C3
  8
0
  6
CONTINUOUS
 62
     3
 10
4440.9768009003009865
 20
2302.2526988371978405
 30
0.0
 11
4440.9768009003009865
 21
2297.752698837196931
 31
0.0
  0
LINE
  5
17C4
  8
0
  6
CONTINUOUS
 62
     3
 10
4446.2028439003042877
 20
2308.3859358371701092
 30
0.0
 11
4446.9768009003009865
 21
2307.7526988371978405
 31
0.0
  0
LINE
  5
17C5
  8
0
  6
CONTINUOUS
 62
     3
 10
4367.4515655143177355
 20
2511.2526988371391781
 30
0.0
 11
4374.1578419629950076
 21
2511.2526988371391781
 31
0.0
  0
LINE
  5
17C6
  8
0
  6
CONTINUOUS
 62
     3
 10
4367.4515655143768527
 20
2537.2526988373720087
 30
0.0
 11
4374.4515655143768527
 21
2537.2526988371391781
 31
0.0
  0
LINE
  5
17C7
  8
0
  6
CONTINUOUS
 62
     3
 10
4280.9777251818450168
 20
2481.252698837196931
 30
0.0
 11
4280.9777251818450168
 21
2460.252698837196931
 31
0.0
  0
LINE
  5
17C8
  8
0
  6
CONTINUOUS
 62
     3
 10
4170.9777251819032244
 20
2455.2526988371978405
 30
0.0
 11
4275.9777251818450168
 21
2455.2526988371978405
 31
0.0
  0
LINE
  5
17C9
  8
0
  6
CONTINUOUS
 62
     3
 10
4170.9777251819032244
 20
2493.7526988371978405
 30
0.0
 11
4170.9777251819032244
 21
2455.2526988371978405
 31
0.0
  0
LINE
  5
17CA
  8
0
  6
CONTINUOUS
 62
     3
 10
4211.9777251818450168
 20
2496.2526988372560481
 30
0.0
 11
4211.9777251819032244
 21
2455.2526988371978405
 31
0.0
  0
LINE
  5
17CB
  8
0
  6
CONTINUOUS
 62
     3
 10
4211.5399118088525938
 20
2505.4555811933241785
 30
0.0
 11
4209.6838828867767006
 21
2510.5549787465138252
 31
0.0
  0
LINE
  5
17CC
  8
0
  6
CONTINUOUS
 62
     3
 10
4187.4768009003009865
 20
2455.2526988371978405
 30
0.0
 11
4187.4768009003009865
 21
2450.2526988371400876
 31
0.0
  0
LINE
  5
17CD
  8
0
  6
CONTINUOUS
 62
     3
 10
4187.4768009003009865
 20
2450.2526988371400876
 30
0.0
 11
4194.476800900301896
 21
2450.2526988371400876
 31
0.0
  0
LINE
  5
17CE
  8
0
  6
CONTINUOUS
 62
     3
 10
4194.476800900301896
 20
2455.2526988371978405
 30
0.0
 11
4194.476800900301896
 21
2450.2526988371400876
 31
0.0
  0
LINE
  5
17CF
  8
0
  6
CONTINUOUS
 62
     3
 10
4380.058671461592894
 20
2502.7526988373138011
 30
0.0
 11
4380.0586714616511017
 21
2497.7526988373138011
 31
0.0
  0
LINE
  5
17D0
  8
0
  6
CONTINUOUS
 62
     3
 10
4294.9777251818450168
 20
2495.2526988371978405
 30
0.0
 11
4379.3586714616967583
 21
2495.2526988371978405
 31
0.0
  0
LINE
  5
17D1
  8
0
  6
CONTINUOUS
 62
     3
 10
4216.6474224019912072
 20
2504.2526988371978405
 30
0.0
 11
4379.9186714660600046
 21
2504.2526988371978405
 31
0.0
  0
LINE
  5
17D2
  8
0
  6
CONTINUOUS
 62
     3
 10
4374.1092587183811702
 20
2505.252698837196931
 30
0.0
 11
4379.3586714616385507
 21
2505.252698837196931
 31
0.0
  0
LINE
  5
17D3
  8
0
  6
CONTINUOUS
 62
     3
 10
4374.6409065151819959
 20
2549.7526988371391781
 30
0.0
 11
4376.6411754821892828
 21
2549.7526988367321792
 31
0.0
  0
LINE
  5
17D4
  8
0
  6
CONTINUOUS
 62
     3
 10
4410.9474999003577977
 20
2456.2767559970379807
 30
0.0
 11
4416.435691900317579
 21
2470.4305139970388154
 31
0.0
  0
LINE
  5
17D5
  8
0
  6
CONTINUOUS
 62
     3
 10
4404.8871509003220126
 20
2458.6266869970709195
 30
0.0
 11
4411.4136809003539383
 21
2456.095991997047804
 31
0.0
  0
LINE
  5
17D6
  8
0
  6
CONTINUOUS
 62
     3
 10
4405.3533319003172437
 20
2458.445922997082107
 30
0.0
 11
4410.8415239003361421
 21
2472.5996809970820323
 31
0.0
  0
LINE
  5
17D7
  8
0
  6
CONTINUOUS
 62
     3
 10
4416.9768009003601037
 20
2473.32273699704092
 30
0.0
 11
4416.976800900301896
 21
2478.32273699704092
 31
0.0
  0
LINE
  5
17D8
  8
0
  6
CONTINUOUS
 62
     3
 10
4410.9768009000099482
 20
2478.0617092780889834
 30
0.0
 11
4410.9768009003601037
 21
2473.32273699704092
 31
0.0
  0
LINE
  5
17D9
  8
0
  6
CONTINUOUS
 62
     3
 10
4401.976800900301896
 20
2296.7526988371978405
 30
0.0
 11
4439.976800900301896
 21
2296.7526988371978405
 31
0.0
  0
LINE
  5
17DA
  8
0
  6
CONTINUOUS
 62
     3
 10
4352.2770927874944391
 20
2322.948111520322982
 30
0.0
 11
4378.1809514997294173
 21
2389.7528020206377732
 31
0.0
  0
LINE
  5
17DB
  8
0
  6
CONTINUOUS
 62
     3
 10
4387.8748287254129536
 20
2414.7528020206959809
 30
0.0
 11
4404.8871509003220126
 21
2458.6266869970709195
 31
0.0
  0
LINE
  5
17DC
  8
0
  6
CONTINUOUS
 62
     3
 10
4358.8036192301660776
 20
2320.4174174893410054
 30
0.0
 11
4385.6887694416218437
 21
2389.7528020206959809
 31
0.0
  0
LINE
  5
17DD
  8
0
  6
CONTINUOUS
 62
     3
 10
4395.3826473919907585
 20
2414.7528020206959809
 30
0.0
 11
4411.4136809003539383
 21
2456.095991997047804
 31
0.0
  0
LINE
  5
17DE
  8
0
  6
CONTINUOUS
 62
     3
 10
4352.2770927874944391
 20
2322.948111520322982
 30
0.0
 11
4358.8036192301660776
 21
2320.4174174893410054
 31
0.0
  0
CIRCLE
  5
17DF
  8
0
  6
CONTINUOUS
 62
     3
 10
4437.976800900301896
 20
2497.2526988373720087
 30
0.0
 40
7.0
  0
CIRCLE
  5
17E0
  8
0
  6
CONTINUOUS
 62
     3
 10
4437.976800900301896
 20
2497.2526988373720087
 30
0.0
 40
5.5
  0
ARC
  5
17E1
  8
0
  6
CONTINUOUS
 62
     3
 10
4456.8398195798499728
 20
2405.2663606082210208
 30
0.0
 40
300.0
 50
91.3108548042518748
 51
104.0993171682225977
  0
ARC
  5
17E2
  8
0
  6
CONTINUOUS
 62
     3
 10
4384.976800900301896
 20
2691.3794615775118473
 30
0.0
 40
5.0
 50
104.0993171682225977
 51
177.4340859117758953
  0
ARC
  5
17E3
  8
0
  6
CONTINUOUS
 62
     3
 10
4445.976800900301896
 20
2492.1288886604597792
 30
0.0
 40
12.0
 50
274.3805105481586111
 51
289.471236141086024
  0
ARC
  5
17E4
  8
0
  6
CONTINUOUS
 62
     3
 10
4370.5134882291313261
 20
3477.2427340817521326
 30
0.0
 40
1000.0
 50
270.2557827862286786
 51
274.3805105481586111
  0
ARC
  5
17E5
  8
0
  6
CONTINUOUS
 62
     3
 10
4401.976800900301896
 20
2297.752698837196931
 30
0.0
 40
1.0
 50
180.0
 51
270.0
  0
ARC
  5
17E6
  8
0
  6
CONTINUOUS
 62
     3
 10
4397.9768009003009865
 20
2306.3859358371701092
 30
0.0
 40
2.0
 50
90.0
 51
180.0
  0
ARC
  5
17E7
  8
0
  6
CONTINUOUS
 62
     3
 10
4423.976800900301896
 20
2306.3859358371701092
 30
0.0
 40
2.0
 50
0.0
 51
90.0
  0
ARC
  5
17E8
  8
0
  6
CONTINUOUS
 62
     3
 10
4439.976800900301896
 20
2297.752698837196931
 30
0.0
 40
1.0
 50
270.0
 51
0.0
  0
ARC
  5
17E9
  8
0
  6
CONTINUOUS
 62
     3
 10
4442.3346379002896356
 20
2302.5526988371861989
 30
0.0
 40
0.3
 50
270.0
 51
320.7105929992923734
  0
ARC
  5
17EA
  8
0
  6
CONTINUOUS
 62
     3
 10
4441.8607589002922396
 20
2303.5526988371861989
 30
0.0
 40
0.3
 50
270.0
 51
320.7105929992923734
  0
ARC
  5
17EB
  8
0
  6
CONTINUOUS
 62
     3
 10
9374.9687138491426595
 20
2467.759899138648052
 30
0.0
 40
5001.0
 50
179.0605775106689066
 51
179.5704460494671082
  0
ARC
  5
17EC
  8
0
  6
CONTINUOUS
 62
     3
 10
4451.4515655115246773
 20
2524.2526988371978405
 30
0.0
 40
84.999999997214573
 50
171.2025892887490954
 51
188.7974107112509046
  0
ARC
  5
17ED
  8
0
  6
CONTINUOUS
 62
     3
 10
4367.4515655143177355
 20
2534.7526988373138011
 30
0.0
 40
2.4999999998267408
 50
89.9999999966649398
 51
255.7499673019848103
  0
ARC
  5
17EE
  8
0
  6
CONTINUOUS
 62
     3
 10
9374.9687138491426595
 20
2467.759899138648052
 30
0.0
 40
5000.0
 50
179.6849541360662954
 51
179.8912204642934114
  0
ARC
  5
17EF
  8
0
  6
CONTINUOUS
 62
     3
 10
4294.9777251818450168
 20
2481.252698837196931
 30
0.0
 40
14.0
 50
90.0
 51
180.0
  0
ARC
  5
17F0
  8
0
  6
CONTINUOUS
 62
     3
 10
4275.9777251818450168
 20
2460.252698837196931
 30
0.0
 40
5.0
 50
270.0
 51
0.0
  0
ARC
  5
17F1
  8
0
  6
CONTINUOUS
 62
     3
 10
4202.6474224019329995
 20
2456.252698837196931
 30
0.0
 40
50.0
 50
65.3800226728440919
 51
90.0
  0
ARC
  5
17F2
  8
0
  6
CONTINUOUS
 62
     3
 10
4220.9777251819032244
 20
2496.2526988371978405
 30
0.0
 40
6.0
 50
335.6044330801256024
 51
65.3800226728440919
  0
ARC
  5
17F3
  8
0
  6
CONTINUOUS
 62
     3
 10
4180.9062378698135944
 20
2514.4261933995289837
 30
0.0
 40
50.0
 50
308.4206174535661944
 51
335.6044330801256024
  0
ARC
  5
17F4
  8
0
  6
CONTINUOUS
 62
     3
 10
4193.9777251819032244
 20
2493.7526988371978405
 30
0.0
 40
23.0
 50
46.9311722273751784
 51
180.0
  0
ARC
  5
17F5
  8
0
  6
CONTINUOUS
 62
     3
 10
4389.976800900301896
 20
2691.3794615775118473
 30
0.0
 40
5.0
 50
104.0993171682225977
 51
177.4340859117758953
  0
ARC
  5
17F6
  8
0
  6
CONTINUOUS
 62
     3
 10
9379.9687138491426595
 20
2467.759899138648052
 30
0.0
 40
5000.0
 50
177.4340859117758953
 51
179.8912151615490984
  0
ARC
  5
17F7
  8
0
  6
CONTINUOUS
 62
     3
 10
9374.9687138491426595
 20
2467.759899138648052
 30
0.0
 40
5000.0
 50
177.4340859117758953
 51
179.0603896085146971
  0
ARC
  5
17F8
  8
0
  6
CONTINUOUS
 62
     3
 10
9374.9687138491426595
 20
2467.759899138648052
 30
0.0
 40
4998.9999999999990905
 50
179.0602016329692958
 51
179.5703601360791879
  0
ARC
  5
17F9
  8
0
  6
CONTINUOUS
 62
     3
 10
4408.9768009003601037
 20
2473.32273699704092
 30
0.0
 40
2.0
 50
338.8059439994793252
 51
0.0
  0
ARC
  5
17FA
  8
0
  6
CONTINUOUS
 62
     3
 10
4408.9768009003601037
 20
2473.32273699704092
 30
0.0
 40
8.0
 50
338.8059439994793252
 51
0.0
  0
POLYLINE
  5
17FB
  8
0
  6
CONTINUOUS
 62
     3
 10
4211.977725181884125
 20
2496.2526988372101187
 30
0.0
 66
     1
 70
     8
  0
VERTEX
  8
0
  5
2541
 10
4211.98
 20
2496.25
 30
0.00000
  70
    32
  0
VERTEX
  8
0
  5
2542
 10
4211.98
 20
2496.38
 30
0.00000
  70
    32
  0
VERTEX
  8
0
  5
2543
 10
4211.97
 20
2496.50
 30
0.00000
  70
    32
  0
VERTEX
  8
0
  5
2544
 10
4211.97
 20
2496.62
 30
0.00000
  70
    32
  0
VERTEX
  8
0
  5
2545
 10
4211.97
 20
2496.74
 30
0.00000
  70
    32
  0
VERTEX
  8
0
  5
2546
 10
4211.96
 20
2496.87
 30
0.00000
  70
    32
  0
VERTEX
  8
0
  5
2547
 10
4211.95
 20
2496.99
 30
0.00000
  70
    32
  0
VERTEX
  8
0
  5
2548
 10
4211.94
 20
2497.11
 30
0.00000
  70
    32
  0
VERTEX
  8
0
  5
2549
 10
4211.93
 20
2497.23
 30
0.00000
  70
    32
  0
VERTEX
  8
0
  5
254A
 10
4211.92
 20
2497.35
 30
0.00000
  70
    32
  0
VERTEX
  8
0
  5
254B
 10
4211.91
 20
2497.48
 30
0.00000
  70
    32
  0
VERTEX
  8
0
  5
254C
 10
4211.89
 20
2497.60
 30
0.00000
  70
    32
  0
VERTEX
  8
0
  5
254D
 10
4211.88
 20
2497.72
 30
0.00000
  70
    32
  0
VERTEX
  8
0
  5
254E
 10
4211.86
 20
2497.84
 30
0.00000
  70
    32
  0
VERTEX
  8
0
  5
254F
 10
4211.84
 20
2497.96
 30
0.00000
  70
    32
  0
VERTEX
  8
0
  5
2550
 10
4211.82
 20
2498.08
 30
0.00000
  70
    32
  0
VERTEX
  8
0
  5
2551
 10
4211.80
 20
2498.20
 30
0.00000
  70
    32
  0
VERTEX
  8
0
  5
2552
 10
4211.78
 20
2498.32
 30
0.00000
  70
    32
  0
VERTEX
  8
0
  5
2553
 10
4211.75
 20
2498.44
 30
0.00000
  70
    32
  0
VERTEX
  8
0
  5
2554
 10
4211.73
 20
2498.56
 30
0.00000
  70
    32
  0
VERTEX
  8
0
  5
2555
 10
4211.70
 20
2498.68
 30
0.00000
  70
    32
  0
VERTEX
  8
0
  5
2556
 10
4211.67
 20
2498.80
 30
0.00000
  70
    32
  0
VERTEX
  8
0
  5
2557
 10
4211.64
 20
2498.92
 30
0.00000
  70
    32
  0
VERTEX
  8
0
  5
2558
 10
4211.61
 20
2499.04
 30
0.00000
  70
    32
  0
VERTEX
  8
0
  5
2559
 10
4211.58
 20
2499.16
 30
0.00000
  70
    32
  0
VERTEX
  8
0
  5
255A
 10
4211.54
 20
2499.27
 30
0.00000
  70
    32
  0
VERTEX
  8
0
  5
255B
 10
4211.51
 20
2499.39
 30
0.00000
  70
    32
  0
VERTEX
  8
0
  5
255C
 10
4211.47
 20
2499.51
 30
0.00000
  70
    32
  0
VERTEX
  8
0
  5
255D
 10
4211.43
 20
2499.62
 30
0.00000
  70
    32
  0
VERTEX
  8
0
  5
255E
 10
4211.39
 20
2499.74
 30
0.00000
  70
    32
  0
VERTEX
  8
0
  5
255F
 10
4211.35
 20
2499.85
 30
0.00000
  70
    32
  0
VERTEX
  8
0
  5
2560
 10
4211.31
 20
2499.97
 30
0.00000
  70
    32
  0
VERTEX
  8
0
  5
2561
 10
4211.27
 20
2500.08
 30
0.00000
  70
    32
  0
VERTEX
  8
0
  5
2562
 10
4211.22
 20
2500.19
 30
0.00000
  70
    32
  0
VERTEX
  8
0
  5
2563
 10
4211.18
 20
2500.31
 30
0.00000
  70
    32
  0
VERTEX
  8
0
  5
2564
 10
4211.13
 20
2500.42
 30
0.00000
  70
    32
  0
VERTEX
  8
0
  5
2565
 10
4211.08
 20
2500.53
 30
0.00000
  70
    32
  0
VERTEX
  8
0
  5
2566
 10
4211.03
 20
2500.64
 30
0.00000
  70
    32
  0
VERTEX
  8
0
  5
2567
 10
4210.98
 20
2500.75
 30
0.00000
  70
    32
  0
VERTEX
  8
0
  5
2568
 10
4210.93
 20
2500.86
 30
0.00000
  70
    32
  0
VERTEX
  8
0
  5
2569
 10
4210.88
 20
2500.97
 30
0.00000
  70
    32
  0
VERTEX
  8
0
  5
256A
 10
4210.82
 20
2501.07
 30
0.00000
  70
    32
  0
VERTEX
  8
0
  5
256B
 10
4210.77
 20
2501.18
 30
0.00000
  70
    32
  0
VERTEX
  8
0
  5
256C
 10
4210.71
 20
2501.29
 30
0.00000
  70
    32
  0
VERTEX
  8
0
  5
256D
 10
4210.65
 20
2501.39
 30
0.00000
  70
    32
  0
VERTEX
  8
0
  5
256E
 10
4210.59
 20
2501.50
 30
0.00000
  70
    32
  0
VERTEX
  8
0
  5
256F
 10
4210.53
 20
2501.60
 30
0.00000
  70
    32
  0
VERTEX
  8
0
  5
2570
 10
4210.47
 20
2501.71
 30
0.00000
  70
    32
  0
VERTEX
  8
0
  5
2571
 10
4210.41
 20
2501.81
 30
0.00000
  70
    32
  0
VERTEX
  8
0
  5
2572
 10
4210.34
 20
2501.91
 30
0.00000
  70
    32
  0
VERTEX
  8
0
  5
2573
 10
4210.28
 20
2502.01
 30
0.00000
  70
    32
  0
VERTEX
  8
0
  5
2574
 10
4210.21
 20
2502.11
 30
0.00000
  70
    32
  0
VERTEX
  8
0
  5
2575
 10
4210.14
 20
2502.21
 30
0.00000
  70
    32
  0
VERTEX
  8
0
  5
2576
 10
4210.07
 20
2502.31
 30
0.00000
  70
    32
  0
VERTEX
  8
0
  5
2577
 10
4210.00
 20
2502.41
 30
0.00000
  70
    32
  0
VERTEX
  8
0
  5
2578
 10
4209.93
 20
2502.50
 30
0.00000
  70
    32
  0
VERTEX
  8
0
  5
2579
 10
4209.86
 20
2502.60
 30
0.00000
  70
    32
  0
VERTEX
  8
0
  5
257A
 10
4209.79
 20
2502.69
 30
0.00000
  70
    32
  0
VERTEX
  8
0
  5
257B
 10
4209.71
 20
2502.78
 30
0.00000
  70
    32
  0
VERTEX
  8
0
  5
257C
 10
4209.64
 20
2502.88
 30
0.00000
  70
    32
  0
VERTEX
  8
0
  5
257D
 10
4209.56
 20
2502.97
 30
0.00000
  70
    32
  0
VERTEX
  8
0
  5
257E
 10
4209.48
 20
2503.06
 30
0.00000
  70
    32
  0
VERTEX
  8
0
  5
257F
 10
4209.40
 20
2503.15
 30
0.00000
  70
    32
  0
VERTEX
  8
0
  5
2580
 10
4209.33
 20
2503.24
 30
0.00000
  70
    32
  0
VERTEX
  8
0
  5
2581
 10
4209.24
 20
2503.32
 30
0.00000
  70
    32
  0
VERTEX
  8
0
  5
2582
 10
4209.16
 20
2503.41
 30
0.00000
  70
    32
  0
VERTEX
  8
0
  5
2583
 10
4209.08
 20
2503.50
 30
0.00000
  70
    32
  0
VERTEX
  8
0
  5
2584
 10
4209.00
 20
2503.58
 30
0.00000
  70
    32
  0
VERTEX
  8
0
  5
2585
 10
4208.91
 20
2503.66
 30
0.00000
  70
    32
  0
VERTEX
  8
0
  5
2586
 10
4208.83
 20
2503.74
 30
0.00000
  70
    32
  0
VERTEX
  8
0
  5
2587
 10
4208.74
 20
2503.82
 30
0.00000
  70
    32
  0
VERTEX
  8
0
  5
2588
 10
4208.65
 20
2503.90
 30
0.00000
  70
    32
  0
VERTEX
  8
0
  5
2589
 10
4208.57
 20
2503.98
 30
0.00000
  70
    32
  0
VERTEX
  8
0
  5
258A
 10
4208.48
 20
2504.06
 30
0.00000
  70
    32
  0
VERTEX
  8
0
  5
258B
 10
4208.39
 20
2504.14
 30
0.00000
  70
    32
  0
VERTEX
  8
0
  5
258C
 10
4208.30
 20
2504.21
 30
0.00000
  70
    32
  0
VERTEX
  8
0
  5
258D
 10
4208.21
 20
2504.28
 30
0.00000
  70
    32
  0
VERTEX
  8
0
  5
258E
 10
4208.11
 20
2504.36
 30
0.00000
  70
    32
  0
VERTEX
  8
0
  5
258F
 10
4208.02
 20
2504.43
 30
0.00000
  70
    32
  0
VERTEX
  8
0
  5
2590
 10
4207.93
 20
2504.50
 30
0.00000
  70
    32
  0
VERTEX
  8
0
  5
2591
 10
4207.83
 20
2504.57
 30
0.00000
  70
    32
  0
VERTEX
  8
0
  5
2592
 10
4207.74
 20
2504.63
 30
0.00000
  70
    32
  0
VERTEX
  8
0
  5
2593
 10
4207.64
 20
2504.70
 30
0.00000
  70
    32
  0
VERTEX
  8
0
  5
2594
 10
4207.54
 20
2504.77
 30
0.00000
  70
    32
  0
VERTEX
  8
0
  5
2595
 10
4207.44
 20
2504.83
 30
0.00000
  70
    32
  0
VERTEX
  8
0
  5
2596
 10
4207.35
 20
2504.89
 30
0.00000
  70
    32
  0
VERTEX
  8
0
  5
2597
 10
4207.25
 20
2504.95
 30
0.00000
  70
    32
  0
VERTEX
  8
0
  5
2598
 10
4207.15
 20
2505.01
 30
0.00000
  70
    32
  0
VERTEX
  8
0
  5
2599
 10
4207.05
 20
2505.07
 30
0.00000
  70
    32
  0
VERTEX
  8
0
  5
259A
 10
4206.94
 20
2505.13
 30
0.00000
  70
    32
  0
VERTEX
  8
0
  5
259B
 10
4206.84
 20
2505.18
 30
0.00000
  70
    32
  0
VERTEX
  8
0
  5
259C
 10
4206.74
 20
2505.24
 30
0.00000
  70
    32
  0
VERTEX
  8
0
  5
259D
 10
4206.64
 20
2505.29
 30
0.00000
  70
    32
  0
VERTEX
  8
0
  5
259E
 10
4206.53
 20
2505.34
 30
0.00000
  70
    32
  0
VERTEX
  8
0
  5
259F
 10
4206.43
 20
2505.39
 30
0.00000
  70
    32
  0
VERTEX
  8
0
  5
25A0
 10
4206.32
 20
2505.44
 30
0.00000
  70
    32
  0
VERTEX
  8
0
  5
25A1
 10
4206.22
 20
2505.49
 30
0.00000
  70
    32
  0
VERTEX
  8
0
  5
25A2
 10
4206.11
 20
2505.54
 30
0.00000
  70
    32
  0
VERTEX
  8
0
  5
25A3
 10
4206.01
 20
2505.58
 30
0.00000
  70
    32
  0
VERTEX
  8
0
  5
25A4
 10
4205.90
 20
2505.63
 30
0.00000
  70
    32
  0
VERTEX
  8
0
  5
25A5
 10
4205.79
 20
2505.67
 30
0.00000
  70
    32
  0
VERTEX
  8
0
  5
25A6
 10
4205.68
 20
2505.71
 30
0.00000
  70
    32
  0
VERTEX
  8
0
  5
25A7
 10
4205.57
 20
2505.75
 30
0.00000
  70
    32
  0
VERTEX
  8
0
  5
25A8
 10
4205.47
 20
2505.79
 30
0.00000
  70
    32
  0
VERTEX
  8
0
  5
25A9
 10
4205.36
 20
2505.82
 30
0.00000
  70
    32
  0
VERTEX
  8
0
  5
25AA
 10
4205.25
 20
2505.86
 30
0.00000
  70
    32
  0
VERTEX
  8
0
  5
25AB
 10
4205.14
 20
2505.89
 30
0.00000
  70
    32
  0
VERTEX
  8
0
  5
25AC
 10
4205.03
 20
2505.92
 30
0.00000
  70
    32
  0
VERTEX
  8
0
  5
25AD
 10
4204.91
 20
2505.95
 30
0.00000
  70
    32
  0
VERTEX
  8
0
  5
25AE
 10
4204.80
 20
2505.98
 30
0.00000
  70
    32
  0
VERTEX
  8
0
  5
25AF
 10
4204.69
 20
2506.01
 30
0.00000
  70
    32
  0
VERTEX
  8
0
  5
25B0
 10
4204.58
 20
2506.04
 30
0.00000
  70
    32
  0
VERTEX
  8
0
  5
25B1
 10
4204.47
 20
2506.06
 30
0.00000
  70
    32
  0
VERTEX
  8
0
  5
25B2
 10
4204.36
 20
2506.08
 30
0.00000
  70
    32
  0
VERTEX
  8
0
  5
25B3
 10
4204.24
 20
2506.11
 30
0.00000
  70
    32
  0
VERTEX
  8
0
  5
25B4
 10
4204.13
 20
2506.13
 30
0.00000
  70
    32
  0
VERTEX
  8
0
  5
25B5
 10
4204.02
 20
2506.14
 30
0.00000
  70
    32
  0
VERTEX
  8
0
  5
25B6
 10
4203.90
 20
2506.16
 30
0.00000
  70
    32
  0
VERTEX
  8
0
  5
25B7
 10
4203.79
 20
2506.18
 30
0.00000
  70
    32
  0
VERTEX
  8
0
  5
25B8
 10
4203.68
 20
2506.19
 30
0.00000
  70
    32
  0
VERTEX
  8
0
  5
25B9
 10
4203.56
 20
2506.20
 30
0.00000
  70
    32
  0
VERTEX
  8
0
  5
25BA
 10
4203.45
 20
2506.22
 30
0.00000
  70
    32
  0
VERTEX
  8
0
  5
25BB
 10
4203.33
 20
2506.23
 30
0.00000
  70
    32
  0
VERTEX
  8
0
  5
25BC
 10
4203.22
 20
2506.23
 30
0.00000
  70
    32
  0
VERTEX
  8
0
  5
25BD
 10
4203.11
 20
2506.24
 30
0.00000
  70
    32
  0
VERTEX
  8
0
  5
25BE
 10
4202.99
 20
2506.25
 30
0.00000
  70
    32
  0
VERTEX
  8
0
  5
25BF
 10
4202.88
 20
2506.25
 30
0.00000
  70
    32
  0
VERTEX
  8
0
  5
25C0
 10
4202.76
 20
2506.25
 30
0.00000
  70
    32
  0
VERTEX
  8
0
  5
25C1
 10
4202.65
 20
2506.25
 30
0.00000
  70
    32
  0
SEQEND
  8
0
  5
25C2
  0
POLYLINE
  5
17FC
  8
0
  6
CONTINUOUS
 62
     3
 10
4379.3586714616521931
 20
2495.2526988371814696
 30
0.0
 66
     1
 70
     8
  0
VERTEX
  8
0
  5
25C3
 10
4379.36
 20
2495.25
 30
0.00000
  70
    32
  0
VERTEX
  8
0
  5
25C4
 10
4379.37
 20
2495.25
 30
0.00000
  70
    32
  0
VERTEX
  8
0
  5
25C5
 10
4379.38
 20
2495.25
 30
0.00000
  70
    32
  0
VERTEX
  8
0
  5
25C6
 10
4379.38
 20
2495.25
 30
0.00000
  70
    32
  0
VERTEX
  8
0
  5
25C7
 10
4379.39
 20
2495.26
 30
0.00000
  70
    32
  0
VERTEX
  8
0
  5
25C8
 10
4379.40
 20
2495.26
 30
0.00000
  70
    32
  0
VERTEX
  8
0
  5
25C9
 10
4379.41
 20
2495.26
 30
0.00000
  70
    32
  0
VERTEX
  8
0
  5
25CA
 10
4379.42
 20
2495.26
 30
0.00000
  70
    32
  0
VERTEX
  8
0
  5
25CB
 10
4379.43
 20
2495.26
 30
0.00000
  70
    32
  0
VERTEX
  8
0
  5
25CC
 10
4379.44
 20
2495.27
 30
0.00000
  70
    32
  0
VERTEX
  8
0
  5
25CD
 10
4379.44
 20
2495.27
 30
0.00000
  70
    32
  0
VERTEX
  8
0
  5
25CE
 10
4379.45
 20
2495.28
 30
0.00000
  70
    32
  0
VERTEX
  8
0
  5
25CF
 10
4379.46
 20
2495.28
 30
0.00000
  70
    32
  0
VERTEX
  8
0
  5
25D0
 10
4379.47
 20
2495.28
 30
0.00000
  70
    32
  0
VERTEX
  8
0
  5
25D1
 10
4379.48
 20
2495.29
 30
0.00000
  70
    32
  0
VERTEX
  8
0
  5
25D2
 10
4379.49
 20
2495.29
 30
0.00000
  70
    32
  0
VERTEX
  8
0
  5
25D3
 10
4379.50
 20
2495.30
 30
0.00000
  70
    32
  0
VERTEX
  8
0
  5
25D4
 10
4379.50
 20
2495.31
 30
0.00000
  70
    32
  0
VERTEX
  8
0
  5
25D5
 10
4379.51
 20
2495.31
 30
0.00000
  70
    32
  0
VERTEX
  8
0
  5
25D6
 10
4379.52
 20
2495.32
 30
0.00000
  70
    32
  0
VERTEX
  8
0
  5
25D7
 10
4379.53
 20
2495.33
 30
0.00000
  70
    32
  0
VERTEX
  8
0
  5
25D8
 10
4379.54
 20
2495.34
 30
0.00000
  70
    32
  0
VERTEX
  8
0
  5
25D9
 10
4379.55
 20
2495.34
 30
0.00000
  70
    32
  0
VERTEX
  8
0
  5
25DA
 10
4379.55
 20
2495.35
 30
0.00000
  70
    32
  0
VERTEX
  8
0
  5
25DB
 10
4379.56
 20
2495.36
 30
0.00000
  70
    32
  0
VERTEX
  8
0
  5
25DC
 10
4379.57
 20
2495.37
 30
0.00000
  70
    32
  0
VERTEX
  8
0
  5
25DD
 10
4379.58
 20
2495.38
 30
0.00000
  70
    32
  0
VERTEX
  8
0
  5
25DE
 10
4379.59
 20
2495.39
 30
0.00000
  70
    32
  0
VERTEX
  8
0
  5
25DF
 10
4379.59
 20
2495.40
 30
0.00000
  70
    32
  0
VERTEX
  8
0
  5
25E0
 10
4379.60
 20
2495.41
 30
0.00000
  70
    32
  0
VERTEX
  8
0
  5
25E1
 10
4379.61
 20
2495.42
 30
0.00000
  70
    32
  0
VERTEX
  8
0
  5
25E2
 10
4379.62
 20
2495.43
 30
0.00000
  70
    32
  0
VERTEX
  8
0
  5
25E3
 10
4379.63
 20
2495.44
 30
0.00000
  70
    32
  0
VERTEX
  8
0
  5
25E4
 10
4379.63
 20
2495.45
 30
0.00000
  70
    32
  0
VERTEX
  8
0
  5
25E5
 10
4379.64
 20
2495.47
 30
0.00000
  70
    32
  0
VERTEX
  8
0
  5
25E6
 10
4379.65
 20
2495.48
 30
0.00000
  70
    32
  0
VERTEX
  8
0
  5
25E7
 10
4379.66
 20
2495.49
 30
0.00000
  70
    32
  0
VERTEX
  8
0
  5
25E8
 10
4379.67
 20
2495.51
 30
0.00000
  70
    32
  0
VERTEX
  8
0
  5
25E9
 10
4379.67
 20
2495.52
 30
0.00000
  70
    32
  0
VERTEX
  8
0
  5
25EA
 10
4379.68
 20
2495.53
 30
0.00000
  70
    32
  0
VERTEX
  8
0
  5
25EB
 10
4379.69
 20
2495.55
 30
0.00000
  70
    32
  0
VERTEX
  8
0
  5
25EC
 10
4379.70
 20
2495.56
 30
0.00000
  70
    32
  0
VERTEX
  8
0
  5
25ED
 10
4379.70
 20
2495.58
 30
0.00000
  70
    32
  0
VERTEX
  8
0
  5
25EE
 10
4379.71
 20
2495.59
 30
0.00000
  70
    32
  0
VERTEX
  8
0
  5
25EF
 10
4379.72
 20
2495.61
 30
0.00000
  70
    32
  0
VERTEX
  8
0
  5
25F0
 10
4379.73
 20
2495.62
 30
0.00000
  70
    32
  0
VERTEX
  8
0
  5
25F1
 10
4379.73
 20
2495.64
 30
0.00000
  70
    32
  0
VERTEX
  8
0
  5
25F2
 10
4379.74
 20
2495.66
 30
0.00000
  70
    32
  0
VERTEX
  8
0
  5
25F3
 10
4379.75
 20
2495.67
 30
0.00000
  70
    32
  0
VERTEX
  8
0
  5
25F4
 10
4379.75
 20
2495.69
 30
0.00000
  70
    32
  0
VERTEX
  8
0
  5
25F5
 10
4379.76
 20
2495.71
 30
0.00000
  70
    32
  0
VERTEX
  8
0
  5
25F6
 10
4379.77
 20
2495.73
 30
0.00000
  70
    32
  0
VERTEX
  8
0
  5
25F7
 10
4379.78
 20
2495.74
 30
0.00000
  70
    32
  0
VERTEX
  8
0
  5
25F8
 10
4379.78
 20
2495.76
 30
0.00000
  70
    32
  0
VERTEX
  8
0
  5
25F9
 10
4379.79
 20
2495.78
 30
0.00000
  70
    32
  0
VERTEX
  8
0
  5
25FA
 10
4379.80
 20
2495.80
 30
0.00000
  70
    32
  0
VERTEX
  8
0
  5
25FB
 10
4379.80
 20
2495.82
 30
0.00000
  70
    32
  0
VERTEX
  8
0
  5
25FC
 10
4379.81
 20
2495.84
 30
0.00000
  70
    32
  0
VERTEX
  8
0
  5
25FD
 10
4379.82
 20
2495.86
 30
0.00000
  70
    32
  0
VERTEX
  8
0
  5
25FE
 10
4379.82
 20
2495.88
 30
0.00000
  70
    32
  0
VERTEX
  8
0
  5
25FF
 10
4379.83
 20
2495.90
 30
0.00000
  70
    32
  0
VERTEX
  8
0
  5
2600
 10
4379.84
 20
2495.92
 30
0.00000
  70
    32
  0
VERTEX
  8
0
  5
2601
 10
4379.84
 20
2495.94
 30
0.00000
  70
    32
  0
VERTEX
  8
0
  5
2602
 10
4379.85
 20
2495.96
 30
0.00000
  70
    32
  0
VERTEX
  8
0
  5
2603
 10
4379.85
 20
2495.98
 30
0.00000
  70
    32
  0
VERTEX
  8
0
  5
2604
 10
4379.86
 20
2496.01
 30
0.00000
  70
    32
  0
VERTEX
  8
0
  5
2605
 10
4379.87
 20
2496.03
 30
0.00000
  70
    32
  0
VERTEX
  8
0
  5
2606
 10
4379.87
 20
2496.05
 30
0.00000
  70
    32
  0
VERTEX
  8
0
  5
2607
 10
4379.88
 20
2496.07
 30
0.00000
  70
    32
  0
VERTEX
  8
0
  5
2608
 10
4379.88
 20
2496.10
 30
0.00000
  70
    32
  0
VERTEX
  8
0
  5
2609
 10
4379.89
 20
2496.12
 30
0.00000
  70
    32
  0
VERTEX
  8
0
  5
260A
 10
4379.89
 20
2496.14
 30
0.00000
  70
    32
  0
VERTEX
  8
0
  5
260B
 10
4379.90
 20
2496.17
 30
0.00000
  70
    32
  0
VERTEX
  8
0
  5
260C
 10
4379.91
 20
2496.19
 30
0.00000
  70
    32
  0
VERTEX
  8
0
  5
260D
 10
4379.91
 20
2496.21
 30
0.00000
  70
    32
  0
VERTEX
  8
0
  5
260E
 10
4379.92
 20
2496.24
 30
0.00000
  70
    32
  0
VERTEX
  8
0
  5
260F
 10
4379.92
 20
2496.26
 30
0.00000
  70
    32
  0
VERTEX
  8
0
  5
2610
 10
4379.93
 20
2496.29
 30
0.00000
  70
    32
  0
VERTEX
  8
0
  5
2611
 10
4379.93
 20
2496.31
 30
0.00000
  70
    32
  0
VERTEX
  8
0
  5
2612
 10
4379.94
 20
2496.34
 30
0.00000
  70
    32
  0
VERTEX
  8
0
  5
2613
 10
4379.94
 20
2496.36
 30
0.00000
  70
    32
  0
VERTEX
  8
0
  5
2614
 10
4379.95
 20
2496.39
 30
0.00000
  70
    32
  0
VERTEX
  8
0
  5
2615
 10
4379.95
 20
2496.42
 30
0.00000
  70
    32
  0
VERTEX
  8
0
  5
2616
 10
4379.95
 20
2496.44
 30
0.00000
  70
    32
  0
VERTEX
  8
0
  5
2617
 10
4379.96
 20
2496.47
 30
0.00000
  70
    32
  0
VERTEX
  8
0
  5
2618
 10
4379.96
 20
2496.49
 30
0.00000
  70
    32
  0
VERTEX
  8
0
  5
2619
 10
4379.97
 20
2496.52
 30
0.00000
  70
    32
  0
VERTEX
  8
0
  5
261A
 10
4379.97
 20
2496.55
 30
0.00000
  70
    32
  0
VERTEX
  8
0
  5
261B
 10
4379.98
 20
2496.57
 30
0.00000
  70
    32
  0
VERTEX
  8
0
  5
261C
 10
4379.98
 20
2496.60
 30
0.00000
  70
    32
  0
VERTEX
  8
0
  5
261D
 10
4379.98
 20
2496.63
 30
0.00000
  70
    32
  0
VERTEX
  8
0
  5
261E
 10
4379.99
 20
2496.66
 30
0.00000
  70
    32
  0
VERTEX
  8
0
  5
261F
 10
4379.99
 20
2496.68
 30
0.00000
  70
    32
  0
VERTEX
  8
0
  5
2620
 10
4380.00
 20
2496.71
 30
0.00000
  70
    32
  0
VERTEX
  8
0
  5
2621
 10
4380.00
 20
2496.74
 30
0.00000
  70
    32
  0
VERTEX
  8
0
  5
2622
 10
4380.00
 20
2496.77
 30
0.00000
  70
    32
  0
VERTEX
  8
0
  5
2623
 10
4380.01
 20
2496.80
 30
0.00000
  70
    32
  0
VERTEX
  8
0
  5
2624
 10
4380.01
 20
2496.82
 30
0.00000
  70
    32
  0
VERTEX
  8
0
  5
2625
 10
4380.01
 20
2496.85
 30
0.00000
  70
    32
  0
VERTEX
  8
0
  5
2626
 10
4380.01
 20
2496.88
 30
0.00000
  70
    32
  0
VERTEX
  8
0
  5
2627
 10
4380.02
 20
2496.91
 30
0.00000
  70
    32
  0
VERTEX
  8
0
  5
2628
 10
4380.02
 20
2496.94
 30
0.00000
  70
    32
  0
VERTEX
  8
0
  5
2629
 10
4380.02
 20
2496.97
 30
0.00000
  70
    32
  0
VERTEX
  8
0
  5
262A
 10
4380.03
 20
2497.00
 30
0.00000
  70
    32
  0
VERTEX
  8
0
  5
262B
 10
4380.03
 20
2497.03
 30
0.00000
  70
    32
  0
VERTEX
  8
0
  5
262C
 10
4380.03
 20
2497.06
 30
0.00000
  70
    32
  0
VERTEX
  8
0
  5
262D
 10
4380.03
 20
2497.09
 30
0.00000
  70
    32
  0
VERTEX
  8
0
  5
262E
 10
4380.04
 20
2497.12
 30
0.00000
  70
    32
  0
VERTEX
  8
0
  5
262F
 10
4380.04
 20
2497.15
 30
0.00000
  70
    32
  0
VERTEX
  8
0
  5
2630
 10
4380.04
 20
2497.18
 30
0.00000
  70
    32
  0
VERTEX
  8
0
  5
2631
 10
4380.04
 20
2497.20
 30
0.00000
  70
    32
  0
VERTEX
  8
0
  5
2632
 10
4380.04
 20
2497.23
 30
0.00000
  70
    32
  0
VERTEX
  8
0
  5
2633
 10
4380.05
 20
2497.26
 30
0.00000
  70
    32
  0
VERTEX
  8
0
  5
2634
 10
4380.05
 20
2497.30
 30
0.00000
  70
    32
  0
VERTEX
  8
0
  5
2635
 10
4380.05
 20
2497.33
 30
0.00000
  70
    32
  0
VERTEX
  8
0
  5
2636
 10
4380.05
 20
2497.36
 30
0.00000
  70
    32
  0
VERTEX
  8
0
  5
2637
 10
4380.05
 20
2497.39
 30
0.00000
  70
    32
  0
VERTEX
  8
0
  5
2638
 10
4380.05
 20
2497.42
 30
0.00000
  70
    32
  0
VERTEX
  8
0
  5
2639
 10
4380.05
 20
2497.45
 30
0.00000
  70
    32
  0
VERTEX
  8
0
  5
263A
 10
4380.05
 20
2497.48
 30
0.00000
  70
    32
  0
VERTEX
  8
0
  5
263B
 10
4380.06
 20
2497.51
 30
0.00000
  70
    32
  0
VERTEX
  8
0
  5
263C
 10
4380.06
 20
2497.54
 30
0.00000
  70
    32
  0
VERTEX
  8
0
  5
263D
 10
4380.06
 20
2497.57
 30
0.00000
  70
    32
  0
VERTEX
  8
0
  5
263E
 10
4380.06
 20
2497.60
 30
0.00000
  70
    32
  0
VERTEX
  8
0
  5
263F
 10
4380.06
 20
2497.63
 30
0.00000
  70
    32
  0
VERTEX
  8
0
  5
2640
 10
4380.06
 20
2497.66
 30
0.00000
  70
    32
  0
VERTEX
  8
0
  5
2641
 10
4380.06
 20
2497.69
 30
0.00000
  70
    32
  0
VERTEX
  8
0
  5
2642
 10
4380.06
 20
2497.72
 30
0.00000
  70
    32
  0
VERTEX
  8
0
  5
2643
 10
4380.06
 20
2497.75
 30
0.00000
  70
    32
  0
SEQEND
  8
0
  5
2644
  0
POLYLINE
  5
17FD
  8
0
  6
CONTINUOUS
 62
     3
 10
4380.0586714614892117
 20
2502.7526988373601853
 30
0.0
 66
     1
 70
     8
  0
VERTEX
  8
0
  5
2645
 10
4380.06
 20
2502.75
 30
0.00000
  70
    32
  0
VERTEX
  8
0
  5
2646
 10
4380.06
 20
2502.78
 30
0.00000
  70
    32
  0
VERTEX
  8
0
  5
2647
 10
4380.06
 20
2502.81
 30
0.00000
  70
    32
  0
VERTEX
  8
0
  5
2648
 10
4380.06
 20
2502.84
 30
0.00000
  70
    32
  0
VERTEX
  8
0
  5
2649
 10
4380.06
 20
2502.88
 30
0.00000
  70
    32
  0
VERTEX
  8
0
  5
264A
 10
4380.06
 20
2502.91
 30
0.00000
  70
    32
  0
VERTEX
  8
0
  5
264B
 10
4380.06
 20
2502.94
 30
0.00000
  70
    32
  0
VERTEX
  8
0
  5
264C
 10
4380.06
 20
2502.97
 30
0.00000
  70
    32
  0
VERTEX
  8
0
  5
264D
 10
4380.06
 20
2503.00
 30
0.00000
  70
    32
  0
VERTEX
  8
0
  5
264E
 10
4380.05
 20
2503.03
 30
0.00000
  70
    32
  0
VERTEX
  8
0
  5
264F
 10
4380.05
 20
2503.06
 30
0.00000
  70
    32
  0
VERTEX
  8
0
  5
2650
 10
4380.05
 20
2503.09
 30
0.00000
  70
    32
  0
VERTEX
  8
0
  5
2651
 10
4380.05
 20
2503.12
 30
0.00000
  70
    32
  0
VERTEX
  8
0
  5
2652
 10
4380.05
 20
2503.15
 30
0.00000
  70
    32
  0
VERTEX
  8
0
  5
2653
 10
4380.05
 20
2503.18
 30
0.00000
  70
    32
  0
VERTEX
  8
0
  5
2654
 10
4380.05
 20
2503.21
 30
0.00000
  70
    32
  0
VERTEX
  8
0
  5
2655
 10
4380.05
 20
2503.24
 30
0.00000
  70
    32
  0
VERTEX
  8
0
  5
2656
 10
4380.04
 20
2503.27
 30
0.00000
  70
    32
  0
VERTEX
  8
0
  5
2657
 10
4380.04
 20
2503.30
 30
0.00000
  70
    32
  0
VERTEX
  8
0
  5
2658
 10
4380.04
 20
2503.33
 30
0.00000
  70
    32
  0
VERTEX
  8
0
  5
2659
 10
4380.04
 20
2503.36
 30
0.00000
  70
    32
  0
VERTEX
  8
0
  5
265A
 10
4380.04
 20
2503.39
 30
0.00000
  70
    32
  0
VERTEX
  8
0
  5
265B
 10
4380.03
 20
2503.42
 30
0.00000
  70
    32
  0
VERTEX
  8
0
  5
265C
 10
4380.03
 20
2503.45
 30
0.00000
  70
    32
  0
VERTEX
  8
0
  5
265D
 10
4380.03
 20
2503.48
 30
0.00000
  70
    32
  0
VERTEX
  8
0
  5
265E
 10
4380.03
 20
2503.51
 30
0.00000
  70
    32
  0
VERTEX
  8
0
  5
265F
 10
4380.02
 20
2503.54
 30
0.00000
  70
    32
  0
VERTEX
  8
0
  5
2660
 10
4380.02
 20
2503.57
 30
0.00000
  70
    32
  0
VERTEX
  8
0
  5
2661
 10
4380.02
 20
2503.59
 30
0.00000
  70
    32
  0
VERTEX
  8
0
  5
2662
 10
4380.01
 20
2503.62
 30
0.00000
  70
    32
  0
VERTEX
  8
0
  5
2663
 10
4380.01
 20
2503.65
 30
0.00000
  70
    32
  0
VERTEX
  8
0
  5
2664
 10
4380.01
 20
2503.68
 30
0.00000
  70
    32
  0
VERTEX
  8
0
  5
2665
 10
4380.01
 20
2503.71
 30
0.00000
  70
    32
  0
VERTEX
  8
0
  5
2666
 10
4380.00
 20
2503.74
 30
0.00000
  70
    32
  0
VERTEX
  8
0
  5
2667
 10
4380.00
 20
2503.77
 30
0.00000
  70
    32
  0
VERTEX
  8
0
  5
2668
 10
4380.00
 20
2503.79
 30
0.00000
  70
    32
  0
VERTEX
  8
0
  5
2669
 10
4379.99
 20
2503.82
 30
0.00000
  70
    32
  0
VERTEX
  8
0
  5
266A
 10
4379.99
 20
2503.85
 30
0.00000
  70
    32
  0
VERTEX
  8
0
  5
266B
 10
4379.98
 20
2503.88
 30
0.00000
  70
    32
  0
VERTEX
  8
0
  5
266C
 10
4379.98
 20
2503.90
 30
0.00000
  70
    32
  0
VERTEX
  8
0
  5
266D
 10
4379.98
 20
2503.93
 30
0.00000
  70
    32
  0
VERTEX
  8
0
  5
266E
 10
4379.97
 20
2503.96
 30
0.00000
  70
    32
  0
VERTEX
  8
0
  5
266F
 10
4379.97
 20
2503.98
 30
0.00000
  70
    32
  0
VERTEX
  8
0
  5
2670
 10
4379.96
 20
2504.01
 30
0.00000
  70
    32
  0
VERTEX
  8
0
  5
2671
 10
4379.96
 20
2504.04
 30
0.00000
  70
    32
  0
VERTEX
  8
0
  5
2672
 10
4379.95
 20
2504.06
 30
0.00000
  70
    32
  0
VERTEX
  8
0
  5
2673
 10
4379.95
 20
2504.09
 30
0.00000
  70
    32
  0
VERTEX
  8
0
  5
2674
 10
4379.95
 20
2504.12
 30
0.00000
  70
    32
  0
VERTEX
  8
0
  5
2675
 10
4379.94
 20
2504.14
 30
0.00000
  70
    32
  0
VERTEX
  8
0
  5
2676
 10
4379.94
 20
2504.17
 30
0.00000
  70
    32
  0
VERTEX
  8
0
  5
2677
 10
4379.93
 20
2504.19
 30
0.00000
  70
    32
  0
VERTEX
  8
0
  5
2678
 10
4379.93
 20
2504.22
 30
0.00000
  70
    32
  0
VERTEX
  8
0
  5
2679
 10
4379.92
 20
2504.24
 30
0.00000
  70
    32
  0
VERTEX
  8
0
  5
267A
 10
4379.92
 20
2504.27
 30
0.00000
  70
    32
  0
VERTEX
  8
0
  5
267B
 10
4379.91
 20
2504.29
 30
0.00000
  70
    32
  0
VERTEX
  8
0
  5
267C
 10
4379.91
 20
2504.31
 30
0.00000
  70
    32
  0
VERTEX
  8
0
  5
267D
 10
4379.90
 20
2504.34
 30
0.00000
  70
    32
  0
VERTEX
  8
0
  5
267E
 10
4379.89
 20
2504.36
 30
0.00000
  70
    32
  0
VERTEX
  8
0
  5
267F
 10
4379.89
 20
2504.39
 30
0.00000
  70
    32
  0
VERTEX
  8
0
  5
2680
 10
4379.88
 20
2504.41
 30
0.00000
  70
    32
  0
VERTEX
  8
0
  5
2681
 10
4379.88
 20
2504.43
 30
0.00000
  70
    32
  0
VERTEX
  8
0
  5
2682
 10
4379.87
 20
2504.45
 30
0.00000
  70
    32
  0
VERTEX
  8
0
  5
2683
 10
4379.87
 20
2504.48
 30
0.00000
  70
    32
  0
VERTEX
  8
0
  5
2684
 10
4379.86
 20
2504.50
 30
0.00000
  70
    32
  0
VERTEX
  8
0
  5
2685
 10
4379.85
 20
2504.52
 30
0.00000
  70
    32
  0
VERTEX
  8
0
  5
2686
 10
4379.85
 20
2504.54
 30
0.00000
  70
    32
  0
VERTEX
  8
0
  5
2687
 10
4379.84
 20
2504.56
 30
0.00000
  70
    32
  0
VERTEX
  8
0
  5
2688
 10
4379.84
 20
2504.58
 30
0.00000
  70
    32
  0
VERTEX
  8
0
  5
2689
 10
4379.83
 20
2504.61
 30
0.00000
  70
    32
  0
VERTEX
  8
0
  5
268A
 10
4379.82
 20
2504.63
 30
0.00000
  70
    32
  0
VERTEX
  8
0
  5
268B
 10
4379.82
 20
2504.65
 30
0.00000
  70
    32
  0
VERTEX
  8
0
  5
268C
 10
4379.81
 20
2504.67
 30
0.00000
  70
    32
  0
VERTEX
  8
0
  5
268D
 10
4379.80
 20
2504.69
 30
0.00000
  70
    32
  0
VERTEX
  8
0
  5
268E
 10
4379.80
 20
2504.70
 30
0.00000
  70
    32
  0
VERTEX
  8
0
  5
268F
 10
4379.79
 20
2504.72
 30
0.00000
  70
    32
  0
VERTEX
  8
0
  5
2690
 10
4379.78
 20
2504.74
 30
0.00000
  70
    32
  0
VERTEX
  8
0
  5
2691
 10
4379.78
 20
2504.76
 30
0.00000
  70
    32
  0
VERTEX
  8
0
  5
2692
 10
4379.77
 20
2504.78
 30
0.00000
  70
    32
  0
VERTEX
  8
0
  5
2693
 10
4379.76
 20
2504.80
 30
0.00000
  70
    32
  0
VERTEX
  8
0
  5
2694
 10
4379.75
 20
2504.81
 30
0.00000
  70
    32
  0
VERTEX
  8
0
  5
2695
 10
4379.75
 20
2504.83
 30
0.00000
  70
    32
  0
VERTEX
  8
0
  5
2696
 10
4379.74
 20
2504.85
 30
0.00000
  70
    32
  0
VERTEX
  8
0
  5
2697
 10
4379.73
 20
2504.86
 30
0.00000
  70
    32
  0
VERTEX
  8
0
  5
2698
 10
4379.73
 20
2504.88
 30
0.00000
  70
    32
  0
VERTEX
  8
0
  5
2699
 10
4379.72
 20
2504.90
 30
0.00000
  70
    32
  0
VERTEX
  8
0
  5
269A
 10
4379.71
 20
2504.91
 30
0.00000
  70
    32
  0
VERTEX
  8
0
  5
269B
 10
4379.70
 20
2504.93
 30
0.00000
  70
    32
  0
VERTEX
  8
0
  5
269C
 10
4379.70
 20
2504.94
 30
0.00000
  70
    32
  0
VERTEX
  8
0
  5
269D
 10
4379.69
 20
2504.96
 30
0.00000
  70
    32
  0
VERTEX
  8
0
  5
269E
 10
4379.68
 20
2504.97
 30
0.00000
  70
    32
  0
VERTEX
  8
0
  5
269F
 10
4379.67
 20
2504.99
 30
0.00000
  70
    32
  0
VERTEX
  8
0
  5
26A0
 10
4379.67
 20
2505.00
 30
0.00000
  70
    32
  0
VERTEX
  8
0
  5
26A1
 10
4379.66
 20
2505.01
 30
0.00000
  70
    32
  0
VERTEX
  8
0
  5
26A2
 10
4379.65
 20
2505.03
 30
0.00000
  70
    32
  0
VERTEX
  8
0
  5
26A3
 10
4379.64
 20
2505.04
 30
0.00000
  70
    32
  0
VERTEX
  8
0
  5
26A4
 10
4379.63
 20
2505.05
 30
0.00000
  70
    32
  0
VERTEX
  8
0
  5
26A5
 10
4379.63
 20
2505.06
 30
0.00000
  70
    32
  0
VERTEX
  8
0
  5
26A6
 10
4379.62
 20
2505.07
 30
0.00000
  70
    32
  0
VERTEX
  8
0
  5
26A7
 10
4379.61
 20
2505.09
 30
0.00000
  70
    32
  0
VERTEX
  8
0
  5
26A8
 10
4379.60
 20
2505.10
 30
0.00000
  70
    32
  0
VERTEX
  8
0
  5
26A9
 10
4379.59
 20
2505.11
 30
0.00000
  70
    32
  0
VERTEX
  8
0
  5
26AA
 10
4379.59
 20
2505.12
 30
0.00000
  70
    32
  0
VERTEX
  8
0
  5
26AB
 10
4379.58
 20
2505.13
 30
0.00000
  70
    32
  0
VERTEX
  8
0
  5
26AC
 10
4379.57
 20
2505.14
 30
0.00000
  70
    32
  0
VERTEX
  8
0
  5
26AD
 10
4379.56
 20
2505.15
 30
0.00000
  70
    32
  0
VERTEX
  8
0
  5
26AE
 10
4379.55
 20
2505.15
 30
0.00000
  70
    32
  0
VERTEX
  8
0
  5
26AF
 10
4379.55
 20
2505.16
 30
0.00000
  70
    32
  0
VERTEX
  8
0
  5
26B0
 10
4379.54
 20
2505.17
 30
0.00000
  70
    32
  0
VERTEX
  8
0
  5
26B1
 10
4379.53
 20
2505.18
 30
0.00000
  70
    32
  0
VERTEX
  8
0
  5
26B2
 10
4379.52
 20
2505.19
 30
0.00000
  70
    32
  0
VERTEX
  8
0
  5
26B3
 10
4379.51
 20
2505.19
 30
0.00000
  70
    32
  0
VERTEX
  8
0
  5
26B4
 10
4379.50
 20
2505.20
 30
0.00000
  70
    32
  0
VERTEX
  8
0
  5
26B5
 10
4379.50
 20
2505.20
 30
0.00000
  70
    32
  0
VERTEX
  8
0
  5
26B6
 10
4379.49
 20
2505.21
 30
0.00000
  70
    32
  0
VERTEX
  8
0
  5
26B7
 10
4379.48
 20
2505.22
 30
0.00000
  70
    32
  0
VERTEX
  8
0
  5
26B8
 10
4379.47
 20
2505.22
 30
0.00000
  70
    32
  0
VERTEX
  8
0
  5
26B9
 10
4379.46
 20
2505.23
 30
0.00000
  70
    32
  0
VERTEX
  8
0
  5
26BA
 10
4379.45
 20
2505.23
 30
0.00000
  70
    32
  0
VERTEX
  8
0
  5
26BB
 10
4379.44
 20
2505.23
 30
0.00000
  70
    32
  0
VERTEX
  8
0
  5
26BC
 10
4379.44
 20
2505.24
 30
0.00000
  70
    32
  0
VERTEX
  8
0
  5
26BD
 10
4379.43
 20
2505.24
 30
0.00000
  70
    32
  0
VERTEX
  8
0
  5
26BE
 10
4379.42
 20
2505.24
 30
0.00000
  70
    32
  0
VERTEX
  8
0
  5
26BF
 10
4379.41
 20
2505.25
 30
0.00000
  70
    32
  0
VERTEX
  8
0
  5
26C0
 10
4379.40
 20
2505.25
 30
0.00000
  70
    32
  0
VERTEX
  8
0
  5
26C1
 10
4379.39
 20
2505.25
 30
0.00000
  70
    32
  0
VERTEX
  8
0
  5
26C2
 10
4379.38
 20
2505.25
 30
0.00000
  70
    32
  0
VERTEX
  8
0
  5
26C3
 10
4379.38
 20
2505.25
 30
0.00000
  70
    32
  0
VERTEX
  8
0
  5
26C4
 10
4379.37
 20
2505.25
 30
0.00000
  70
    32
  0
VERTEX
  8
0
  5
26C5
 10
4379.36
 20
2505.25
 30
0.00000
  70
    32
  0
SEQEND
  8
0
  5
26C6
  0
LINE
  5
17FE
  8
0
  6
CONTINUOUS
 62
     4
 10
4448.9768109149299562
 20
2196.4527908377349377
 30
0.0
 11
4448.9768109149299562
 21
2186.4527908377349377
 31
0.0
  0
LINE
  5
17FF
  8
0
  6
CONTINUOUS
 62
     4
 10
4448.9768109149299562
 20
2196.4527908377349377
 30
0.0
 11
4449.9768109149299562
 21
2196.4527908377349377
 31
0.0
  0
LINE
  5
1800
  8
0
  6
CONTINUOUS
 62
     4
 10
4449.9768109149299562
 20
2187.4527908377349377
 30
0.0
 11
4458.9768109149290467
 21
2187.4527908377349377
 31
0.0
  0
LINE
  5
1801
  8
0
  6
CONTINUOUS
 62
     4
 10
4448.9768109149299562
 20
2186.4527908377349377
 30
0.0
 11
4459.9768109149299562
 21
2186.4527908377349377
 31
0.0
  0
LINE
  5
1802
  8
0
  6
CONTINUOUS
 62
     4
 10
4449.976794206420891
 20
2892.4527908377349377
 30
0.0
 11
4449.9768109149881639
 21
2187.4527908377349377
 31
0.0
  0
LINE
  5
1803
  8
0
  6
CONTINUOUS
 62
     4
 10
4448.9767942066528121
 20
2893.4527908377349377
 30
0.0
 11
4448.9767942066528121
 21
2883.4527908377349377
 31
0.0
  0
LINE
  5
1804
  8
0
  6
CONTINUOUS
 62
     4
 10
4448.9767942066528121
 20
2883.4527908377349377
 30
0.0
 11
4449.9767942066537216
 21
2883.4527908377349377
 31
0.0
  0
LINE
  5
1805
  8
0
  6
CONTINUOUS
 62
     4
 10
4448.9767942066528121
 20
2893.4527908377349377
 30
0.0
 11
4459.9767942066528121
 21
2893.4527908377349377
 31
0.0
  0
LINE
  5
1806
  8
0
  6
CONTINUOUS
 62
     4
 10
4458.9768109149881639
 20
2212.4527908378508982
 30
0.0
 11
4459.9768109149299562
 21
2212.4527908377349377
 31
0.0
  0
LINE
  5
1807
  8
0
  6
CONTINUOUS
 62
     4
 10
4458.9768109149881639
 20
2212.4527908378508982
 30
0.0
 11
4458.9768109149290467
 21
2187.4527908377349377
 31
0.0
  0
LINE
  5
1808
  8
0
  6
CONTINUOUS
 62
     4
 10
4458.9767942066537216
 20
2856.4527908377349377
 30
0.0
 11
4459.9767942066528121
 21
2856.4527908377349377
 31
0.0
  0
LINE
  5
1809
  8
0
  6
CONTINUOUS
 62
     4
 10
4458.9767942066537216
 20
2892.4527908377349377
 30
0.0
 11
4458.9767942066537216
 21
2856.4527908377349377
 31
0.0
  0
LINE
  5
180A
  8
0
  6
CONTINUOUS
 62
     4
 10
4449.9767942066537216
 20
2892.4527908377349377
 30
0.0
 11
4458.9767942066537216
 21
2892.4527908377349377
 31
0.0
  0
LINE
  5
180B
  8
0
  6
CONTINUOUS
 62
     4
 10
4454.9767942066528121
 20
2892.4527908377349377
 30
0.0
 11
4454.9767942066528121
 21
2611.9527908377349377
 31
0.0
  0
LINE
  5
180C
  8
0
  6
CONTINUOUS
 62
     4
 10
4454.9767942066528121
 20
2593.9527908377349377
 30
0.0
 11
4454.9767942066528121
 21
2187.4527908377349377
 31
0.0
  0
POLYLINE
  5
180D
  8
0
  6
CONTINUOUS
 62
     3
 66
     1
 10
0.0
 20
0.0
 30
0.0
  0
VERTEX
  5
180E
  8
0
  6
CONTINUOUS
 62
     3
 10
4423.7768048407160677
 20
2386.2528020206950714
 30
0.0
  0
VERTEX
  5
180F
  8
0
  6
CONTINUOUS
 62
     3
 10
4423.7768048407160677
 20
2418.2528020206959809
 30
0.0
  0
SEQEND
  5
1810
  8
0
  6
CONTINUOUS
 62
     3
  0
LINE
  5
1811
  8
0
  6
CONTINUOUS
 62
     3
 10
4441.7768048407160677
 20
2420.2528020206959809
 30
0.0
 11
4441.7768048407160677
 21
2384.2528020206959809
 31
0.0
  0
LINE
  5
1812
  8
0
  6
CONTINUOUS
 62
     3
 10
4443.9768048407277092
 20
2424.7528020206959809
 30
0.0
 11
4443.9768048407277092
 21
2379.7528020206950714
 31
0.0
1001
GENIUS_GENREC_14
1002
{
1000
PYDIR
1011
4443.9768048407277092
1021
0.0
1031
0.0
1021
2430.7528020206959809
1031
0.0
1002
}
1002
{
1000
PXDIR
1011
4449.9768048407267997
1021
0.0
1031
0.0
1021
2373.7528020206959809
1031
0.0
1002
}
1002
{
1000
PORI
1011
4443.9768048407277092
1021
0.0
1031
0.0
1021
2373.7528020206959809
1031
0.0
1002
}
1002
{
1000
PINS
1011
4443.9768048407277092
1021
0.0
1031
0.0
1021
2373.7528020206959809
1031
0.0
1002
}
1002
{
1000
PINS2
1011
4449.9768048407267997
1021
0.0
1031
0.0
1021
2430.7528020206959809
1031
0.0
1002
}
1002
{
1000
C
1070
     1
1002
}
1001
GENIUS_GENODEF_13
1002
{
1000
HIER
1070
     0
1002
}
1002
{
1000
MANEDIT
1070
     0
1002
}
1002
{
1000
NOSEL
1070
     0
1002
}
1002
{
1000
BEHIND
1070
     0
1002
}
1002
{
1000
REACTOR
1002
}
1001
GENIUS_GENOBJ-N-REC_13
1002
{
1000
OWNER
1000
GEN
1002
}
  0
LINE
  5
1813
  8
0
  6
CONTINUOUS
 62
     3
 10
4196.4767929002409801
 20
2453.2528020206959809
 30
0.0
 11
4196.4767929002991877
 21
2392.2528020206959809
 31
0.0
  0
POLYLINE
  5
1814
  8
0
  6
CONTINUOUS
 62
     3
 66
     1
 10
0.0
 20
0.0
 30
0.0
  0
VERTEX
  5
1815
  8
0
  6
CONTINUOUS
 62
     3
 10
4197.9767929002991877
 20
2380.2528020206959809
 30
0.0
  0
VERTEX
  5
1816
  8
0
  6
CONTINUOUS
 62
     3
 10
4201.9767929002991877
 20
2415.2528020206959809
 30
0.0
  0
VERTEX
  5
1817
  8
0
  6
CONTINUOUS
 62
     3
 10
4247.9767929002991877
 20
2415.2528020206959809
 30
0.0
  0
VERTEX
  5
1818
  8
0
  6
CONTINUOUS
 62
     3
 10
4251.9767929003000972
 20
2380.2528020206959809
 30
0.0
  0
SEQEND
  5
1819
  8
0
  6
CONTINUOUS
 62
     3
  0
LINE
  5
181A
  8
0
  6
CONTINUOUS
 62
     3
 10
4259.9767929002991877
 20
2414.7528020206959809
 30
0.0
 11
4259.9767929002991877
 21
2388.7528020206950714
 31
0.0
  0
POINT
  5
181B
  8
0
  6
CONTINUOUS
 62
     3
 10
4251.9767929003000972
 20
2378.553025636647817
 30
0.0
  0
LINE
  5
181C
  8
0
  6
CONTINUOUS
 62
     3
 10
4259.9767929002991877
 20
2388.7528020206950714
 30
0.0
 11
4251.0053643288556486
 21
2388.7528020206950714
 31
0.0
  0
POINT
  5
181D
  8
0
  6
CONTINUOUS
 62
     3
 10
4251.9767929003000972
 20
2377.2528020206950714
 30
0.0
  0
POINT
  5
181E
  8
0
  6
CONTINUOUS
 62
     3
 10
4197.9767929002991877
 20
2378.7528020206959809
 30
0.0
  0
LINE
  5
181F
  8
0
  6
CONTINUOUS
 62
     3
 10
4196.4767929002991877
 20
2392.2528020206959809
 30
0.0
 11
4199.3482214717078023
 21
2392.2528020206959809
 31
0.0
  0
POLYLINE
  5
1820
  8
0
  6
CONTINUOUS
 62
     3
 66
     1
 10
0.0
 20
0.0
 30
0.0
 70
     1
  0
VERTEX
  5
1821
  8
0
  6
CONTINUOUS
 62
     3
 10
4197.9767929002991877
 20
2380.2528020206959809
 30
0.0
  0
VERTEX
  5
1822
  8
0
  6
CONTINUOUS
 62
     3
 10
4197.9767929002991877
 20
2377.2528020206950714
 30
0.0
  0
VERTEX
  5
1823
  8
0
  6
CONTINUOUS
 62
     3
 10
4251.9767929003000972
 20
2377.2528020206950714
 30
0.0
  0
VERTEX
  5
1824
  8
0
  6
CONTINUOUS
 62
     3
 10
4251.9767929003000972
 20
2380.2528020206959809
 30
0.0
  0
SEQEND
  5
1825
  8
0
  6
CONTINUOUS
 62
     3
  0
LINE
  5
1826
  8
0
  6
CONTINUOUS
 62
     3
 10
4197.7267929002991877
 20
2365.7528020206959809
 30
0.0
 11
4252.2267929002991877
 21
2365.7528020206959809
 31
0.0
  0
POLYLINE
  5
1827
  8
0
  6
CONTINUOUS
 62
     3
 66
     1
 10
0.0
 20
0.0
 30
0.0
 70
     1
  0
VERTEX
  5
1828
  8
0
  6
CONTINUOUS
 62
     3
 10
4197.7267929002991877
 20
2365.7528020206959809
 30
0.0
  0
VERTEX
  5
1829
  8
0
  6
CONTINUOUS
 62
     3
 10
4197.7267929002991877
 20
2374.2528020206950714
 30
0.0
  0
VERTEX
  5
182A
  8
0
  6
CONTINUOUS
 62
     3
 10
4252.2267929002991877
 20
2374.2528020206950714
 30
0.0
  0
VERTEX
  5
182B
  8
0
  6
CONTINUOUS
 62
     3
 10
4252.2267929002991877
 20
2365.7528020206959809
 30
0.0
  0
VERTEX
  5
182C
  8
0
  6
CONTINUOUS
 62
     3
 10
4251.7267929002982783
 20
2365.2528020206950714
 30
0.0
  0
VERTEX
  5
182D
  8
0
  6
CONTINUOUS
 62
     3
 10
4198.2267929002991877
 20
2365.2528020206950714
 30
0.0
  0
SEQEND
  5
182E
  8
0
  6
CONTINUOUS
 62
     3
  0
POLYLINE
  5
182F
  8
0
  6
CONTINUOUS
 62
     3
 66
     1
 10
0.0
 20
0.0
 30
0.0
  0
VERTEX
  5
1830
  8
0
  6
CONTINUOUS
 62
     3
 10
4198.4767929002991877
 20
2374.2528020206950714
 30
0.0
  0
VERTEX
  5
1831
  8
0
  6
CONTINUOUS
 62
     3
 10
4198.4767929002991877
 20
2376.2528020206959809
 30
0.0
  0
VERTEX
  5
1832
  8
0
  6
CONTINUOUS
 62
     3
 10
4251.4767929002991877
 20
2376.2528020206959809
 30
0.0
  0
VERTEX
  5
1833
  8
0
  6
CONTINUOUS
 62
     3
 10
4251.4767929002991877
 20
2374.2528020206950714
 30
0.0
  0
SEQEND
  5
1834
  8
0
  6
CONTINUOUS
 62
     3
  0
POLYLINE
  5
1835
  8
0
  6
CONTINUOUS
 62
     3
 66
     1
 10
0.0
 20
0.0
 30
0.0
  0
VERTEX
  5
1836
  8
0
  6
CONTINUOUS
 62
     3
 10
4250.4767929003000972
 20
2377.2528020206950714
 30
0.0
  0
VERTEX
  5
1837
  8
0
  6
CONTINUOUS
 62
     3
 10
4250.4767929003000972
 20
2376.2528020206959809
 30
0.0
  0
SEQEND
  5
1838
  8
0
  6
CONTINUOUS
 62
     3
  0
LINE
  5
1839
  8
0
  6
CONTINUOUS
 62
     3
 10
4443.9768048407277092
 20
2386.2528020206950714
 30
0.0
 11
4441.7768048407160677
 21
2386.2528020206950714
 31
0.0
  0
LINE
  5
183A
  8
0
  6
CONTINUOUS
 62
     3
 10
4441.7768048407160677
 20
2384.2528020206959809
 30
0.0
 11
4425.7768048407160677
 21
2384.2528020206959809
 31
0.0
  0
POLYLINE
  5
183B
  8
0
  6
CONTINUOUS
 62
     3
 66
     1
 10
0.0
 20
0.0
 30
0.0
  0
VERTEX
  5
183C
  8
0
  6
CONTINUOUS
 62
     3
 10
4423.7768048407160677
 20
2388.5028020206950714
 30
0.0
  0
VERTEX
  5
183D
  8
0
  6
CONTINUOUS
 62
     3
 10
4415.7768048407160677
 20
2388.5028020206950714
 30
0.0
  0
SEQEND
  5
183E
  8
0
  6
CONTINUOUS
 62
     3
  0
ARC
  5
183F
  8
0
  6
CONTINUOUS
 62
     3
 10
4449.9768048407267997
 20
2379.7528020206950714
 30
0.0
 40
5.9999999999996581
 50
180.0
 51
270.0
1001
GENIUS_GENREC_14
1002
{
1000
PYDIR
1011
4443.9768048407277092
1021
0.0
1031
0.0
1021
2430.7528020206959809
1031
0.0
1002
}
1002
{
1000
PXDIR
1011
4449.9768048407267997
1021
0.0
1031
0.0
1021
2373.7528020206959809
1031
0.0
1002
}
1002
{
1000
PORI
1011
4443.9768048407277092
1021
0.0
1031
0.0
1021
2373.7528020206959809
1031
0.0
1002
}
1002
{
1000
PINS
1011
4443.9768048407277092
1021
0.0
1031
0.0
1021
2373.7528020206959809
1031
0.0
1002
}
1002
{
1000
PINS2
1011
4449.9768048407267997
1021
0.0
1031
0.0
1021
2430.7528020206959809
1031
0.0
1002
}
1002
{
1000
C
1070
     1
1002
}
1001
GENIUS_GENODEF_13
1002
{
1000
HIER
1070
     0
1002
}
1002
{
1000
MANEDIT
1070
     0
1002
}
1002
{
1000
NOSEL
1070
     0
1002
}
1002
{
1000
BEHIND
1070
     0
1002
}
1002
{
1000
REACTOR
1002
}
1001
GENIUS_GENOBJ-N-REC_13
1002
{
1000
OWNER
1000
GEN
1002
}
  0
ARC
  5
1840
  8
0
  6
CONTINUOUS
 62
     3
 10
4250.3540047067208434
 20
2451.2528020206959809
 30
0.0
 40
2.0
 50
11.8886580397863195
 51
90.0
  0
LINE
  5
1841
  8
0
  6
CONTINUOUS
 62
     3
 10
4196.4767929002409801
 20
2453.2528020206959809
 30
0.0
 11
4250.3540047067208434
 21
2453.2528020206959809
 31
0.0
  0
POLYLINE
  5
1842
  8
0
  6
CONTINUOUS
 62
     3
 66
     1
 10
0.0
 20
0.0
 30
0.0
  0
VERTEX
  5
1843
  8
0
  6
CONTINUOUS
 62
     3
 10
4201.9767929003573954
 20
2434.2528020206959809
 30
0.0
  0
VERTEX
  5
1844
  8
0
  6
CONTINUOUS
 62
     3
 10
4247.9767929002991877
 20
2434.2528020206959809
 30
0.0
  0
VERTEX
  5
1845
  8
0
  6
CONTINUOUS
 62
     3
 10
4247.9767929002991877
 20
2415.2528020206959809
 30
0.0
  0
SEQEND
  5
1846
  8
0
  6
CONTINUOUS
 62
     3
  0
POLYLINE
  5
1847
  8
0
  6
CONTINUOUS
 62
     3
 66
     1
 10
0.0
 20
0.0
 30
0.0
  0
VERTEX
  5
1848
  8
0
  6
CONTINUOUS
 62
     3
 10
4201.9767929002991877
 20
2415.2528020206959809
 30
0.0
  0
VERTEX
  5
1849
  8
0
  6
CONTINUOUS
 62
     3
 10
4201.9767929002991877
 20
2434.2528020206959809
 30
0.0
  0
SEQEND
  5
184A
  8
0
  6
CONTINUOUS
 62
     3
  0
LINE
  5
184B
  8
0
  6
CONTINUOUS
 62
     3
 10
4252.3111042766831815
 20
2451.6648229827987961
 30
0.0
 11
4259.9767929002991877
 21
2415.2528020206959809
 31
0.0
  0
LINE
  5
184C
  8
0
  6
CONTINUOUS
 62
     3
 10
4441.7768048407160677
 20
2418.2528020206959809
 30
0.0
 11
4443.9768048407277092
 21
2418.2528020206959809
 31
0.0
  0
LINE
  5
184D
  8
0
  6
CONTINUOUS
 62
     3
 10
4423.7768048407160677
 20
2418.2528020206959809
 30
0.0
 11
4425.7768048407160677
 21
2420.2528020206959809
 31
0.0
  0
LINE
  5
184E
  8
0
  6
CONTINUOUS
 62
     3
 10
4425.7768048407160677
 20
2420.2528020206959809
 30
0.0
 11
4441.7768048407160677
 21
2420.2528020206959809
 31
0.0
  0
ARC
  5
184F
  8
0
  6
CONTINUOUS
 62
     3
 10
4449.9768048407267997
 20
2424.7528020206959809
 30
0.0
 40
6.0000000000000311
 50
90.0
 51
180.0
1001
GENIUS_GENREC_14
1002
{
1000
PYDIR
1011
4443.9768048407277092
1021
0.0
1031
0.0
1021
2430.7528020206959809
1031
0.0
1002
}
1002
{
1000
PXDIR
1011
4449.9768048407267997
1021
0.0
1031
0.0
1021
2373.7528020206959809
1031
0.0
1002
}
1002
{
1000
PORI
1011
4443.9768048407277092
1021
0.0
1031
0.0
1021
2373.7528020206959809
1031
0.0
1002
}
1002
{
1000
PINS
1011
4443.9768048407277092
1021
0.0
1031
0.0
1021
2373.7528020206959809
1031
0.0
1002
}
1002
{
1000
PINS2
1011
4449.9768048407267997
1021
0.0
1031
0.0
1021
2430.7528020206959809
1031
0.0
1002
}
1002
{
1000
C
1070
     1
1002
}
1001
GENIUS_GENODEF_13
1002
{
1000
HIER
1070
     0
1002
}
1002
{
1000
MANEDIT
1070
     0
1002
}
1002
{
1000
NOSEL
1070
     0
1002
}
1002
{
1000
BEHIND
1070
     0
1002
}
1002
{
1000
REACTOR
1002
}
1001
GENIUS_GENOBJ-N-REC_13
1002
{
1000
OWNER
1000
GEN
1002
}
  0
POLYLINE
  5
1850
  8
0
  6
CONTINUOUS
 62
     3
 66
     1
 10
0.0
 20
0.0
 30
0.0
  0
VERTEX
  5
1851
  8
0
  6
CONTINUOUS
 62
     3
 10
4415.7768048407160677
 20
2389.7528020206959809
 30
0.0
  0
VERTEX
  5
1852
  8
0
  6
CONTINUOUS
 62
     3
 10
4259.9767929002991877
 20
2389.7528020206959809
 30
0.0
  0
SEQEND
  5
1853
  8
0
  6
CONTINUOUS
 62
     3
  0
POLYLINE
  5
1854
  8
0
  6
CONTINUOUS
 62
     3
 66
     1
 10
0.0
 20
0.0
 30
0.0
  0
VERTEX
  5
1855
  8
0
  6
CONTINUOUS
 62
     3
 10
4259.9767929002991877
 20
2414.7528020206959809
 30
0.0
  0
VERTEX
  5
1856
  8
0
  6
CONTINUOUS
 62
     3
 10
4415.7768048407160677
 20
2414.7528020206959809
 30
0.0
  0
SEQEND
  5
1857
  8
0
  6
CONTINUOUS
 62
     3
  0
POLYLINE
  5
1858
  8
0
  6
CONTINUOUS
 62
     3
 66
     1
 10
0.0
 20
0.0
 30
0.0
  0
VERTEX
  5
1859
  8
0
  6
CONTINUOUS
 62
     3
 10
4415.7768048407160677
 20
2388.5028020206950714
 30
0.0
  0
VERTEX
  5
185A
  8
0
  6
CONTINUOUS
 62
     3
 10
4415.7768048407160677
 20
2416.0028020206959809
 30
0.0
  0
VERTEX
  5
185B
  8
0
  6
CONTINUOUS
 62
     3
 10
4423.7768048407160677
 20
2416.0028020206959809
 30
0.0
  0
SEQEND
  5
185C
  8
0
  6
CONTINUOUS
 62
     3
  0
LINE
  5
185D
  8
0
  6
CENTER2
 62
     4
 10
4224.9767929002991877
 20
2362.2528020206959809
 30
0.0
 11
4224.9767929002991877
 21
2432.7528020206959809
 31
0.0
1001
GENIUS_GENODEF_13
1002
{
1000
HIER
1070
     0
1002
}
1002
{
1000
MANEDIT
1070
     0
1002
}
1002
{
1000
NOSEL
1070
     0
1002
}
1002
{
1000
BEHIND
1070
     0
1002
}
1002
{
1000
REACTOR
1002
}
1001
GENIUS_GENOBJ-N-CEN_13
1002
{
1000
OWNER
1000
GEN
1002
}
  0
LINE
  5
185E
  8
0
  6
CENTER2
 62
     4
 10
4449.9768048407267997
 20
2402.2528020206959809
 30
0.0
 11
4193.4767929002991877
 21
2402.2528020206959809
 31
0.0
1001
GENIUS_GENODEF_13
1002
{
1000
HIER
1070
     0
1002
}
1002
{
1000
MANEDIT
1070
     0
1002
}
1002
{
1000
NOSEL
1070
     0
1002
}
1002
{
1000
BEHIND
1070
     0
1002
}
1002
{
1000
REACTOR
1002
}
1001
GENIUS_GENOBJ-N-CEN_13
1002
{
1000
OWNER
1000
GEN
1002
}
  0
LINE
  5
185F
  8
0
  6
CONTINUOUS
 62
     3
 10
4423.7768048407160677
 20
2386.2528020206950714
 30
0.0
 11
4425.7768048407160677
 21
2384.2528020206959809
 31
0.0
  0
DIMENSION
  5
1860
  8
0
 62
     7
  2
*D25
 10
4224.9767929002991877
 20
2137.5524203627142015
 30
0.0
 11
4342.4768060612259433
 21
2182.5524203627142015
 31
0.0
 70
     0
  1
<>
 13
4459.9768192221517893
 23
2137.5524133098078892
 33
0.0
 14
4224.9767929002991877
 24
2362.2528020206959809
 34
0.0
  0
LINE
  5
1861
  8
0
  6
CONTINUOUS
 62
     4
 10
4456.4767942066528121
 20
2555.9527908377931453
 30
0.0
 11
4456.4767942066528121
 21
2499.9527908377931453
 31
0.0
  0
LINE
  5
1862
  8
0
  6
CONTINUOUS
 62
     4
 10
4453.9767942066537216
 20
2611.9527908377931453
 30
0.0
 11
4453.9767942066537216
 21
2593.9527908377931453
 31
0.0
  0
LINE
  5
1863
  8
0
  6
CONTINUOUS
 62
     4
 10
4453.9767942066537216
 20
2611.9527908377931453
 30
0.0
 11
4459.9767942066528121
 21
2611.9527908377931453
 31
0.0
  0
LINE
  5
1864
  8
0
  6
CONTINUOUS
 62
     4
 10
4453.9767942066537216
 20
2593.9527908377931453
 30
0.0
 11
4459.9767942066528121
 21
2593.9527908377931453
 31
0.0
  0
LINE
  5
1865
  8
0
  6
CONTINUOUS
 62
     4
 10
4450.9767942067119293
 20
2610.4527908377931453
 30
0.0
 11
4450.976794206770137
 21
2595.4527908377931453
 31
0.0
  0
LINE
  5
1866
  8
0
  6
CONTINUOUS
 62
     4
 10
4450.976794206770137
 20
2595.4527908377931453
 30
0.0
 11
4453.9767942066537216
 21
2595.4527908377931453
 31
0.0
  0
LINE
  5
1867
  8
0
  6
CONTINUOUS
 62
     4
 10
4450.9767942067119293
 20
2610.4527908377931453
 30
0.0
 11
4453.9767942066537216
 21
2610.4527908377931453
 31
0.0
  0
ARC
  5
1868
  8
0
  6
CONTINUOUS
 62
     4
 10
4457.4767942066528121
 20
2555.9527908377931453
 30
0.0
 40
1.0
 50
90.0
 51
180.0
  0
ARC
  5
1869
  8
0
  6
CONTINUOUS
 62
     4
 10
4457.4767942066528121
 20
2499.9527908377931453
 30
0.0
 40
1.0
 50
180.0
 51
270.0
  0
LINE
  5
186A
  8
0
  6
CONTINUOUS
 62
     4
 10
4457.4767942066528121
 20
2556.9527908377931453
 30
0.0
 11
4459.9768041786146568
 21
2556.9527908377931453
 31
0.0
  0
LINE
  5
186B
  8
0
  6
CONTINUOUS
 62
     4
 10
4457.4767942066528121
 20
2498.9527908377931453
 30
0.0
 11
4459.9768052331628496
 21
2498.9527908377931453
 31
0.0
  0
INSERT
  5
192C
  8
0
 62
     7
  2
A$C0FEC19CC
 10
813.5688242191680501
 20
4764.4535194005584344
 30
0.0
  0
INSERT
  5
192D
  8
0
 62
     7
  2
A$C187A0370
 10
978.5647900092881173
 20
4689.6748113202629611
 30
0.0
  0
INSERT
  5
192E
  8
0
 62
     7
  2
A$C0FEC19CC
 10
1683.5689462190489394
 20
4764.4535194005584344
 30
0.0
  0
INSERT
  5
192F
  8
0
 62
     7
  2
A$C187A0370
 10
1848.5649120091688928
 20
4689.6748113202629611
 30
0.0
  0
INSERT
  5
1936
  8
0
 62
     4
  2
A$C441705F2
 10
1426.067983174289111
 20
4486.4536484455456957
 30
0.0
  0
INSERT
  5
1937
  8
0
 62
     4
  2
A$C06D866C6
 10
1672.0698401895929237
 20
4486.4536484455456957
 30
0.0
  0
INSERT
  5
1938
  8
0
 62
     4
  2
A$C4FD37710
 10
1537.5673514563241042
 20
4475.4533971919436226
 30
0.0
  0
TEXT
  5
193C
  8
0
  6
CONTINUOUS
 62
     2
 10
6074.4224555559339933
 20
4299.7999593400745653
 30
0.0
 40
49.9999999999999929
  1
消毒剤用ディスペンサ
 41
0.9
  0
POLYLINE
  5
1942
  8
0
  6
CONTINUOUS
 62
     3
 66
     1
 10
0.0
 20
0.0
 30
0.0
  0
VERTEX
  5
1943
  8
0
  6
CONTINUOUS
 62
     3
 10
4199.4767929002982783
 20
2376.2528020206959809
 30
0.0
  0
VERTEX
  5
1944
  8
0
  6
CONTINUOUS
 62
     3
 10
4199.4767929002982783
 20
2377.2528020206950714
 30
0.0
  0
SEQEND
  5
1945
  8
0
  6
CONTINUOUS
 62
     3
  0
POLYLINE
  5
194D
  8
WAKU
 62
     6
 66
     1
 10
0.0
 20
0.0
 30
0.0
  0
VERTEX
  5
2360
  8
WAKU
 62
     6
 10
0.0
 20
0.0
 30
0.0
  0
VERTEX
  5
2361
  8
WAKU
 62
     6
 10
0.0
 20
5940.0
 30
0.0
  0
VERTEX
  5
2362
  8
WAKU
 62
     6
 10
8410.0
 20
5940.0
 30
0.0
  0
VERTEX
  5
2363
  8
WAKU
 62
     6
 10
8410.0
 20
0.0
 30
0.0
  0
VERTEX
  5
2364
  8
WAKU
 62
     6
 10
0.0
 20
0.0
 30
0.0
  0
SEQEND
  5
2365
  8
WAKU
 62
     6
  0
POLYLINE
  5
194E
  8
WAKU
 62
     3
 66
     1
 10
0.0
 20
0.0
 30
0.0
 70
     1
  0
VERTEX
  5
2366
  8
WAKU
 62
     3
 10
0.0
 20
0.0
 30
0.0
  0
VERTEX
  5
2367
  8
WAKU
 62
     3
 10
0.0
 20
5680.0
 30
0.0
  0
VERTEX
  5
2368
  8
WAKU
 62
     3
 10
8130.0
 20
5680.0
 30
0.0
  0
VERTEX
  5
2369
  8
WAKU
 62
     3
 10
8130.0
 20
0.0
 30
0.0
  0
SEQEND
  5
236A
  8
WAKU
 62
     3
  0
TEXT
  5
194F
  8
WAKU
 62
     3
 10
7652.9677189187486874
 20
5699.9218150300448542
 30
0.0
 40
80.0
  1
A3-020
  0
TEXT
  5
1954
  8
0
  6
CONTINUOUS
 62
     2
 10
7074.4224555559339933
 20
4379.7999593400745653
 30
0.0
 40
49.9999999999999929
  1
三栄 U11-20X3
 41
0.8
  0
INSERT
  5
1958
  8
0
 62
     4
  2
A$C18BD6BBE
 10
1618.4539630287320051
 20
1170.2528058891180081
 30
0.0
  0
INSERT
  5
1959
  8
0
 62
     7
  2
A$C6BE53629
 10
4075.9771688769687898
 20
1115.2527748681020512
 30
0.0
  0
LINE
  5
1963
  8
0
  6
CONTINUOUS
 62
     2
 10
6489.9468767356011085
 20
3395.9360341760329902
 30
0.0
 11
7657.2635908599477261
 21
3395.9360341760329902
 31
0.0
  0
TEXT
  5
1964
  8
0
  6
CONTINUOUS
 62
     2
 10
6489.9468767356011085
 20
3409.9727137363520342
 30
0.0
 40
49.9999999998000035
  1
名　　称：2人用手洗装置（水道水対応）
  0
TEXT
  5
1965
  8
0
  6
CONTINUOUS
 62
     2
 10
6489.9468767356011085
 20
3529.9727137358859181
 30
0.0
 40
49.9999999998000035
  1
仕 様
  0
LINE
  5
1966
  8
0
  6
CONTINUOUS
 62
     2
 10
6489.9468767356011085
 20
3519.4431641199630576
 30
0.0
 11
6641.0404011624632403
 21
3519.4431641199630576
 31
0.0
  0
LINE
  5
1967
  8
0
  6
CONTINUOUS
 62
     2
 10
6489.9468767356011085
 20
3506.1098307867068797
 30
0.0
 11
6641.0404011624632403
 21
3506.1098307867068797
 31
0.0
  0
TEXT
  5
1968
  8
0
  6
CONTINUOUS
 62
     2
 10
6489.9468767356011085
 20
3289.9727137364097871
 30
0.0
 40
49.9999999999999929
  1
型　　式：MRC-SFW-2
  0
LINE
  5
1969
  8
0
  6
CONTINUOUS
 62
     2
 10
6489.9468767356011085
 20
3275.9360341760329902
 30
0.0
 11
7657.2635908599477261
 21
3275.9360341760329902
 31
0.0
  0
TEXT
  5
1975
  8
0
  6
CONTINUOUS
 62
     2
 10
6388.0287394238403067
 20
1548.6727231021500302
 30
0.0
 40
49.9999999998000035
  1
注）給水・給湯 圧力は0.15～0.3MPaで
 41
0.8
  0
TEXT
  5
1976
  8
0
  6
CONTINUOUS
 62
     2
 10
6388.0287394238403067
 20
1436.3004140562259181
 30
0.0
 40
49.9999999998000035
  1
　　給水・給湯 差圧は0.1MPa以内として下さい。
 41
0.8
  0
LINE
  5
1977
  8
0
  6
CONTINUOUS
 62
     2
 10
6388.0287394238403067
 20
1417.522988241981011
 30
0.0
 11
7651.0455434695468284
 21
1417.522988241981011
 31
0.0
  0
LINE
  5
1978
  8
0
  6
CONTINUOUS
 62
     2
 10
6388.0287394238403067
 20
1519.1653329065879916
 30
0.0
 11
7651.0455434695468284
 21
1519.1653329065879916
 31
0.0
  0
TEXT
  5
1983
  8
WAKU
  6
CONTINUOUS
 62
     2
 10
6489.9468767356011085
 20
2929.9727137365271119
 30
0.0
 40
50.0
  1
設置場所：
  0
LINE
  5
1984
  8
WAKU
  6
CONTINUOUS
 62
     2
 10
6489.9468767356011085
 20
3035.9360341761489508
 30
0.0
 11
7657.2635908599477261
 21
3035.9360341761489508
 31
0.0
  0
LINE
  5
1985
  8
WAKU
  6
CONTINUOUS
 62
     2
 10
6489.9468767356011085
 20
2915.9360341761498603
 30
0.0
 11
7657.2635908599477261
 21
2915.9360341761498603
 31
0.0
  0
TEXT
  5
1986
  8
WAKU
  6
CONTINUOUS
 62
     2
 10
6489.9468767356011085
 20
3049.9727137365262024
 30
0.0
 40
50.0
  1
台　　数：1台
  0
TEXT
  5
1987
  8
0
  6
CONTINUOUS
 62
     2
 10
6489.9468767356011085
 20
3169.9727137363520342
 30
0.0
 40
50.0
  1
運転重量：275kg
  0
LINE
  5
1988
  8
0
  6
CONTINUOUS
 62
     2
 10
6489.9468767356011085
 20
3155.9360341760329902
 30
0.0
 11
7657.2635908599477261
 21
3155.9360341760329902
 31
0.0
  0
ENDSEC
  0
EOF
